osu file format v14

[General]
AudioFilename: audio.mp3
AudioLeadIn: 0
PreviewTime: 0
Countdown: 0
SampleSet: Soft
StackLeniency: 0.7
Mode: 0
LetterboxInBreaks: 0
WidescreenStoryboard: 1

[Editor]
DistanceSpacing: 1.3
BeatDivisor: 3
GridSize: 8
TimelineZoom: 5.799997

[Metadata]
Title:Jun Kissa Hato no Su
TitleUnicode:純喫茶ハトの巣
Artist:Totaka Kazumi
ArtistUnicode:戸高一生
Creator:polka
Version:2 Cubes (Hard)
Source:とびだせ どうぶつの森
Tags:Acoustic Veridian PolkaMocha Instrumental Video Game Pidgeon Nest roost of brewster cafe coffee animal crossing new leaf wild world city folk nintendo tea theme ost original soundtrack
BeatmapID:2182775
BeatmapSetID:1044129

[Difficulty]
HPDrainRate:5
CircleSize:5
OverallDifficulty:6.1
ApproachRate:5.8
SliderMultiplier:2
SliderTickRate:3

[Events]
//Background and Video events
0,0,"d4f514e35f7c5f4204622d4dca5011c9.jpg",0,0
//Break Periods
//Storyboard Layer 0 (Background)
//Storyboard Layer 1 (Fail)
//Storyboard Layer 2 (Pass)
//Storyboard Layer 3 (Foreground)
//Storyboard Layer 4 (Overlay)
//Storyboard Sound Samples

[TimingPoints]
46,975.609756097561,4,2,1,20,1,0
1021,923.076923076923,4,2,1,20,1,0
1944,886.262924667651,4,2,1,20,1,0
2830,933.125972006221,4,2,1,20,1,0
5629,983.606557377049,4,2,1,20,1,0
5956,937.5,4,2,1,20,1,0
6581,952.380952380952,4,2,1,20,1,0
7215,920.951650038373,4,2,1,20,1,0
8442,944.88188976378,4,2,1,20,1,0
9386,923.076923076923,4,2,1,20,1,0
9693,958.466453674121,4,2,1,20,1,0
10331,932.763311309755,4,2,1,20,1,0
11574,-99.403578528827,4,2,1,20,0,0
12196,923.076923076923,4,2,1,20,1,0
13119,937.5,4,2,1,20,1,0
13744,983.606557377049,4,2,1,20,1,0
14071,923.076923076923,4,2,1,20,1,0
14686,940.438871473354,4,2,1,20,1,0
15312,943.396226415094,4,2,1,20,1,0
15940,935.672514619883,4,2,1,20,1,0
17811,933.852140077821,4,2,1,20,1,0
19678,941.915227629513,4,2,1,20,1,0
21561,970.873786407767,4,2,1,20,1,0
22531,944.88188976378,4,2,1,20,1,0
23475,923.076923076923,4,2,1,20,1,0
24090,983.606557377049,4,2,1,20,1,0
24417,923.076923076923,4,2,1,35,1,0
25340,944.88188976378,4,2,1,55,1,1
25654,913.937547600914,4,2,1,20,1,1
26263,934.579439252336,4,2,1,20,1,1
27197,928.792569659443,4,2,1,20,1,1
28126,952.380952380952,4,2,1,20,1,1
29078,944.138473642801,4,2,1,20,1,0
30022,917.43119266055,4,2,1,20,1,0
30939,914.634146341464,4,2,1,20,1,0
31853,923.076923076923,4,2,1,20,1,0
32776,964.630225080386,4,2,1,20,1,0
33740,983.606557377049,3,2,1,20,1,0
34703,983.606557377049,3,2,1,20,1,0
34723,923.076923076923,3,2,1,20,1,0
35338,987.654320987654,3,2,1,20,1,0
35667,882.352941176471,3,2,1,20,1,0
36255,963.855421686747,3,2,1,20,1,0
36576,937.5,4,2,1,20,1,0
38451,930.232558139535,4,2,1,20,1,0
39381,967.741935483871,4,2,1,20,1,0
39703,937.5,4,2,1,20,1,0
40328,930.232558139535,4,2,1,20,1,0
42188,937.5,4,2,1,20,1,0
43125,958.083832335329,4,2,1,20,1,0
44083,927.357032457496,4,2,1,20,1,0
45319,-99.7506234413965,4,2,1,20,0,0
45937,923.076923076923,4,2,1,20,1,0
46860,952.380952380952,4,2,1,20,1,0
47494,1000,4,2,1,20,1,0
47827,895.522388059701,4,2,1,20,1,0
48424,952.380952380952,4,2,1,20,1,0
49058,937.5,4,2,1,20,1,0
49370,1000,4,2,1,20,1,0
49703,935.672514619883,4,2,1,20,1,0
51574,925.212027756361,4,2,1,20,1,0
53424,952.380952380952,4,2,1,20,1,0
53424,-98.8630746416214,4,2,1,20,0,0
54365,952.380952380952,4,2,1,20,1,0
54376,931.67701863354,4,2,1,20,1,0
55307,983.606557377049,4,2,1,20,1,0
56290,944.88188976378,3,2,1,20,1,0
57234,923.076923076923,3,2,1,20,1,0
57849,967.741935483871,3,2,1,20,1,0
58171,916.030534351145,3,2,1,35,1,0
59087,921.305182341651,4,2,1,55,1,1
60008,923.076923076923,4,2,1,20,1,1
60931,948.241801659423,4,2,1,20,1,1
61879,933.852140077821,4,2,1,20,1,1
62189,957.701516360734,4,2,1,20,1,1
62827,941.176470588235,4,2,1,20,1,0
63768,923.076923076923,3,2,1,20,1,0
64691,909.090909090909,3,2,1,20,1,0
65600,923.076923076923,3,2,1,20,1,0
66523,958.466453674121,3,2,1,20,1,0
67481,996.677740863787,3,2,1,20,1,0
68446,996.677740863787,3,2,1,20,1,0
68477,909.090909090909,3,2,1,20,1,0
69083,986.842105263158,3,2,1,20,1,0
69411,888.888888888889,3,2,1,20,1,0
70003,952.380952380952,3,2,1,20,1,0
70320,937.5,4,2,1,20,1,0
72195,935.307872174591,4,2,1,20,1,0
73130,995.850622406639,4,2,1,20,1,0
73461,933.125972006221,4,2,1,20,1,0
74083,930.232558139535,4,2,1,20,1,0
75943,944.88188976378,4,2,1,20,1,0
76887,923.076923076923,4,2,1,20,1,0
77194,946.372239747634,4,2,1,20,1,0
77824,930.232558139535,4,2,1,20,1,0
78754,935.672514619883,4,2,1,20,1,0
80625,956.175298804781,4,2,1,20,1,0
81581,937.5,4,2,1,20,1,0

[Colours]
Combo1 : 251,237,183
Combo2 : 154,80,48
Combo3 : 249,211,134
Combo4 : 69,141,100
SliderBorder : 176,149,95

[HitObjects]
48,296,2830,6,0,L|136:288,1,66.6666666666667,6|0,1:2|0:0,0:0:0:0:
114,289,3452,2,0,P|144:225|272:249,1,200,2|0,0:0|0:0,0:0:0:0:
296,312,4696,5,0,1:2:0:0:
464,136,5629,1,8,0:2:0:0:
510,201,5956,5,2,0:3:0:0:
445,246,6268,1,2,0:2:0:0:
399,185,6581,2,0,L|319:181,1,66.6666666666667,6|0,1:2|0:0,0:0:0:0:
332,181,7215,2,0,P|313:112|183:114,1,200,2|0,0:0|0:0,0:0:0:0:
136,152,8442,5,0,1:2:0:0:
256,360,9386,1,8,0:2:0:0:
296,296,9693,5,2,0:2:0:0:
216,296,10012,1,2,0:3:0:0:
256,224,10331,2,0,B|264:192|264:192|256:160,1,66.6666666666667,4|0,1:2|0:0,0:0:0:0:
216,88,10952,2,0,B|208:56|208:56|216:24,1,66.6666666666667,2|8,0:3|0:2,0:2:0:0:
288,56,11574,2,0,P|344:24|376:168,1,266.666666666667,2|0,0:0|0:0,0:0:0:0:
320,200,13119,5,8,0:2:0:0:
504,360,14071,1,0,1:2:0:0:
320,200,14999,1,8,0:2:0:0:
256,256,15312,5,2,0:3:0:0:
192,200,15626,1,0,3:0:0:0:
256,144,15940,2,0,P|272:112|253:18,2,133.333333333333,2|2|0,1:2|0:3|3:2,0:0:0:0:
95,143,17811,6,0,P|79:111|98:17,2,133.333333333333,2|2|2,1:2|0:3|0:3,0:0:0:0:
160,192,19367,1,2,0:0:0:0:
112,256,19678,2,0,B|208:304|208:208|320:248,2,200,2|8|0,1:2|0:2|1:0,0:0:0:0:
344,184,22531,6,0,L|369:42,1,133.333333333333,10|0,0:0|0:0,0:0:0:0:
256,0,23475,2,0,L|256:152,1,133.333333333333,2|0,1:2|0:0,0:0:0:0:
168,184,24417,2,0,L|142:42,1,133.333333333333,10|0,0:0|0:0,0:0:0:0:
256,0,25340,1,6,1:2:0:0:
256,240,26263,1,8,0:0:0:0:
96,64,27197,6,0,P|88:104|112:152,1,66.6666666666667,2|0,1:2|0:0,0:0:0:0:
160,176,27816,2,0,P|168:216|144:264,1,66.6666666666667,2|8,0:3|0:0,0:0:0:0:
60,267,28443,1,2,0:3:0:0:
31,197,28760,1,2,0:0:0:0:
102,209,29078,2,0,L|271:209,1,133.333333333333,6|0,1:2|0:0,0:0:0:0:
312,208,30022,5,8,0:0:0:0:
472,32,30939,1,0,1:0:0:0:
312,208,31853,1,8,0:0:0:0:
312,208,33740,6,0,P|384:200|416:128,1,133.333333333333,8|0,0:2|0:0,0:0:0:0:
336,128,34723,2,0,P|293:69|214:77,1,133.333333333333,2|0,1:3|0:0,0:0:0:0:
256,144,35667,2,0,P|226:210|273:274,1,133.333333333333,10|0,0:0|0:0,0:0:0:0:
383,211,36576,6,0,L|299:207,1,66.6666666666667,6|0,1:2|0:0,0:0:0:0:
316,207,37201,2,0,P|311:316|211:332,1,200,2|0,0:0|0:0,0:0:0:0:
176,288,38451,5,0,1:0:0:0:
104,56,39381,1,8,0:0:0:0:
40,104,39703,5,2,0:3:0:0:
104,152,40015,1,2,0:0:0:0:
176,104,40328,6,0,L|264:96,1,66.6666666666667,6|0,1:2|0:0,0:0:0:0:
242,97,40948,2,0,P|315:16|402:68,1,200,2|0,0:0|0:0,0:0:0:0:
432,120,42188,5,0,1:0:0:0:
240,264,43125,1,8,0:0:0:0:
296,320,43444,5,2,0:0:0:0:
352,264,43763,1,2,0:3:0:0:
296,208,44083,2,0,B|288:176|288:176|296:144,1,66.6666666666667,4|0,1:2|0:0,0:0:0:0:
336,72,44701,2,0,B|344:40|344:40|336:8,1,66.6666666666667,2|8,3:0|0:0,0:0:0:0:
264,40,45319,2,0,P|208:8|176:152,1,266.666666666667,2|0,0:0|0:0,0:0:0:0:
232,192,46860,5,8,0:0:0:0:
48,344,47827,1,0,1:0:0:0:
232,192,48741,1,8,0:0:0:0:
296,240,49058,5,2,0:3:0:0:
360,192,49370,1,0,3:2:0:0:
296,144,49703,2,0,P|280:112|299:18,2,133.333333333333,2|2|2,1:2|0:3|0:0,0:0:0:0:
456,144,51574,6,0,P|472:112|453:18,2,133.333333333333,2|2|2,1:2|0:3|0:3,0:0:0:0:
392,192,53116,1,2,0:0:0:0:
440,256,53424,2,0,B|344:304|344:208|232:248,2,200,2|8|4,1:2|0:0|1:2,0:0:0:0:
168,184,56290,6,0,L|143:42,1,133.333333333333,10|0,0:0|0:0,0:0:0:0:
256,0,57234,2,0,L|256:152,1,133.333333333333,2|0,1:2|0:0,0:0:0:0:
344,184,58171,2,0,L|370:42,1,133.333333333333,10|0,0:0|0:0,0:0:0:0:
256,0,59087,1,6,1:2:0:0:
256,240,60008,1,8,0:0:0:0:
416,64,60931,6,0,P|424:104|400:152,1,66.6666666666667,2|0,1:2|0:0,0:0:0:0:
352,176,61563,2,0,P|344:216|368:264,1,66.6666666666667,2|8,0:3|0:0,0:0:0:0:
452,267,62190,1,2,0:3:0:0:
481,197,62508,1,2,0:0:0:0:
410,209,62827,2,0,L|241:209,1,133.333333333333,6|0,1:2|0:0,0:0:0:0:
200,208,63768,5,8,0:0:0:0:
40,32,64691,1,0,1:0:0:0:
200,208,65600,1,8,0:0:0:0:
352,200,67481,6,0,P|280:208|248:280,1,133.333333333333,10|0,0:0|0:0,0:0:0:0:
328,280,68477,2,0,P|371:339|450:331,1,133.333333333333,2|0,1:3|0:0,0:0:0:0:
408,264,69411,2,0,P|438:198|391:134,1,133.333333333333,10|0,0:0|0:0,0:0:0:0:
292,207,70320,6,0,L|354:203,1,66.6666666666667,6|0,1:2|0:0,0:0:0:0:
359,203,70945,2,0,P|344:107|428:63,1,200,2|0,0:0|0:0,0:0:0:0:
488,112,72195,5,0,1:0:0:0:
162,118,73130,1,8,0:0:0:0:
116,184,73461,5,2,0:3:0:0:
181,229,73772,1,2,0:0:0:0:
227,168,74083,2,0,L|299:164,1,66.6666666666667,6|0,1:2|0:0,0:0:0:0:
293,164,74703,2,0,P|312:95|442:97,1,200,2|0,0:0|0:0,0:0:0:0:
376,152,75943,5,0,1:0:0:0:
256,360,76887,1,8,0:0:0:0:
216,296,77194,5,2,0:0:0:0:
296,296,77509,1,2,0:3:0:0:
256,224,77824,2,0,B|248:192|248:192|256:160,1,66.6666666666667,4|0,1:2|0:2,0:2:0:0:
296,88,78444,2,0,B|304:56|304:56|296:24,1,66.6666666666667,2|8,0:3|0:0,0:0:0:0:
224,56,79065,2,0,P|168:24|136:168,1,266.666666666667,2|0,0:0|0:0,0:0:0:0:
192,200,80625,5,0,1:0:0:0:
