osu file format v14

[General]
AudioFilename: audio.mp3
AudioLeadIn: 0
PreviewTime: 0
Countdown: 0
SampleSet: Soft
StackLeniency: 0.7
Mode: 0
LetterboxInBreaks: 0
WidescreenStoryboard: 1

[Editor]
DistanceSpacing: 1.3
BeatDivisor: 3
GridSize: 8
TimelineZoom: 4.399998

[Metadata]
Title:Jun Kissa Hato no Su
TitleUnicode:純喫茶ハトの巣
Artist:Totaka Kazumi
ArtistUnicode:戸高一生
Creator:polka
Version:1 Cube (Normal)
Source:とびだせ どうぶつの森
Tags:Acoustic Veridian PolkaMocha Instrumental Video Game Pidgeon Nest roost of brewster cafe coffee animal crossing new leaf wild world city folk nintendo tea theme ost original soundtrack
BeatmapID:2182774
BeatmapSetID:1044129

[Difficulty]
HPDrainRate:4
CircleSize:4
OverallDifficulty:4.5
ApproachRate:3.8
SliderMultiplier:1.8
SliderTickRate:3

[Events]
//Background and Video events
0,0,"d4f514e35f7c5f4204622d4dca5011c9.jpg",0,0
//Break Periods
//Storyboard Layer 0 (Background)
//Storyboard Layer 1 (Fail)
//Storyboard Layer 2 (Pass)
//Storyboard Layer 3 (Foreground)
//Storyboard Layer 4 (Overlay)
//Storyboard Sound Samples

[TimingPoints]
46,975.609756097561,4,2,1,20,1,0
1021,923.076923076923,4,2,1,20,1,0
1944,886.262924667651,4,2,1,20,1,0
2830,933.125972006221,4,2,1,20,1,0
5629,983.606557377049,4,2,1,20,1,0
5956,937.5,4,2,1,20,1,0
6581,952.380952380952,4,2,1,20,1,0
7215,920.951650038373,4,2,1,20,1,0
8442,944.88188976378,4,2,1,20,1,0
9386,923.076923076923,4,2,1,20,1,0
9693,958.466453674121,4,2,1,20,1,0
10331,932.763311309755,4,2,1,20,1,0
11574,-99.403578528827,4,2,1,20,0,0
12196,923.076923076923,4,2,1,20,1,0
13119,937.5,4,2,1,20,1,0
13744,983.606557377049,4,2,1,20,1,0
14071,923.076923076923,4,2,1,20,1,0
14686,940.438871473354,4,2,1,20,1,0
15312,943.396226415094,4,2,1,20,1,0
15940,935.672514619883,4,2,1,20,1,0
17811,933.852140077821,4,2,1,20,1,0
19678,941.915227629513,4,2,1,20,1,0
21561,970.873786407767,4,2,1,20,1,0
22531,944.88188976378,4,2,1,20,1,0
23475,923.076923076923,4,2,1,20,1,0
24090,983.606557377049,4,2,1,20,1,0
24417,923.076923076923,4,2,1,35,1,0
25340,944.88188976378,4,2,1,55,1,1
25654,913.937547600914,4,2,1,20,1,1
26263,934.579439252336,4,2,1,20,1,1
27197,928.792569659443,4,2,1,20,1,1
28126,952.380952380952,4,2,1,20,1,1
29078,944.138473642801,4,2,1,20,1,0
30022,917.43119266055,4,2,1,20,1,0
30939,914.634146341464,4,2,1,20,1,0
31853,923.076923076923,4,2,1,20,1,0
32776,964.630225080386,4,2,1,20,1,0
33740,983.606557377049,3,2,1,20,1,0
34703,983.606557377049,3,2,1,20,1,0
34723,923.076923076923,3,2,1,20,1,0
35338,987.654320987654,3,2,1,20,1,0
35667,882.352941176471,3,2,1,20,1,0
36255,963.855421686747,3,2,1,20,1,0
36576,937.5,4,2,1,20,1,0
38451,930.232558139535,4,2,1,20,1,0
39381,967.741935483871,4,2,1,20,1,0
39703,937.5,4,2,1,20,1,0
40328,930.232558139535,4,2,1,20,1,0
42188,937.5,4,2,1,20,1,0
43125,958.083832335329,4,2,1,20,1,0
44083,927.357032457496,4,2,1,20,1,0
45319,-99.7506234413965,4,2,1,20,0,0
45937,923.076923076923,4,2,1,20,1,0
46860,952.380952380952,4,2,1,20,1,0
47494,1000,4,2,1,20,1,0
47827,895.522388059701,4,2,1,20,1,0
48424,952.380952380952,4,2,1,20,1,0
49058,937.5,4,2,1,20,1,0
49370,1000,4,2,1,20,1,0
49703,935.672514619883,4,2,1,20,1,0
51574,925.212027756361,4,2,1,20,1,0
53424,952.380952380952,4,2,1,20,1,0
53424,-98.8630746416214,4,2,1,20,0,0
54365,952.380952380952,4,2,1,20,1,0
54376,931.67701863354,4,2,1,20,1,0
55307,983.606557377049,4,2,1,20,1,0
56290,944.88188976378,3,2,1,20,1,0
57234,923.076923076923,3,2,1,20,1,0
57849,967.741935483871,3,2,1,20,1,0
58171,916.030534351145,3,2,1,35,1,0
59087,921.305182341651,4,2,1,55,1,1
60008,923.076923076923,4,2,1,20,1,1
60931,948.241801659423,4,2,1,20,1,1
61879,933.852140077821,4,2,1,20,1,1
62189,957.701516360734,4,2,1,20,1,1
62827,941.176470588235,4,2,1,20,1,0
63768,923.076923076923,3,2,1,20,1,0
64691,909.090909090909,3,2,1,20,1,0
65600,923.076923076923,3,2,1,20,1,0
66523,958.466453674121,3,2,1,20,1,0
67481,996.677740863787,3,2,1,20,1,0
68446,996.677740863787,3,2,1,20,1,0
68477,909.090909090909,3,2,1,20,1,0
69083,986.842105263158,3,2,1,20,1,0
69411,888.888888888889,3,2,1,20,1,0
70003,952.380952380952,3,2,1,20,1,0
70320,937.5,4,2,1,20,1,0
72195,935.307872174591,4,2,1,20,1,0
73130,995.850622406639,4,2,1,20,1,0
73461,933.125972006221,4,2,1,20,1,0
74083,930.232558139535,4,2,1,20,1,0
75943,944.88188976378,4,2,1,20,1,0
76887,923.076923076923,4,2,1,20,1,0
77194,946.372239747634,4,2,1,20,1,0
77824,930.232558139535,4,2,1,20,1,0
78754,935.672514619883,4,2,1,20,1,0
80625,956.175298804781,4,2,1,20,1,0
81581,937.5,4,2,1,20,1,0

[Colours]
Combo1 : 251,237,183
Combo2 : 154,80,48
Combo3 : 249,211,134
Combo4 : 69,141,100
SliderBorder : 176,149,95

[HitObjects]
72,192,2830,5,6,0:0:0:0:
72,312,3452,2,0,P|160:264|152:112,1,240,2|0,0:0|0:0,0:0:0:0:
392,48,5956,5,2,0:3:0:0:
308,132,6581,1,6,0:0:0:0:
376,232,7215,2,0,B|264:288|264:192|144:240,1,240,2|0,0:0|0:0,0:0:0:0:
48,16,9693,5,2,0:0:0:0:
27,134,10331,1,4,0:0:0:0:
145,155,10952,1,2,0:3:0:0:
166,36,11574,2,0,P|232:64|192:272,1,300,2|0,0:0|0:0,0:0:0:0:
464,336,15312,5,2,0:3:0:0:
443,217,15940,1,2,0:0:0:0:
325,238,16563,1,2,0:3:0:0:
346,357,17187,1,0,3:0:0:0:
214,219,17811,5,6,0:0:0:0:
288,125,18433,1,2,0:3:0:0:
325,238,19056,1,2,0:3:0:0:
256,336,19678,2,0,P|168:336|104:248,2,180,2|0|4,0:0|0:0|0:0,0:0:0:0:
408,240,22531,6,0,L|385:113,1,120,2|0,3:2|0:0,0:0:0:0:
448,80,23475,2,0,P|402:50|332:71,1,120,2|0,3:2|0:0,0:0:0:0:
296,136,24417,2,0,P|250:166|180:145,1,120,2|0,3:2|0:0,0:0:0:0:
128,88,25340,1,6,1:2:0:0:
128,88,27197,5,2,0:0:0:0:
107,206,27816,1,2,0:3:0:0:
225,227,28443,1,0,3:0:0:0:
246,108,29078,2,0,L|467:64,1,180,6|0,0:0|0:0,0:0:0:0:
368,344,33740,5,4,0:3:0:0:
256,200,34723,1,12,0:3:0:0:
144,344,35667,1,8,0:3:0:0:
32,200,36576,5,6,0:0:0:0:
112,112,37201,2,0,B|232:64|232:160|344:104,1,240,2|0,0:0|0:0,0:0:0:0:
496,288,39703,5,2,0:3:0:0:
416,376,40328,1,6,0:0:0:0:
320,304,40948,2,0,L|364:51,1,240,2|0,0:0|0:0,0:0:0:0:
120,72,43444,5,2,0:0:0:0:
140,190,44083,1,4,0:0:0:0:
258,169,44701,1,2,0:3:0:0:
237,50,45319,2,0,P|308:53|342:262,1,300,2|0,0:0|0:0,0:0:0:0:
8,304,49058,5,2,0:3:0:0:
29,185,49703,1,2,0:0:0:0:
147,206,50326,1,2,0:3:0:0:
126,325,50950,1,0,3:0:0:0:
258,187,51574,5,6,0:0:0:0:
184,93,52190,1,2,0:3:0:0:
147,206,52807,1,2,0:3:0:0:
216,304,53424,2,0,P|304:304|368:216,2,180,2|0|4,0:0|0:0|0:0,0:0:0:0:
128,152,56290,6,0,L|254:174,1,120,2|0,3:2|0:0,0:0:0:0:
288,112,57234,2,0,L|414:134,1,120,2|0,3:2|0:0,0:0:0:0:
461,70,58171,2,0,P|491:116|470:186,1,120,2|0,3:2|0:0,0:0:0:0:
408,240,59087,1,6,1:2:0:0:
64,336,60931,5,2,0:2:0:0:
43,218,61563,1,2,0:3:0:0:
161,197,62190,1,0,3:0:0:0:
182,316,62827,2,0,L|403:360,1,180,6|0,0:0|0:0,0:0:0:0:
144,64,67481,5,4,0:3:0:0:
256,208,68477,1,12,0:3:0:0:
368,64,69411,1,8,0:3:0:0:
496,192,70320,5,6,0:0:0:0:
496,312,70945,2,0,P|400:272|400:128,1,240,2|0,0:0|0:0,0:0:0:0:
160,64,73461,5,2,0:3:0:0:
244,148,74083,1,6,0:0:0:0:
176,248,74703,2,0,B|288:304|288:208|408:256,1,240,2|0,0:0|0:0,0:0:0:0:
176,248,77194,5,2,0:0:0:0:
88,330,77824,1,2,0:3:0:0:
42,224,78444,1,0,3:0:0:0:
123,133,79065,1,2,0:0:0:0:
