osu file format v14

[General]
AudioFilename: audio.mp3
AudioLeadIn: 0
PreviewTime: 44609
Countdown: 0
SampleSet: Soft
StackLeniency: 0.5
Mode: 0
LetterboxInBreaks: 0
WidescreenStoryboard: 0

[Editor]
Bookmarks: 33674
DistanceSpacing: 1.3
BeatDivisor: 4
GridSize: 4
TimelineZoom: 2.2

[Metadata]
Title:Daga Kotowaru
TitleUnicode:だ が 断 る
Artist:Tosochika
ArtistUnicode:とそちか
Creator:OSUjanaiKATSURAda
Version:AdvaNced
Source:Rockman 10
Tags:Megaman 10 JoJo's Bizzare Adventure: Diamond is Unbreakable ジョジョの奇妙な冒険 ダイヤモンドは砕けない ロックマン10 宇宙からの脅威!! Nico Nico Douga koichi hirose josuke higashikata kishibe rohan MAD No Megaman Anime Nitro Rider man jojo Highway Star ハイウェイ スタ Heaven's Door ヘブンズ ドア i refuse Capcom Kono kishibe rohan ga mottomo sukina koto no hitotsu wa jibun de tsuyoi to omotteru yatsu ni NO to kotowatte yaru kotoda parody ロックマン10 オリジナルサウンドトラック novelty japanese
BeatmapID:1451209
BeatmapSetID:618891

[Difficulty]
HPDrainRate:4
CircleSize:3.5
OverallDifficulty:4
ApproachRate:6.8
SliderMultiplier:1
SliderTickRate:1

[Events]
//Background and Video events
0,0,"maxresdefault (1).jpg",0,0
Video,0,"Daga Kotowaru.mp4"
//Break Periods
//Storyboard Layer 0 (Background)
//Storyboard Layer 1 (Fail)
//Storyboard Layer 2 (Pass)
//Storyboard Layer 3 (Foreground)
//Storyboard Layer 4 (Overlay)
//Storyboard Sound Samples

[TimingPoints]
30,280.373831775701,4,2,1,65,1,0
15730,-100,4,2,1,65,0,0
16852,-100,4,3,1,50,0,1
17973,-100,4,2,1,65,0,0
29469,-100,4,1,1,65,0,0
29486,-100,4,2,1,65,0,0
30030,-100,4,2,1,35,0,0
30310,-100,4,3,1,50,0,1
31431,-100,4,2,1,65,0,0
32833,-100,4,2,1,58,0,0
33114,-100,4,2,1,65,0,0
33674,-100,4,2,1,58,0,0
33955,-100,4,2,1,65,0,0
39282,-100,4,3,1,50,0,1
40403,-100,4,2,1,65,0,0
45730,-100,4,2,1,45,0,0
46011,-100,4,2,1,25,0,0
46291,-100,4,1,1,50,0,1
46431,-100,4,3,1,50,0,1
46992,-100,4,3,1,50,0,0
47132,-86.9565217391304,4,3,1,50,0,1
65076,-100,4,2,1,65,0,0
81899,-100,4,3,1,50,0,1
82179,-100,4,3,1,35,0,1
82880,-100,4,3,1,15,0,0

[Colours]
Combo1 : 207,163,222
Combo2 : 250,219,46
Combo3 : 137,207,185

[HitObjects]
126,100,30,6,0,P|202:62|244:92,1,100,6|8,0:0|0:0,0:0:0:0:
214,129,450,2,0,P|223:167|268:189,1,50,2|2,0:0|0:0,0:0:0:0:
293,183,730,2,0,P|308:205|308:237,1,50,0|8,0:0|0:0,0:0:0:0:
399,322,1151,6,0,P|323:361|281:330,1,100,2|8,0:0|0:0,0:0:0:0:
185,356,1712,2,0,L|129:392,2,50,2|0|8,0:0|0:0|0:0,0:0:0:0:
101,256,2272,6,0,P|157:212|209:204,1,100,2|8,0:0|0:0,0:0:0:0:
210,145,2693,2,0,P|277:156|326:131,1,100,2|0,0:0|0:0,0:0:0:0:
335,203,3114,1,8,0:0:0:0:
303,328,3394,1,2,0:0:0:0:
303,328,3534,2,0,P|255:344|195:308,1,100,2|0,0:0|0:0,0:0:0:0:
166,278,3955,2,0,L|106:278,2,50,2|0|8,0:0|0:0|0:0,0:0:0:0:
258,187,4515,6,0,P|238:139|174:115,1,100,6|8,0:0|0:0,0:0:0:0:
67,117,5076,2,0,L|25:172,2,50,2|2|8,0:0|0:0|0:0,0:0:0:0:
134,228,5637,2,0,P|114:282|34:288,1,100,6|8,0:0|0:0,0:0:0:0:
102,359,6058,1,0,0:0:0:0:
102,359,6198,2,0,P|141:375|202:351,1,100,2|8,0:0|0:0,0:0:0:0:
324,359,6758,6,0,B|322:322|322:322|365:298|387:256,1,100,6|8,0:0|0:0,0:0:0:0:
456,184,7319,2,0,L|396:184,1,50,2|0,0:0|0:0,0:0:0:0:
340,184,7600,2,0,P|321:141|270:130,1,100,8|6,0:0|0:0,0:0:0:0:
150,101,8160,1,8,0:0:0:0:
150,101,8441,2,0,L|102:45,1,50,2|2,0:0|0:0,0:0:0:0:
159,13,8721,2,0,L|191:51,1,50,8|2,0:0|0:0,0:0:0:0:
256,53,9001,6,0,P|311:31|344:66,1,100,4|8,0:0|0:0,0:0:0:0:
391,172,9562,2,0,L|367:244,1,50,6|0,0:0|0:0,0:0:0:0:
419,267,9843,2,0,L|399:331,2,50,8|0|2,0:0|0:0|0:0,0:0:0:0:
298,314,10403,2,0,B|274:358|274:358|186:371,1,100,8|2,0:0|0:0,0:0:0:0:
94,364,10964,6,0,B|44:356|44:356|20:312,1,100,8|2,0:0|0:0,0:0:0:0:
134,249,11525,1,8,0:0:0:0:
134,249,11805,2,0,B|170:213|190:201|190:201|170:153|154:149,1,100,6|8,0:0|0:0,0:0:0:0:
48,176,12366,2,0,P|12:145|26:100,2,100,6|8|4,0:0|0:0|0:0,0:0:0:0:
178,177,13207,6,0,P|214:146|200:101,2,100,8|2|8,0:0|0:0|0:0,0:0:0:0:
308,177,14048,2,0,L|358:228,1,50,2|0,0:0|0:0,0:0:0:0:
388,259,14329,1,8,0:0:0:0:
266,302,14609,2,0,P|279:347|325:362,1,100,2|8,0:0|0:0,0:0:0:0:
456,356,15170,2,0,L|413:312,1,50,6|2,0:0|0:0,0:0:0:0:
389,259,15450,1,8,0:0:0:0:
260,228,15730,6,0,P|271:185|326:168,1,100,4|8,0:0|0:0,0:0:0:0:
294,106,16151,2,0,B|261:85|261:85|182:110,1,100,4|0,0:0|0:0,0:0:0:0:
137,103,16572,2,0,L|105:149,1,50,8|0,0:0|0:0,0:0:0:0:
148,193,16852,5,8,0:0:0:0:
17,193,17132,1,4,0:0:0:0:
81,305,17413,1,8,0:0:0:0:
187,378,17693,1,4,0:0:0:0:
291,300,17973,6,0,P|335:236|391:247,1,100,6|8,0:0|0:0,0:0:0:0:
450,317,18534,2,0,L|502:357,2,50,2|0|8,0:0|0:0|0:0,0:0:0:0:
450,186,19095,2,0,P|418:138|374:130,1,100,2|8,0:0|0:0,0:0:0:0:
332,84,19515,2,0,P|321:106|298:113,1,50,2|6,0:0|0:0,0:0:0:0:
247,71,19796,2,0,L|187:71,1,50,2|8,0:0|0:0,0:0:0:0:
145,111,20076,2,0,P|121:103|110:82,1,50,2|6,0:0|0:0,0:0:0:0:
69,205,20497,6,0,P|29:261|-35:273,1,100,8|2,0:0|0:0,0:0:0:0:
121,323,21058,2,0,L|201:323,1,50,8|0,0:0|0:0,0:0:0:0:
200,265,21338,2,0,P|216:233|272:205,1,100,2|8,0:0|0:0,0:0:0:0:
326,86,21899,2,0,L|326:22,2,50,2|0|8,0:0|0:0|0:0,0:0:0:0:
382,202,22459,6,0,L|418:254,1,50,2|2,0:0|0:0,0:0:0:0:
448,296,22740,1,8,0:0:0:0:
334,358,23020,2,0,L|294:302,1,50,2|2,0:0|0:0,0:0:0:0:
241,303,23301,2,0,L|201:247,1,50,8|0,0:0|0:0,0:0:0:0:
190,200,23581,2,0,P|110:194|83:226,1,100,2|8,0:0|0:0,0:0:0:0:
60,150,24001,1,8,0:0:0:0:
25,94,24142,2,0,L|-7:42,2,50,2|2|8,0:0|0:0|0:0,0:0:0:0:
154,90,24702,6,0,P|206:74|262:98,1,100,2|8,0:0|0:0,0:0:0:0:
317,197,25263,2,0,L|349:249,2,50,2|2|8,0:0|0:0|0:0,0:0:0:0:
413,109,25824,1,2,0:0:0:0:
302,40,26104,1,8,0:0:0:0:
196,116,26385,1,2,0:0:0:0:
218,243,26665,1,8,0:0:0:0:
218,243,26945,6,0,P|238:319|262:335,1,100,6|8,0:0|0:0,0:0:0:0:
302,288,27366,2,0,L|414:288,2,100,2|4|0,0:0|0:0|0:0,0:0:0:0:
300,222,28067,6,0,P|309:171|356:146,1,100,6|8,0:0|0:0,0:0:0:0:
393,193,28487,2,0,L|493:193,2,100,2|4|0,0:0|0:0|0:0,0:0:0:0:
347,146,29188,6,0,P|271:96|189:152,1,200,6|2,0:0|0:0,0:0:0:0:
228,203,29889,2,0,L|272:259,1,50,2|8,0:0|0:0,0:0:0:0:
333,343,30310,5,8,0:0:0:0:
203,343,30590,1,4,0:0:0:0:
203,343,30871,1,8,0:0:0:0:
73,343,31151,1,4,0:0:0:0:
73,343,31431,6,0,B|45:283|45:283|65:235,1,100,4|8,0:0|0:0,0:0:0:0:
157,168,31992,2,0,L|181:104,2,50,2|0|8,0:0|0:0|0:0,0:0:0:0:
137,224,32413,1,2,0:0:0:0:
238,305,32693,2,0,L|221:352,2,50,2|8|2,0:0|0:0|0:0,0:0:0:0:
293,269,33114,2,0,L|317:209,1,50,2|0,0:0|0:0,0:0:0:0:
337,162,33394,1,8,0:0:0:0:
337,162,33674,5,2,0:0:0:0:
443,236,33955,2,0,P|445:285|419:326,1,100,8|2,0:0|0:0,0:0:0:0:
357,348,34375,1,0,0:0:0:0:
296,325,34515,2,0,P|269:283|272:234,1,100,10|0,0:0|0:0,0:0:0:0:
314,185,34936,2,0,L|314:124,2,50,0|10|0,0:0|0:0|0:0,0:0:0:0:
131,253,35637,1,8,0:0:0:0:
131,253,35917,6,0,P|115:201|147:149,2,100,2|8|2,0:0|0:0|0:0,0:0:0:0:
252,205,36758,2,0,L|252:145,1,50,8|0,0:0|0:0,0:0:0:0:
256,24,37179,2,0,L|300:72,2,50,0|10|2,0:0|0:0|0:0,0:0:0:0:
387,168,37880,1,8,0:0:0:0:
441,285,38160,6,0,P|486:273|493:227,2,100,2|8|2,0:0|0:0|0:0,0:0:0:0:
375,285,38861,1,2,0:0:0:0:
375,285,39001,2,0,L|339:321,1,50,8|2,0:0|0:0,0:0:0:0:
296,369,39282,5,8,0:0:0:0:
204,277,39562,1,4,0:0:0:0:
114,181,39843,2,0,L|158:141,1,50,8|0,0:0|0:0,0:0:0:0:
203,108,40123,1,4,0:0:0:0:
91,41,40403,6,0,P|122:27|194:51,1,100,4|8,0:0|0:0,0:0:0:0:
274,135,40964,2,0,L|274:199,1,50,2|2,0:0|0:0,0:0:0:0:
217,217,41244,2,0,P|199:262|221:309,1,100,8|2,0:0|0:0,0:0:0:0:
339,258,41805,1,8,0:0:0:0:
463,218,42086,2,0,P|475:250|471:298,1,50,2|2,0:0|0:0,0:0:0:0:
425,305,42366,2,0,P|418:338|390:377,1,50,8|0,0:0|0:0,0:0:0:0:
346,343,42646,6,0,P|294:359|238:327,1,100,2|8,0:0|0:0,0:0:0:0:
128,304,43207,2,0,L|196:304,1,50,2|0,0:0|0:0,0:0:0:0:
187,239,43487,2,0,L|239:195,1,50,8|2,0:0|0:0,0:0:0:0:
227,76,43908,2,0,L|287:28,1,50,2|8,0:0|0:0,0:0:0:0:
330,44,44188,2,0,L|382:88,1,50,2|2,0:0|0:0,0:0:0:0:
298,186,44609,6,0,L|298:242,2,50,8|2|2,0:0|0:0|0:0,0:0:0:0:
177,235,45170,1,8,0:0:0:0:
177,105,45450,1,2,0:0:0:0:
68,176,45730,1,8,0:0:0:0:
68,45,46011,1,2,0:0:0:0:
68,176,46291,6,0,L|99:231,1,50,12|0,0:0|0:0,0:0:0:0:
78,283,46572,2,0,L|110:335,2,50,4|0|8,0:0|0:0|0:0,0:0:0:0:
200,197,47132,6,0,L|252:165,1,57.5000010967255,4|0,0:0|0:0,0:0:0:0:
280,98,47413,2,0,P|342:121|311:187,1,115.000002193451,8|2,0:0|0:0,0:0:0:0:
283,298,47973,2,0,L|235:338,2,57.5000010967255,8|2|4,0:0|0:0|0:0,0:0:0:0:
432,298,48534,1,8,0:0:0:0:
355,169,48815,1,6,0:0:0:0:
428,38,49095,1,8,0:0:0:0:
278,39,49375,6,0,P|202:43|162:-1,1,115.000002193451,4|8,0:0|0:0,0:0:0:0:
104,48,49796,1,2,0:0:0:0:
90,121,49936,2,0,P|30:137|-3:182,1,115.000002193451,4|8,0:0|0:0,0:0:0:0:
58,222,50357,2,0,L|106:290,1,57.5000010967255,2|4,0:0|0:0,0:0:0:0:
207,362,50777,1,8,0:0:0:0:
271,324,50917,1,0,0:0:0:0:
244,253,51058,2,0,P|222:237|238:188,1,57.5000010967255,4|2,0:0|0:0,0:0:0:0:
278,162,51338,2,0,P|276:134|253:117,1,57.5000010967255,8|2,0:0|0:0,0:0:0:0:
313,72,51618,6,0,P|339:58|437:92,1,115.000002193451,4|8,0:0|0:0,0:0:0:0:
460,135,52039,2,0,L|492:191,1,57.5000010967255,0|4,0:0|0:0,0:0:0:0:
470,333,52459,2,0,L|442:277,1,57.5000010967255,8|2,0:0|0:0,0:0:0:0:
407,216,52740,1,4,0:0:0:0:
314,333,53020,1,0,0:0:0:0:
239,333,53160,1,0,0:0:0:0:
278,268,53301,2,0,L|310:200,2,57.5000010967255,4|2|8,0:0|0:0|0:0,0:0:0:0:
341,133,53861,6,0,L|285:109,1,57.5000010967255,4|2,0:0|0:0,0:0:0:0:
213,112,54142,2,0,P|151:135|182:201,1,115.000002193451,8|4,0:0|0:0,0:0:0:0:
155,324,54702,2,0,L|203:364,2,57.5000010967255,8|2|4,0:0|0:0|0:0,0:0:0:0:
5,324,55263,1,8,0:0:0:0:
80,194,55544,1,6,0:0:0:0:
16,58,55824,1,8,0:0:0:0:
165,58,56104,6,2,P|241:62|281:18,1,115.000002193451,6|10,0:0|0:0,0:0:0:0:
339,63,56525,1,2,0:0:0:0:
408,35,56665,2,2,P|468:51|500:96,1,115.000002193451,2|10,0:0|0:0,0:0:0:0:
456,154,57086,2,2,L|436:210,1,57.5000010967255
365,221,57366,1,2,0:0:0:0:
409,280,57506,2,2,L|381:344,1,57.5000010967255,10|2,0:0|0:0,0:0:0:0:
310,338,57787,2,2,L|230:338,2,57.5000010967255,2|2|10,0:0|0:0|0:0,0:0:0:0:
168,291,58347,5,10,0:0:0:0:
93,291,58487,1,2,0:0:0:0:
17,161,58768,2,0,L|17:103,1,57.5000010967255,2|8,0:0|0:0,0:0:0:0:
153,162,59188,2,2,L|153:98,1,57.5000010967255,10|2,0:0|0:0,0:0:0:0:
153,29,59469,1,2,0:0:0:0:
301,31,59749,2,2,L|301:91,3,57.5000010967255,10|2|2|2,0:0|0:0|0:0|0:0,0:0:0:0:
301,163,60310,1,10,0:0:0:0:
445,202,60590,6,2,P|421:254|361:278,1,115.000002193451,6|10,0:0|0:0,0:0:0:0:
317,330,61011,1,2,0:0:0:0:
272,269,61151,2,2,P|228:245|168:277,1,115.000002193451,2|10,0:0|0:0,0:0:0:0:
129,331,61572,1,2,0:0:0:0:
74,280,61712,2,2,P|23:255|-1:204,1,115.000002193451,2|10,0:0|0:0,0:0:0:0:
136,146,62272,2,2,P|106:132|106:84,1,57.5000010967255
150,56,62553,2,2,P|176:65|188:91,1,57.5000010967255,10|2,0:0|0:0,0:0:0:0:
206,163,62833,6,2,L|262:215,1,57.5000010967255
243,277,63114,2,2,L|296:326,1,57.5000010967255,10|2,0:0|0:0,0:0:0:0:
348,276,63394,2,2,B|400:256|400:256|468:280,1,115.000002193451,2|10,0:0|0:0,0:0:0:0:
441,126,63955,6,0,B|397:90|397:90|343:137,1,115.000002193451,8|4,0:0|0:0,0:0:0:0:
203,128,64515,2,0,L|154:181,1,57.5000010967255,8|0,0:0|0:0,0:0:0:0:
116,228,64796,1,6,0:0:0:0:
205,321,65076,6,0,P|281:359|323:329,1,100,6|8,0:0|0:0,0:0:0:0:
305,293,65497,2,0,P|325:259|375:254,1,50,0|2,0:0|0:0,0:0:0:0:
397,245,65777,2,0,P|416:227|425:196,1,50,0|8,0:0|0:0,0:0:0:0:
358,93,66198,6,0,P|282:54|240:85,1,100,2|8,0:0|0:0,0:0:0:0:
145,58,66758,2,0,L|89:22,2,50,2|2|8,0:0|0:0|0:0,0:0:0:0:
102,181,67319,6,0,P|158:225|210:233,1,100,2|8,0:0|0:0,0:0:0:0:
217,288,67740,2,0,P|284:277|333:302,1,100
352,235,68160,1,8,0:0:0:0:
429,132,68441,1,2,0:0:0:0:
429,132,68581,2,0,P|381:116|321:152,1,100,2|0,0:0|0:0,0:0:0:0:
291,179,69001,2,0,L|227:179,2,50,2|0|8,0:0|0:0|0:0,0:0:0:0:
380,273,69562,6,0,P|360:321|296:345,1,100,6|8,0:0|0:0,0:0:0:0:
189,343,70123,2,0,L|147:288,2,50,2|2|8,0:0|0:0|0:0,0:0:0:0:
257,231,70684,2,0,P|237:177|157:171,1,100,6|8,0:0|0:0,0:0:0:0:
234,104,71104,1,2,0:0:0:0:
234,104,71244,2,0,P|273:88|334:112,1,100,2|8,0:0|0:0,0:0:0:0:
456,103,71805,6,0,B|454:140|454:140|497:164|519:206,1,100,6|8,0:0|0:0,0:0:0:0:
421,282,72366,2,0,L|349:282,1,50,2|0,0:0|0:0,0:0:0:0:
332,229,72646,2,0,P|290:206|244:237,1,100,8|6,0:0|0:0,0:0:0:0:
184,342,73207,1,8,0:0:0:0:
121,228,73487,2,0,L|89:287,1,50,2|2,0:0|0:0,0:0:0:0:
31,270,73768,2,0,L|57:223,1,50,8|2,0:0|0:0,0:0:0:0:
86,169,74048,6,0,P|39:193|2:165,1,100,4|8,0:0|0:0,0:0:0:0:
104,86,74609,2,0,L|156:86,1,50,6|0,0:0|0:0,0:0:0:0:
155,21,74889,2,0,L|99:21,2,50,10|2|2,0:0|0:0|0:0,0:0:0:0:
223,131,75450,2,0,B|247:87|247:87|335:74,1,100,8|2,0:0|0:0,0:0:0:0:
426,79,76011,6,0,B|476:87|476:87|500:131,1,100,8|2,0:0|0:0,0:0:0:0:
384,191,76572,1,8,0:0:0:0:
384,191,76852,2,0,B|348:227|328:239|328:239|348:287|364:291,1,100,6|8,0:0|0:0,0:0:0:0:
469,261,77413,2,0,P|501:297|483:340,2,100,6|8|4,0:0|0:0|0:0,0:0:0:0:
338,261,78254,6,0,P|305:297|323:340,2,100,8|2|8,0:0|0:0|0:0,0:0:0:0:
207,259,79095,2,0,L|162:206,1,50,2|0,0:0|0:0,0:0:0:0:
132,171,79376,1,8,0:0:0:0:
249,131,79656,2,0,P|236:86|190:71,1,100,2|8,0:0|0:0,0:0:0:0:
59,80,80217,2,0,L|97:127,1,50,6|2,0:0|0:0,0:0:0:0:
132,171,80497,1,8,0:0:0:0:
255,210,80777,6,0,P|244:253|189:270,1,100,4|8,0:0|0:0,0:0:0:0:
198,336,81198,2,0,B|231:357|231:357|310:332,1,100,4|0,0:0|0:0,0:0:0:0:
353,349,81619,2,0,L|406:332,1,50,8|0,0:0|0:0,0:0:0:0:
401,268,81899,6,0,P|347:240|343:198,1,100,8|2,0:0|0:0,0:0:0:0:
434,115,82459,2,0,P|488:143|492:185,1,100,4|0,0:0|0:0,0:0:0:0:
