osu file format v14

[General]
AudioFilename: Off The Hook.mp3
AudioLeadIn: 0
PreviewTime: 16457
Countdown: 0
SampleSet: Soft
StackLeniency: 0.7
Mode: 3
LetterboxInBreaks: 0
SpecialStyle: 0
WidescreenStoryboard: 0

[Editor]
DistanceSpacing: 1.2
BeatDivisor: 8
GridSize: 8
TimelineZoom: 0.8999999

[Metadata]
Title:Color Pulse
TitleUnicode:Color Pulse
Artist:Toru Minegishi and Shiho Fujii
ArtistUnicode:峰岸 透 and 藤井 志帆
Creator:Chibitania
Version:Hard
Source:Splatoon 2
Tags:Off The Hook Marina Pearl Nintendo Inc. of America Japan UK FPS Squid
BeatmapID:1417007
BeatmapSetID:669929

[Difficulty]
HPDrainRate:7
CircleSize:4
OverallDifficulty:8
ApproachRate:5
SliderMultiplier:1.4
SliderTickRate:1

[Events]
//Background and Video events
0,0,"bg.jpg",0,0
Video,-54,"Pearl and Marina.mp4"
//Break Periods
//Storyboard Layer 0 (Background)
//Storyboard Layer 1 (Fail)
//Storyboard Layer 2 (Pass)
//Storyboard Layer 3 (Foreground)
//Storyboard Sound Samples

[TimingPoints]
780.78048780488,491.803278688525,4,2,1,60,1,0
15780,-100,4,2,1,30,0,0
16518,-100,4,2,1,50,0,0
31518,-100,4,2,1,40,0,0
32256,-100,4,2,1,30,0,0
47993,-100,4,2,1,40,0,0
63731,-100,4,2,1,50,0,1
95207,-100,4,2,1,40,0,0

[HitObjects]
320,192,288,128,0,780:0:0:0:0:
64,192,780,128,0,1272:0:0:0:0:
448,192,780,128,0,1272:0:0:0:0:
320,192,1272,1,10,0:0:0:0:
192,192,1272,1,10,0:0:0:0:
320,192,1764,1,4,0:0:0:0:
192,192,2010,128,0,2625:0:0:0:0:
448,192,2010,128,0,2625:0:0:0:0:
64,192,2256,1,2,0:0:0:0:
64,192,2747,128,4,3239:0:0:0:0:
448,192,2747,128,4,3239:0:0:0:0:
192,192,3239,1,10,0:0:0:0:
320,192,3239,1,10,0:0:0:0:
448,192,3485,1,0,0:0:0:0:
64,192,3608,1,0,0:0:0:0:
320,192,3731,1,4,0:0:0:0:
192,192,3977,128,0,4592:0:0:0:0:
448,192,3977,128,0,4592:0:0:0:0:
64,192,4223,1,2,0:0:0:0:
64,192,4715,128,4,5207:0:0:0:0:
448,192,4715,128,4,5207:0:0:0:0:
192,192,5207,1,10,0:0:0:0:
320,192,5207,1,10,0:0:0:0:
320,192,5698,1,4,0:0:0:0:
192,192,5944,128,0,6313:0:0:0:0:
448,192,5944,128,0,6313:0:0:0:0:
64,192,6190,1,2,0:0:0:0:
192,192,6436,128,0,6682:0:0:0:0:
64,192,6436,128,0,6682:0:0:0:0:
320,192,6682,1,4,0:0:0:0:
192,192,6805,128,0,7051:0:0:0:0:
64,192,6805,128,0,7051:0:0:0:0:
192,192,7174,128,10,7543:0:0:0:0:
448,192,7174,128,10,7543:0:0:0:0:
320,192,7420,1,0,0:0:0:0:
64,192,7543,1,0,0:0:0:0:
192,192,7666,1,4,0:0:0:0:
320,192,7788,1,0,0:0:0:0:
448,192,7911,1,0,0:0:0:0:
64,192,7911,1,0,0:0:0:0:
192,192,8157,1,10,0:0:0:0:
320,192,8157,1,10,0:0:0:0:
448,192,8649,128,4,9141:0:0:0:0:
64,192,8649,128,4,9141:0:0:0:0:
192,192,9141,1,10,0:0:0:0:
320,192,9141,1,10,0:0:0:0:
320,192,9633,1,4,0:0:0:0:
192,192,9879,128,0,10493:0:0:0:0:
448,192,9879,128,0,10493:0:0:0:0:
64,192,10125,1,10,0:0:0:0:
64,192,10616,128,4,11108:0:0:0:0:
448,192,10616,128,4,11108:0:0:0:0:
192,192,11108,1,10,0:0:0:0:
320,192,11108,1,10,0:0:0:0:
320,192,11354,1,0,0:0:0:0:
192,192,11477,1,0,0:0:0:0:
64,192,11600,1,4,0:0:0:0:
320,192,11723,1,0,0:0:0:0:
192,192,11846,128,0,12461:0:0:0:0:
448,192,11846,128,0,12461:0:0:0:0:
64,192,12092,1,10,0:0:0:0:
448,192,12584,128,4,13075:0:0:0:0:
64,192,12584,128,4,13075:0:0:0:0:
192,192,13075,1,10,0:0:0:0:
320,192,13075,1,10,0:0:0:0:
320,192,13567,1,4,0:0:0:0:
448,192,13813,128,0,14305:0:0:0:0:
192,192,13813,128,0,14305:0:0:0:0:
64,192,14059,1,10,0:0:0:0:
320,192,14305,128,0,14551:0:0:0:0:
64,192,14305,128,0,14551:0:0:0:0:
320,192,14674,128,0,14920:0:0:0:0:
64,192,14674,128,0,14920:0:0:0:0:
192,192,15043,128,0,15411:0:0:0:0:
448,192,15043,128,0,15411:0:0:0:0:
320,192,15780,1,4,0:0:0:0:
192,192,15903,1,4,0:0:0:0:
64,192,16026,1,4,0:0:0:0:
192,192,16272,1,4,0:0:0:0:
64,192,16518,1,4,0:0:0:0:
448,192,16518,1,4,0:0:0:0:
320,192,16518,1,4,0:0:0:0:
320,192,16764,1,0,0:0:0:0:
192,192,16887,1,0,0:0:0:0:
320,192,17010,1,10,0:0:0:0:
448,192,17010,1,10,0:0:0:0:
64,192,17010,1,0,0:0:0:0:
64,192,17256,1,0,0:0:0:0:
192,192,17317,1,0,0:0:0:0:
448,192,17379,1,0,0:0:0:0:
320,192,17440,1,0,0:0:0:0:
64,192,17502,1,4,0:0:0:0:
192,192,17502,1,0,0:0:0:0:
448,192,17625,1,0,0:0:0:0:
320,192,17747,1,0,0:0:0:0:
192,192,17993,1,10,0:0:0:0:
64,192,17993,1,10,0:0:0:0:
320,192,17993,1,0,0:0:0:0:
448,192,18239,1,0,0:0:0:0:
64,192,18485,1,4,0:0:0:0:
320,192,18485,1,4,0:0:0:0:
192,192,18731,1,0,0:0:0:0:
64,192,18977,1,0,0:0:0:0:
448,192,18977,1,10,0:0:0:0:
320,192,18977,1,10,0:0:0:0:
320,192,19223,1,0,0:0:0:0:
448,192,19346,1,0,0:0:0:0:
192,192,19469,1,4,0:0:0:0:
64,192,19469,1,4,0:0:0:0:
320,192,19592,1,0,0:0:0:0:
448,192,19715,1,0,0:0:0:0:
448,192,19961,1,10,0:0:0:0:
192,192,19961,1,10,0:0:0:0:
64,192,19961,128,0,20452:0:0:0:0:
320,192,20452,1,4,0:0:0:0:
448,192,20452,1,4,0:0:0:0:
320,192,20698,1,0,0:0:0:0:
448,192,20944,1,10,0:0:0:0:
64,192,20944,1,0,0:0:0:0:
192,192,21067,1,0,0:0:0:0:
320,192,21190,1,0,0:0:0:0:
64,192,21252,1,0,0:0:0:0:
192,192,21313,1,0,0:0:0:0:
320,192,21375,1,0,0:0:0:0:
448,192,21436,1,4,0:0:0:0:
320,192,21559,1,0,0:0:0:0:
192,192,21682,1,0,0:0:0:0:
64,192,21805,1,0,0:0:0:0:
320,192,21928,1,10,0:0:0:0:
192,192,21928,1,10,0:0:0:0:
448,192,22174,1,0,0:0:0:0:
320,192,22420,1,4,0:0:0:0:
64,192,22420,1,4,0:0:0:0:
192,192,22666,1,0,0:0:0:0:
448,192,22788,1,0,0:0:0:0:
64,192,22911,1,0,0:0:0:0:
320,192,22911,1,10,0:0:0:0:
192,192,22911,1,10,0:0:0:0:
448,192,23034,1,0,0:0:0:0:
320,192,23157,1,0,0:0:0:0:
64,192,23280,1,0,0:0:0:0:
448,192,23403,1,4,0:0:0:0:
320,192,23526,1,0,0:0:0:0:
64,192,23649,1,0,0:0:0:0:
320,192,23772,1,0,0:0:0:0:
448,192,23895,1,0,0:0:0:0:
64,192,23895,1,10,0:0:0:0:
192,192,23895,1,10,0:0:0:0:
320,192,24141,1,0,0:0:0:0:
448,192,24387,1,4,0:0:0:0:
64,192,24387,1,4,0:0:0:0:
192,192,24387,1,4,0:0:0:0:
320,192,24633,1,0,0:0:0:0:
64,192,24756,1,0,0:0:0:0:
448,192,24879,1,0,0:0:0:0:
320,192,24879,1,10,0:0:0:0:
192,192,24879,1,10,0:0:0:0:
64,192,25125,1,0,0:0:0:0:
192,192,25186,1,0,0:0:0:0:
320,192,25247,1,0,0:0:0:0:
448,192,25309,1,0,0:0:0:0:
192,192,25370,1,4,0:0:0:0:
64,192,25370,1,0,0:0:0:0:
320,192,25616,1,0,0:0:0:0:
64,192,25862,1,0,0:0:0:0:
192,192,25862,128,10,26354:0:0:0:0:
320,192,25862,1,10,0:0:0:0:
64,192,26354,1,4,0:0:0:0:
448,192,26354,1,4,0:0:0:0:
320,192,26600,1,0,0:0:0:0:
448,192,26846,1,0,0:0:0:0:
192,192,26846,1,10,0:0:0:0:
64,192,26846,1,10,0:0:0:0:
64,192,27092,1,0,0:0:0:0:
192,192,27215,1,0,0:0:0:0:
320,192,27338,1,4,0:0:0:0:
448,192,27338,1,4,0:0:0:0:
64,192,27461,1,0,0:0:0:0:
192,192,27584,1,0,0:0:0:0:
320,192,27707,1,0,0:0:0:0:
64,192,27829,1,10,0:0:0:0:
192,192,27829,1,10,0:0:0:0:
448,192,27829,128,0,28321:0:0:0:0:
320,192,28321,1,4,0:0:0:0:
192,192,28321,1,4,0:0:0:0:
64,192,28567,1,0,0:0:0:0:
192,192,28690,1,0,0:0:0:0:
448,192,28813,1,10,0:0:0:0:
64,192,28813,1,10,0:0:0:0:
192,192,29059,1,0,0:0:0:0:
448,192,29305,1,4,0:0:0:0:
320,192,29305,1,4,0:0:0:0:
64,192,29428,1,0,0:0:0:0:
192,192,29551,1,0,0:0:0:0:
320,192,29797,1,10,0:0:0:0:
64,192,29797,1,10,0:0:0:0:
448,192,30043,128,0,30288:0:0:0:0:
192,192,30043,128,0,30288:0:0:0:0:
448,192,30411,128,0,30657:0:0:0:0:
192,192,30411,128,0,30657:0:0:0:0:
64,192,30780,128,0,31149:0:0:0:0:
448,192,30780,128,0,31149:0:0:0:0:
192,192,31518,1,0,0:0:0:0:
320,192,31641,1,0,0:0:0:0:
448,192,31764,1,0,0:0:0:0:
320,192,31887,1,0,0:0:0:0:
192,192,32010,1,0,0:0:0:0:
448,192,32256,1,0,0:0:0:0:
64,192,32256,1,0,0:0:0:0:
320,192,32502,1,0,0:0:0:0:
64,192,32625,1,0,0:0:0:0:
448,192,32747,1,0,0:0:0:0:
320,192,32747,1,10,0:0:0:0:
192,192,32747,1,10,0:0:0:0:
448,192,32993,1,0,0:0:0:0:
192,192,33055,1,0,0:0:0:0:
320,192,33116,1,0,0:0:0:0:
448,192,33178,1,0,0:0:0:0:
192,192,33239,1,0,0:0:0:0:
64,192,33239,1,0,0:0:0:0:
448,192,33362,1,0,0:0:0:0:
320,192,33485,1,0,0:0:0:0:
192,192,33608,1,0,0:0:0:0:
448,192,33731,128,0,34223:0:0:0:0:
64,192,33731,1,10,0:0:0:0:
320,192,33731,1,10,0:0:0:0:
320,192,34223,1,0,0:0:0:0:
64,192,34223,1,0,0:0:0:0:
192,192,34346,1,0,0:0:0:0:
320,192,34469,1,0,0:0:0:0:
448,192,34715,1,0,0:0:0:0:
64,192,34715,1,10,0:0:0:0:
192,192,34715,1,10,0:0:0:0:
192,192,34961,1,0,0:0:0:0:
320,192,35207,1,0,0:0:0:0:
448,192,35207,1,0,0:0:0:0:
64,192,35329,1,0,0:0:0:0:
192,192,35452,1,0,0:0:0:0:
320,192,35575,1,0,0:0:0:0:
448,192,35698,128,0,36190:0:0:0:0:
64,192,35698,1,10,0:0:0:0:
192,192,35698,1,10,0:0:0:0:
320,192,36190,1,0,0:0:0:0:
192,192,36190,1,0,0:0:0:0:
64,192,36436,1,0,0:0:0:0:
448,192,36559,1,0,0:0:0:0:
64,192,36682,1,0,0:0:0:0:
192,192,36682,1,10,0:0:0:0:
320,192,36682,1,10,0:0:0:0:
448,192,36928,1,0,0:0:0:0:
320,192,36989,1,0,0:0:0:0:
192,192,37051,1,0,0:0:0:0:
64,192,37112,1,0,0:0:0:0:
320,192,37174,1,0,0:0:0:0:
448,192,37174,1,0,0:0:0:0:
192,192,37297,1,0,0:0:0:0:
448,192,37420,1,0,0:0:0:0:
320,192,37543,1,0,0:0:0:0:
192,192,37666,1,10,0:0:0:0:
448,192,37666,1,0,0:0:0:0:
64,192,37666,1,10,0:0:0:0:
320,192,37911,128,0,38157:0:0:0:0:
192,192,38157,1,0,0:0:0:0:
320,192,38280,128,0,38526:0:0:0:0:
448,192,38649,128,0,39141:0:0:0:0:
192,192,38649,1,10,0:0:0:0:
64,192,38649,1,0,0:0:0:0:
320,192,38895,1,0,0:0:0:0:
192,192,39018,1,0,0:0:0:0:
320,192,39141,1,0,0:0:0:0:
64,192,39141,1,0,0:0:0:0:
192,192,39264,1,0,0:0:0:0:
448,192,39387,1,0,0:0:0:0:
64,192,39510,1,0,0:0:0:0:
192,192,39510,1,0,0:0:0:0:
448,192,39633,1,10,0:0:0:0:
320,192,39633,1,10,0:0:0:0:
192,192,39633,1,0,0:0:0:0:
320,192,39879,1,0,0:0:0:0:
192,192,39879,1,0,0:0:0:0:
448,192,40125,1,0,0:0:0:0:
320,192,40125,1,0,0:0:0:0:
192,192,40370,1,0,0:0:0:0:
448,192,40493,1,0,0:0:0:0:
192,192,40616,1,2,0:0:0:0:
320,192,40616,1,2,0:0:0:0:
64,192,40616,1,0,0:0:0:0:
448,192,40862,1,0,0:0:0:0:
64,192,40924,1,0,0:0:0:0:
192,192,40985,1,0,0:0:0:0:
320,192,41047,1,0,0:0:0:0:
448,192,41108,1,0,0:0:0:0:
64,192,41108,1,0,0:0:0:0:
320,192,41231,1,0,0:0:0:0:
192,192,41354,1,0,0:0:0:0:
320,192,41600,1,10,0:0:0:0:
448,192,41600,1,10,0:0:0:0:
64,192,41600,1,0,0:0:0:0:
192,192,41846,1,0,0:0:0:0:
448,192,42092,1,0,0:0:0:0:
192,192,42092,1,0,0:0:0:0:
320,192,42338,1,0,0:0:0:0:
448,192,42461,1,0,0:0:0:0:
192,192,42584,1,10,0:0:0:0:
320,192,42584,1,0,0:0:0:0:
64,192,42584,1,10,0:0:0:0:
448,192,42707,1,0,0:0:0:0:
64,192,42829,1,0,0:0:0:0:
320,192,42952,1,0,0:0:0:0:
192,192,43075,1,0,0:0:0:0:
64,192,43075,1,0,0:0:0:0:
320,192,43198,1,0,0:0:0:0:
448,192,43321,128,0,44059:0:0:0:0:
192,192,43567,1,10,0:0:0:0:
320,192,43567,1,0,0:0:0:0:
64,192,43567,1,10,0:0:0:0:
320,192,44059,1,0,0:0:0:0:
192,192,44059,1,0,0:0:0:0:
192,192,44305,1,0,0:0:0:0:
448,192,44428,1,0,0:0:0:0:
320,192,44551,1,10,0:0:0:0:
192,192,44551,1,10,0:0:0:0:
64,192,44551,1,0,0:0:0:0:
448,192,44797,1,0,0:0:0:0:
320,192,44858,1,0,0:0:0:0:
64,192,44920,1,0,0:0:0:0:
448,192,44981,1,0,0:0:0:0:
192,192,45043,1,0,0:0:0:0:
320,192,45043,1,0,0:0:0:0:
64,192,45166,1,0,0:0:0:0:
320,192,45288,1,0,0:0:0:0:
64,192,45534,1,10,0:0:0:0:
448,192,45534,1,0,0:0:0:0:
192,192,45534,1,10,0:0:0:0:
320,192,45780,128,0,46026:0:0:0:0:
448,192,45780,128,0,46026:0:0:0:0:
448,192,46149,128,0,46395:0:0:0:0:
192,192,46149,128,0,46395:0:0:0:0:
64,192,46518,128,0,46764:0:0:0:0:
448,192,46518,128,10,46764:0:0:0:0:
320,192,46518,1,10,0:0:0:0:
192,192,46764,1,0,0:0:0:0:
320,192,46887,1,0,0:0:0:0:
448,192,47010,1,0,0:0:0:0:
64,192,47010,1,0,0:0:0:0:
192,192,47133,1,0,0:0:0:0:
320,192,47256,1,0,0:0:0:0:
64,192,47379,1,0,0:0:0:0:
192,192,47379,1,0,0:0:0:0:
320,192,47502,1,10,0:0:0:0:
192,192,47502,1,10,0:0:0:0:
448,192,47502,1,0,0:0:0:0:
192,192,47747,1,0,0:0:0:0:
64,192,47747,1,0,0:0:0:0:
320,192,47993,1,0,0:0:0:0:
448,192,47993,1,0,0:0:0:0:
64,192,47993,1,0,0:0:0:0:
320,192,48239,1,0,0:0:0:0:
192,192,48362,1,0,0:0:0:0:
448,192,48485,1,10,0:0:0:0:
64,192,48485,1,0,0:0:0:0:
320,192,48485,1,10,0:0:0:0:
192,192,48731,1,0,0:0:0:0:
320,192,48793,1,0,0:0:0:0:
64,192,48854,1,0,0:0:0:0:
192,192,48916,1,0,0:0:0:0:
320,192,48977,1,0,0:0:0:0:
448,192,48977,1,0,0:0:0:0:
192,192,49100,1,0,0:0:0:0:
64,192,49223,128,0,49961:0:0:0:0:
320,192,49223,1,0,0:0:0:0:
448,192,49346,1,0,0:0:0:0:
192,192,49469,1,10,0:0:0:0:
320,192,49469,1,10,0:0:0:0:
448,192,49961,1,0,0:0:0:0:
192,192,49961,1,0,0:0:0:0:
320,192,50084,1,0,0:0:0:0:
192,192,50207,1,0,0:0:0:0:
448,192,50329,1,0,0:0:0:0:
64,192,50452,1,0,0:0:0:0:
320,192,50452,1,10,0:0:0:0:
192,192,50452,1,10,0:0:0:0:
448,192,50698,1,0,0:0:0:0:
320,192,50821,1,0,0:0:0:0:
448,192,50944,1,0,0:0:0:0:
64,192,50944,1,0,0:0:0:0:
192,192,51067,1,0,0:0:0:0:
448,192,51190,128,0,51928:0:0:0:0:
320,192,51313,1,0,0:0:0:0:
192,192,51436,1,10,0:0:0:0:
64,192,51436,1,10,0:0:0:0:
320,192,51928,1,0,0:0:0:0:
64,192,51928,1,0,0:0:0:0:
192,192,52174,1,0,0:0:0:0:
320,192,52297,1,0,0:0:0:0:
192,192,52420,1,10,0:0:0:0:
448,192,52420,1,0,0:0:0:0:
64,192,52420,1,10,0:0:0:0:
448,192,52666,1,0,0:0:0:0:
64,192,52727,1,0,0:0:0:0:
192,192,52788,1,0,0:0:0:0:
320,192,52850,1,0,0:0:0:0:
448,192,52911,1,0,0:0:0:0:
64,192,52911,1,0,0:0:0:0:
320,192,53034,1,0,0:0:0:0:
192,192,53157,128,0,53649:0:0:0:0:
64,192,53157,1,0,0:0:0:0:
320,192,53280,1,0,0:0:0:0:
448,192,53403,1,10,0:0:0:0:
64,192,53403,1,0,0:0:0:0:
320,192,53526,1,0,0:0:0:0:
64,192,53649,128,0,53895:0:0:0:0:
448,192,53649,1,0,0:0:0:0:
192,192,53772,1,0,0:0:0:0:
320,192,53895,1,0,0:0:0:0:
64,192,54018,128,0,54264:0:0:0:0:
448,192,54141,1,0,0:0:0:0:
320,192,54264,1,0,0:0:0:0:
192,192,54387,128,0,54633:0:0:0:0:
448,192,54510,1,0,0:0:0:0:
320,192,54633,1,0,0:0:0:0:
448,192,54879,1,0,0:0:0:0:
64,192,54879,1,0,0:0:0:0:
192,192,55125,1,0,0:0:0:0:
320,192,55247,1,0,0:0:0:0:
448,192,55247,1,0,0:0:0:0:
320,192,55370,1,10,0:0:0:0:
64,192,55370,1,10,0:0:0:0:
192,192,55370,1,10,0:0:0:0:
192,192,55616,1,0,0:0:0:0:
448,192,55616,1,0,0:0:0:0:
320,192,55862,1,0,0:0:0:0:
64,192,55862,1,0,0:0:0:0:
448,192,55862,1,0,0:0:0:0:
192,192,56108,1,0,0:0:0:0:
320,192,56231,1,0,0:0:0:0:
448,192,56354,1,0,0:0:0:0:
64,192,56354,1,10,0:0:0:0:
192,192,56354,1,10,0:0:0:0:
448,192,56600,1,0,0:0:0:0:
320,192,56661,1,0,0:0:0:0:
64,192,56723,1,0,0:0:0:0:
192,192,56784,1,0,0:0:0:0:
320,192,56846,1,0,0:0:0:0:
448,192,56846,1,0,0:0:0:0:
64,192,56969,1,0,0:0:0:0:
192,192,57092,128,0,57829:0:0:0:0:
320,192,57215,1,0,0:0:0:0:
448,192,57338,1,10,0:0:0:0:
64,192,57338,1,10,0:0:0:0:
320,192,57829,1,0,0:0:0:0:
448,192,57829,1,0,0:0:0:0:
64,192,57952,1,0,0:0:0:0:
448,192,58075,1,0,0:0:0:0:
320,192,58198,1,0,0:0:0:0:
192,192,58321,1,10,0:0:0:0:
64,192,58321,1,10,0:0:0:0:
448,192,58321,1,0,0:0:0:0:
320,192,58567,1,0,0:0:0:0:
448,192,58813,1,0,0:0:0:0:
64,192,58813,1,0,0:0:0:0:
192,192,58936,1,0,0:0:0:0:
448,192,59059,128,0,59797:0:0:0:0:
320,192,59182,1,0,0:0:0:0:
192,192,59305,1,10,0:0:0:0:
64,192,59305,1,10,0:0:0:0:
320,192,59551,1,0,0:0:0:0:
192,192,59674,1,0,0:0:0:0:
64,192,59797,1,0,0:0:0:0:
320,192,59797,1,0,0:0:0:0:
192,192,59920,1,0,0:0:0:0:
448,192,60043,1,0,0:0:0:0:
192,192,60166,1,0,0:0:0:0:
320,192,60288,1,10,0:0:0:0:
448,192,60288,1,10,0:0:0:0:
64,192,60288,1,0,0:0:0:0:
192,192,60534,1,0,0:0:0:0:
448,192,60596,1,0,0:0:0:0:
320,192,60657,1,0,0:0:0:0:
192,192,60719,1,0,0:0:0:0:
64,192,60780,1,0,0:0:0:0:
448,192,60780,1,0,0:0:0:0:
320,192,60903,1,0,0:0:0:0:
192,192,61026,128,0,61518:0:0:0:0:
320,192,61272,1,10,0:0:0:0:
448,192,61272,1,10,0:0:0:0:
320,192,61518,128,0,61764:0:0:0:0:
64,192,61518,128,0,61764:0:0:0:0:
320,192,61887,128,0,62133:0:0:0:0:
64,192,61887,128,0,62133:0:0:0:0:
192,192,62256,128,0,62502:0:0:0:0:
448,192,62256,128,0,62502:0:0:0:0:
192,192,62747,1,0,0:0:0:0:
64,192,62747,1,0,0:0:0:0:
192,192,63116,1,0,0:0:0:0:
64,192,63116,1,0,0:0:0:0:
448,192,63239,1,10,0:0:0:0:
320,192,63239,1,10,0:0:0:0:
64,192,63239,1,0,0:0:0:0:
192,192,63485,1,0,0:0:0:0:
64,192,63485,1,0,0:0:0:0:
448,192,63731,1,0,0:0:0:0:
64,192,63731,128,0,63977:0:0:0:0:
320,192,63731,1,0,0:0:0:0:
192,192,63977,1,0,0:0:0:0:
448,192,64100,128,0,64346:0:0:0:0:
320,192,64100,1,0,0:0:0:0:
64,192,64223,1,10,0:0:0:0:
192,192,64223,1,10,0:0:0:0:
192,192,64469,128,0,64715:0:0:0:0:
64,192,64715,1,0,0:0:0:0:
448,192,64838,128,0,65084:0:0:0:0:
192,192,64961,1,0,0:0:0:0:
64,192,65207,128,0,65452:0:0:0:0:
320,192,65207,1,10,0:0:0:0:
448,192,65207,1,10,0:0:0:0:
64,192,65698,128,0,65944:0:0:0:0:
192,192,65698,1,0,0:0:0:0:
320,192,65944,1,0,0:0:0:0:
448,192,66067,128,0,66313:0:0:0:0:
192,192,66067,1,0,0:0:0:0:
320,192,66190,1,10,0:0:0:0:
64,192,66190,1,10,0:0:0:0:
192,192,66436,128,0,67174:0:0:0:0:
320,192,66436,1,0,0:0:0:0:
320,192,66682,1,0,0:0:0:0:
448,192,66928,1,10,0:0:0:0:
64,192,66928,1,10,0:0:0:0:
64,192,67174,1,0,0:0:0:0:
320,192,67174,128,10,67420:0:0:0:0:
448,192,67174,1,10,0:0:0:0:
448,192,67666,128,0,67911:0:0:0:0:
64,192,67666,1,0,0:0:0:0:
192,192,67911,1,0,0:0:0:0:
320,192,68034,128,0,68280:0:0:0:0:
64,192,68034,1,0,0:0:0:0:
448,192,68157,1,10,0:0:0:0:
192,192,68157,1,10,0:0:0:0:
192,192,68403,128,0,68649:0:0:0:0:
64,192,68403,1,0,0:0:0:0:
320,192,68649,1,0,0:0:0:0:
64,192,68772,128,0,69018:0:0:0:0:
192,192,68895,1,0,0:0:0:0:
448,192,69141,128,0,69387:0:0:0:0:
320,192,69141,1,10,0:0:0:0:
64,192,69141,1,10,0:0:0:0:
320,192,69633,128,0,69879:0:0:0:0:
64,192,69633,1,0,0:0:0:0:
448,192,69879,1,0,0:0:0:0:
192,192,70002,128,0,70247:0:0:0:0:
64,192,70125,1,10,0:0:0:0:
448,192,70125,1,10,0:0:0:0:
320,192,70370,128,0,71108:0:0:0:0:
448,192,70370,1,0,0:0:0:0:
192,192,70616,1,0,0:0:0:0:
64,192,70862,1,10,0:0:0:0:
448,192,70862,1,10,0:0:0:0:
64,192,71108,1,10,0:0:0:0:
192,192,71108,1,10,0:0:0:0:
448,192,71108,1,0,0:0:0:0:
320,192,71354,1,0,0:0:0:0:
64,192,71600,1,0,0:0:0:0:
448,192,71600,128,0,71846:0:0:0:0:
192,192,71846,1,0,0:0:0:0:
320,192,71969,128,0,72215:0:0:0:0:
64,192,71969,1,0,0:0:0:0:
192,192,72092,1,10,0:0:0:0:
448,192,72092,1,10,0:0:0:0:
448,192,72338,128,0,72584:0:0:0:0:
64,192,72584,1,0,0:0:0:0:
320,192,72707,128,0,72952:0:0:0:0:
448,192,73075,128,0,73321:0:0:0:0:
192,192,73075,1,10,0:0:0:0:
64,192,73075,1,10,0:0:0:0:
64,192,73567,128,0,73813:0:0:0:0:
192,192,73567,1,0,0:0:0:0:
64,192,73936,128,0,74182:0:0:0:0:
448,192,74059,1,10,0:0:0:0:
320,192,74059,1,10,0:0:0:0:
320,192,74305,128,0,75043:0:0:0:0:
192,192,74305,1,0,0:0:0:0:
448,192,74551,1,0,0:0:0:0:
64,192,74797,1,10,0:0:0:0:
192,192,74797,1,10,0:0:0:0:
448,192,75043,1,0,0:0:0:0:
64,192,75043,1,10,0:0:0:0:
192,192,75043,1,10,0:0:0:0:
320,192,75288,1,0,0:0:0:0:
320,192,75534,1,0,0:0:0:0:
192,192,75780,128,0,75903:0:0:0:0:
64,192,75780,1,0,0:0:0:0:
448,192,76026,1,10,0:0:0:0:
192,192,76026,1,10,0:0:0:0:
320,192,76026,1,0,0:0:0:0:
64,192,76272,128,0,76395:0:0:0:0:
192,192,76272,1,0,0:0:0:0:
320,192,76518,1,0,0:0:0:0:
448,192,76518,1,0,0:0:0:0:
64,192,76764,1,0,0:0:0:0:
448,192,76764,128,0,76887:0:0:0:0:
192,192,77010,1,10,0:0:0:0:
320,192,77010,1,10,0:0:0:0:
64,192,77010,1,0,0:0:0:0:
448,192,77256,1,0,0:0:0:0:
320,192,77256,128,0,77379:0:0:0:0:
192,192,77502,1,0,0:0:0:0:
64,192,77502,1,0,0:0:0:0:
320,192,77747,1,0,0:0:0:0:
448,192,77747,128,0,77870:0:0:0:0:
64,192,77993,1,0,0:0:0:0:
192,192,77993,1,10,0:0:0:0:
320,192,77993,1,10,0:0:0:0:
448,192,78239,1,0,0:0:0:0:
192,192,78239,128,0,78362:0:0:0:0:
320,192,78485,1,0,0:0:0:0:
192,192,78731,1,10,0:0:0:0:
64,192,78731,1,10,0:0:0:0:
448,192,78731,1,0,0:0:0:0:
448,192,78977,1,0,0:0:0:0:
320,192,78977,128,10,79223:0:0:0:0:
64,192,78977,1,10,0:0:0:0:
64,192,79469,1,0,0:0:0:0:
448,192,79469,1,0,0:0:0:0:
192,192,79469,128,0,79715:0:0:0:0:
320,192,79715,1,0,0:0:0:0:
448,192,79838,128,0,80084:0:0:0:0:
64,192,79838,1,0,0:0:0:0:
320,192,79961,1,10,0:0:0:0:
192,192,79961,1,10,0:0:0:0:
64,192,80207,128,0,80452:0:0:0:0:
192,192,80207,1,0,0:0:0:0:
320,192,80452,1,0,0:0:0:0:
448,192,80575,128,0,80821:0:0:0:0:
192,192,80698,1,0,0:0:0:0:
192,192,80944,128,10,81190:0:0:0:0:
320,192,80944,1,10,0:0:0:0:
64,192,80944,1,0,0:0:0:0:
448,192,81436,128,0,81682:0:0:0:0:
64,192,81436,1,0,0:0:0:0:
192,192,81682,1,0,0:0:0:0:
320,192,81805,128,0,82051:0:0:0:0:
64,192,81928,1,10,0:0:0:0:
448,192,81928,1,10,0:0:0:0:
192,192,82174,128,0,82911:0:0:0:0:
448,192,82174,1,0,0:0:0:0:
320,192,82420,1,0,0:0:0:0:
64,192,82666,1,10,0:0:0:0:
448,192,82666,1,10,0:0:0:0:
64,192,82911,1,10,0:0:0:0:
448,192,82911,128,10,83157:0:0:0:0:
320,192,82911,1,0,0:0:0:0:
64,192,83403,128,0,83649:0:0:0:0:
192,192,83403,1,0,0:0:0:0:
320,192,83649,1,0,0:0:0:0:
448,192,83772,128,0,84018:0:0:0:0:
192,192,83772,1,0,0:0:0:0:
64,192,83895,1,10,0:0:0:0:
320,192,83895,1,10,0:0:0:0:
320,192,84141,128,0,84387:0:0:0:0:
192,192,84141,1,0,0:0:0:0:
448,192,84387,1,0,0:0:0:0:
192,192,84510,128,0,84756:0:0:0:0:
320,192,84633,1,0,0:0:0:0:
64,192,84879,128,0,85125:0:0:0:0:
448,192,84879,1,10,0:0:0:0:
320,192,84879,1,10,0:0:0:0:
448,192,85370,1,0,0:0:0:0:
320,192,85370,128,0,85616:0:0:0:0:
64,192,85616,1,0,0:0:0:0:
448,192,85739,128,0,85985:0:0:0:0:
192,192,85862,1,10,0:0:0:0:
320,192,85862,1,10,0:0:0:0:
64,192,86108,128,0,86846:0:0:0:0:
320,192,86108,1,0,0:0:0:0:
448,192,86354,1,0,0:0:0:0:
192,192,86600,1,10,0:0:0:0:
320,192,86600,1,10,0:0:0:0:
448,192,86846,1,0,0:0:0:0:
192,192,86846,1,10,0:0:0:0:
320,192,86846,1,10,0:0:0:0:
320,192,87092,1,0,0:0:0:0:
64,192,87338,1,10,0:0:0:0:
192,192,87338,128,10,87584:0:0:0:0:
448,192,87338,1,0,0:0:0:0:
320,192,87584,1,0,0:0:0:0:
448,192,87707,128,0,87952:0:0:0:0:
64,192,87829,1,10,0:0:0:0:
192,192,87829,1,10,0:0:0:0:
320,192,88075,128,0,88321:0:0:0:0:
64,192,88321,1,10,0:0:0:0:
192,192,88321,1,10,0:0:0:0:
448,192,88444,128,0,88690:0:0:0:0:
320,192,88813,128,0,89059:0:0:0:0:
192,192,88813,1,10,0:0:0:0:
64,192,88813,1,10,0:0:0:0:
448,192,89305,1,10,0:0:0:0:
64,192,89305,1,10,0:0:0:0:
448,192,89551,1,10,0:0:0:0:
64,192,89551,1,10,0:0:0:0:
192,192,89797,1,10,0:0:0:0:
64,192,89797,1,10,0:0:0:0:
192,192,90043,1,10,0:0:0:0:
64,192,90043,1,10,0:0:0:0:
448,192,90288,1,10,0:0:0:0:
320,192,90288,1,10,0:0:0:0:
448,192,90534,1,10,0:0:0:0:
320,192,90534,1,10,0:0:0:0:
64,192,90780,1,10,0:0:0:0:
448,192,90780,1,10,0:0:0:0:
320,192,91026,1,10,0:0:0:0:
192,192,91026,1,10,0:0:0:0:
64,192,91272,1,10,0:0:0:0:
192,192,91272,1,10,0:0:0:0:
448,192,91518,1,10,0:0:0:0:
320,192,91518,1,10,0:0:0:0:
192,192,91641,1,0,0:0:0:0:
64,192,91764,1,10,0:0:0:0:
448,192,91764,1,10,0:0:0:0:
320,192,92010,1,10,0:0:0:0:
192,192,92010,1,10,0:0:0:0:
64,192,92256,1,10,0:0:0:0:
448,192,92256,1,10,0:0:0:0:
320,192,92502,1,10,0:0:0:0:
448,192,92502,1,10,0:0:0:0:
192,192,92625,1,0,0:0:0:0:
64,192,92747,1,10,0:0:0:0:
448,192,92747,1,10,0:0:0:0:
320,192,92993,1,10,0:0:0:0:
192,192,92993,1,10,0:0:0:0:
64,192,93239,1,10,0:0:0:0:
192,192,93239,1,10,0:0:0:0:
320,192,93362,1,0,0:0:0:0:
192,192,93485,1,10,0:0:0:0:
448,192,93485,1,10,0:0:0:0:
64,192,93608,1,0,0:0:0:0:
192,192,93731,1,10,0:0:0:0:
320,192,93731,1,10,0:0:0:0:
448,192,93854,1,0,0:0:0:0:
192,192,93977,1,10,0:0:0:0:
64,192,93977,1,10,0:0:0:0:
320,192,94100,1,10,0:0:0:0:
448,192,94223,1,10,0:0:0:0:
64,192,94223,1,10,0:0:0:0:
320,192,94346,1,10,0:0:0:0:
192,192,94469,1,10,0:0:0:0:
448,192,94469,1,10,0:0:0:0:
64,192,94592,1,10,0:0:0:0:
320,192,94715,1,14,0:0:0:0:
192,192,94715,1,10,0:0:0:0:
448,192,94838,1,0,0:0:0:0:
64,192,94961,1,10,0:0:0:0:
192,192,94961,1,10,0:0:0:0:
320,192,95084,1,10,0:0:0:0:
64,192,95207,1,4,0:0:0:0:
192,192,95207,1,4,0:0:0:0:
448,192,95207,1,4,0:0:0:0:
