osu file format v14

[General]
AudioFilename: audio.mp3
AudioLeadIn: 0
PreviewTime: 87419
Countdown: 0
SampleSet: Soft
StackLeniency: 0.7
Mode: 0
LetterboxInBreaks: 0
WidescreenStoryboard: 1

[Editor]
Bookmarks: 356,1454,10234,11057,12429,17915,20841,32549,41329,47914,55230,64010,75347,87419,88882,100589,112297,124004,132784,140465,141197
DistanceSpacing: 1
BeatDivisor: 4
GridSize: 32
TimelineZoom: 1.6

[Metadata]
Title:Uncharted Sky
TitleUnicode:Uncharted Sky
Artist:Toromaru
ArtistUnicode:とろまる
Creator:Gordon
Version:Normal
Source:osu!mania World Cup 7K 2023
Tags:Instrumental Electronic Jazz Lazarus Xoul Aeril Nik nikolomara Local Hero ajmosca ajmeowsca Anxient original song featured artist fa mpg mappers guild rhythm complexity
BeatmapID:4055949
BeatmapSetID:1955169

[Difficulty]
HPDrainRate:4
CircleSize:3
OverallDifficulty:4
ApproachRate:6
SliderMultiplier:1.2
SliderTickRate:1

[Events]
//Background and Video events
0,0,"unchartedsky.png",0,0
//Break Periods
2,18115,19791
2,75547,83077
//Storyboard Layer 0 (Background)
//Storyboard Layer 1 (Fail)
//Storyboard Layer 2 (Pass)
//Storyboard Layer 3 (Foreground)
//Storyboard Layer 4 (Overlay)
//Storyboard Sound Samples

[TimingPoints]
356,365.853658536585,3,2,1,60,1,0
1454,365.853658536585,4,2,1,70,1,0
1728,-100,4,2,1,70,0,0
1911,-100,4,2,1,70,0,0
2185,-100,4,2,1,70,0,0
2734,-100,4,2,1,70,0,0
2917,-100,4,2,2,70,0,0
3100,-100,4,2,1,70,0,0
3283,-100,4,2,2,70,0,0
3466,-100,4,2,1,70,0,0
3649,-100,4,2,2,70,0,0
3832,-100,4,2,1,70,0,0
4563,-100,4,2,1,70,0,0
4929,-100,4,2,1,70,0,0
5203,-100,4,2,1,70,0,0
6027,-100,4,2,1,70,0,0
6393,-100,4,2,1,70,0,0
6758,-100,4,2,1,70,0,0
7307,-100,4,2,1,70,0,0
7490,-100,4,2,1,70,0,0
7856,-100,4,2,1,70,0,0
8130,-100,4,2,1,70,0,0
10234,365.853658536585,3,2,1,50,1,0
10599,-100,3,2,1,50,0,0
11057,-100,3,2,1,50,0,0
11331,-100,3,2,1,50,0,0
11514,-100,3,2,1,50,0,0
12429,365.853658536585,4,2,1,50,1,0
12703,-100,4,2,1,50,0,0
12977,-100,4,2,1,50,0,0
13252,-100,4,2,1,50,0,0
13526,-100,4,2,1,50,0,0
13709,365.853658536585,4,2,1,60,1,0
13891,-100,4,2,1,60,0,0
13983,-100,4,2,1,60,0,0
14257,-100,4,2,1,60,0,0
14532,-100,4,2,1,60,0,0
14989,365.853658536585,4,2,1,60,1,0
15537,-100,4,2,1,60,0,0
15812,-100,4,2,1,60,0,0
16269,365.853658536585,5,2,1,60,1,0
16543,-100,5,2,1,60,0,0
16817,-100,5,2,1,60,0,0
17092,-100,5,2,1,60,0,0
17366,-100,5,2,1,60,0,0
17915,365.853658536585,4,2,1,60,1,0
18280,-100,4,2,1,60,0,0
18829,-100,4,2,1,60,0,0
19378,-100,4,2,1,60,0,0
20841,-100,4,2,1,70,0,0
21024,-100,4,2,1,70,0,0
21390,-100,4,2,1,70,0,0
21756,-100,4,2,1,70,0,0
22122,-100,4,2,1,70,0,0
22945,-100,4,2,1,70,0,0
23951,-100,4,2,1,70,0,0
24683,-100,4,2,1,70,0,0
24866,-100,4,2,1,70,0,0
25232,-100,4,2,1,70,0,0
25780,-100,4,2,1,70,0,0
25963,-100,4,2,1,70,0,0
26878,-100,4,2,1,70,0,0
27244,-100,4,2,1,70,0,0
27610,-100,4,2,1,70,0,0
27975,-100,4,2,1,70,0,0
29073,-100,4,2,1,70,0,0
29347,-100,4,2,1,70,0,0
29622,-100,4,2,1,70,0,0
29805,-100,4,2,1,70,0,0
30536,-100,4,2,1,70,0,0
30719,-100,4,2,1,70,0,0
31085,-100,4,2,1,70,0,0
31634,-100,4,2,1,70,0,0
31817,-100,4,2,1,70,0,0
32549,-100,4,2,1,60,0,0
32732,-100,4,2,1,60,0,0
33555,-100,4,2,1,60,0,0
33829,-100,4,2,1,60,0,0
34561,-100,4,2,1,60,0,0
35201,-100,4,2,1,60,0,0
35750,-100,4,2,1,60,0,0
36116,-100,4,2,1,60,0,0
36390,-100,4,2,1,60,0,0
36756,-100,4,2,1,60,0,0
36939,-100,4,2,1,60,0,0
37488,-100,4,2,1,60,0,0
38402,-100,4,2,1,65,0,0
38860,-100,4,2,1,65,0,0
39317,-100,4,2,1,65,0,0
39591,-100,4,2,1,65,0,0
40049,-100,4,2,1,65,0,0
40323,-100,4,2,1,65,0,0
40780,-100,4,2,1,65,0,0
41055,-100,4,2,1,65,0,0
41329,-100,4,2,1,75,0,0
42793,365.853658536585,5,2,1,75,1,0
43799,-100,5,2,1,75,0,0
44622,365.853658536585,4,2,1,75,1,0
46085,365.853658536585,5,2,1,75,1,0
47365,-100,5,2,1,75,0,0
47548,-100,5,2,1,75,0,0
47914,365.853658536585,7,2,1,70,1,0
49011,-100,7,2,1,70,0,0
49743,-100,7,2,1,70,0,0
51572,-100,7,2,1,70,0,0
52304,-100,7,2,1,70,0,0
53035,365.853658536585,3,2,1,70,1,0
54132,-100,3,2,1,80,0,0
55230,-100,3,2,1,70,0,0
55595,-100,3,2,1,70,0,0
56510,-100,3,2,1,70,0,0
56876,-100,3,2,1,70,0,0
57791,-100,3,2,1,70,0,0
58339,-100,3,2,1,70,0,0
59254,-100,3,2,1,70,0,0
59986,-100,3,2,1,70,0,0
60992,-100,3,2,1,70,0,0
61266,-100,3,2,1,70,0,0
61998,-100,3,2,1,70,0,0
64010,365.853658536585,7,2,1,60,1,0
64284,-100,7,2,1,60,0,0
64558,-100,7,2,1,60,0,0
64741,-100,7,2,1,60,0,0
65290,-100,7,2,1,60,0,0
65839,-100,7,2,1,60,0,0
66022,-100,7,2,1,60,0,0
66570,365.853658536585,8,2,1,60,1,0
67118,-100,8,2,1,60,0,0
67393,-100,8,2,1,60,0,0
67850,-100,8,2,1,60,0,0
68399,-100,8,2,1,60,0,0
68582,-100,8,2,1,60,0,0
69313,365.853658536585,7,2,1,60,1,0
69587,-100,7,2,1,60,0,0
69861,-100,7,2,1,60,0,0
70593,-100,7,2,1,60,0,0
70867,-100,7,2,1,60,0,0
71325,-100,7,2,1,60,0,0
71873,365.853658536585,8,2,1,70,1,0
72147,-100,8,2,1,70,0,0
72421,-100,8,2,1,70,0,0
72696,-100,8,2,1,70,0,0
72879,-100,8,2,1,70,0,0
73885,-100,8,2,1,70,0,0
74616,365.853658536585,2,2,1,60,1,0
75347,365.853658536585,4,2,1,50,1,0
77176,-100,4,2,1,50,0,0
77816,-100,4,2,1,50,0,0
78090,-100,4,2,1,50,0,0
78273,-100,4,2,1,50,0,0
78548,-100,4,2,1,50,0,0
81200,-100,4,2,1,65,0,0
81475,-100,4,2,1,65,0,0
81657,-100,4,2,1,65,0,0
84127,365.853658536585,5,2,1,70,1,0
84401,-100,5,2,1,70,0,0
84675,-100,5,2,1,70,0,0
84950,-100,5,2,1,70,0,0
85224,-100,5,2,1,70,0,0
85498,-100,5,2,1,70,0,0
85773,365.853658536585,5,2,1,75,1,0
86047,-100,5,2,1,75,0,0
86230,-100,5,2,1,75,0,0
86596,-100,5,2,1,75,0,0
86779,-100,5,2,1,75,0,0
87144,-100,5,2,1,75,0,0
87419,365.853658536585,4,2,1,60,1,0
88882,-100,4,2,1,80,0,0
89156,-100,4,2,1,80,0,0
89431,-100,4,2,1,80,0,0
89888,-100,4,2,1,80,0,0
90162,-100,4,2,1,80,0,0
90345,-100,4,2,1,80,0,0
90620,-100,4,2,1,80,0,0
90986,-100,4,2,1,80,0,0
91169,-100,4,2,1,80,0,0
91443,-100,4,2,1,80,0,0
91992,-100,4,2,1,80,0,0
92723,-100,4,2,1,80,0,0
93547,-100,4,2,1,80,0,0
93821,-100,4,2,1,80,0,0
94736,-100,4,2,1,60,0,0
95010,-100,4,2,1,60,0,0
95284,-100,4,2,1,60,0,0
95833,-100,4,2,1,60,0,0
96382,-100,4,2,1,60,0,0
97205,-100,4,2,1,60,0,0
97388,-100,4,2,1,60,0,0
97662,-100,4,2,1,80,0,0
98211,-100,4,2,1,80,0,0
98668,-100,4,2,1,80,0,0
98851,-100,4,2,1,80,0,0
99309,-100,4,2,1,80,0,0
99949,-100,4,2,1,80,0,0
100406,-100,4,2,1,80,0,0
100589,-100,4,2,1,80,0,0
100955,-100,4,2,1,80,0,0
101504,-100,4,2,1,80,0,0
101687,-100,4,2,1,80,0,0
101870,-100,4,2,1,80,0,0
102053,-100,4,2,1,80,0,0
102327,-100,4,2,1,80,0,0
102693,-100,4,2,1,80,0,0
102876,-100,4,2,1,80,0,0
104065,-100,4,2,1,80,0,0
105528,-100,4,2,1,80,0,0
106443,-100,4,2,1,70,0,0
106626,-100,4,2,1,70,0,0
108089,-100,4,2,1,70,0,0
109918,-100,4,2,1,75,0,0
110467,-100,4,2,1,80,0,0
110833,-100,4,2,1,70,0,0
111748,-100,4,2,1,70,0,0
112114,-100,4,2,1,70,0,0
112297,-100,4,2,1,80,0,0
112571,-100,4,2,1,80,0,0
113760,-100,4,2,1,80,0,0
116138,-100,4,2,1,80,0,0
116321,-100,4,2,1,80,0,0
118150,-100,4,2,1,70,0,0
118333,-100,4,2,1,70,0,0
119797,-100,4,2,1,70,0,0
120162,-100,4,2,1,70,0,0
120620,-100,4,2,1,70,0,0
121077,-100,4,2,1,80,0,0
121443,-100,4,2,1,80,0,0
123272,-100,4,2,1,80,0,0
123638,-100,4,2,1,80,0,0
124004,-100,4,2,1,70,0,0
124187,-100,4,2,1,70,0,0
124370,-100,4,2,1,70,0,0
124644,-100,4,2,1,70,0,0
125742,-100,4,2,1,70,0,0
126748,-100,4,2,1,70,0,0
127571,-100,4,2,1,70,0,0
129858,-100,4,2,1,85,0,0
130406,-100,4,2,1,85,0,0
131504,-100,4,2,1,85,0,0
132327,-100,4,2,1,85,0,0
132601,-100,4,2,1,85,0,0
132784,365.853658536585,4,2,1,80,1,0
133058,-100,4,2,1,80,0,0
133332,-100,4,2,1,80,0,0
133607,-100,4,2,1,80,0,0
133881,-100,4,2,1,80,0,0
134064,365.853658536585,4,2,1,80,1,0
134338,-100,4,2,1,80,0,0
134612,-100,4,2,1,80,0,0
134887,-100,4,2,1,80,0,0
135344,365.853658536585,4,2,1,80,1,0
135892,-100,4,2,1,80,0,0
136624,365.853658536585,7,2,1,80,1,0
137172,-100,7,2,1,80,0,0
137447,-100,7,2,1,80,0,0
137721,-100,7,2,1,80,0,0
139002,365.853658536585,4,2,1,60,1,0
140465,-100,4,2,1,80,0,0

[Colours]
Combo1 : 192,192,192
Combo2 : 142,49,49
Combo3 : 208,200,168
Combo4 : 201,188,114

[HitObjects]
503,364,1454,6,0,P|458:369|414:380,1,89.9999999999999,6|8,1:2|0:2,0:0:0:0:
338,345,2002,1,6,2:2:0:0:
338,345,2185,2,0,P|312:292|337:240,1,120,2|0,3:2|0:0,0:0:0:0:
442,182,2917,1,8,0:2:0:0:
416,64,3283,1,8,0:2:0:0:
296,50,3649,1,8,0:2:0:0:
236,153,4014,2,0,P|248:180|260:208,1,60,12|12,0:3|0:3,0:0:0:0:
248,267,4380,6,0,P|219:304|170:313,1,89.9999999999999,4|8,1:1|0:2,0:0:0:0:
95,297,4929,1,4,2:1:0:0:
95,297,5112,2,0,P|88:272|56:181,1,120,2|4,0:3|0:3,0:0:0:0:
85,66,5844,2,0,P|40:59|-1:-1,2,120,2|2|2,0:2|0:2|0:2,0:0:0:0:
203,45,6941,2,0,P|197:76|191:109,1,60,8|8,0:2|0:2,0:0:0:0:
226,154,7307,6,0,P|269:168|315:160,1,90,4|8,1:1|0:2,0:0:0:0:
348,81,7856,1,4,2:1:0:0:
348,81,8039,2,0,P|379:42|455:58,1,120,2|0,0:2|1:2,0:0:0:0:
499,155,8771,2,0,P|480:211|467:270,1,120,8|8,0:2|0:2,0:0:0:0:
394,366,9502,1,8,0:2:0:0:
276,339,9868,1,2,3:2:0:0:
223,231,10234,6,0,P|215:171|207:112,1,120,6|2,0:2|3:2,0:0:0:0:
164,70,10782,2,0,B|117:83|119:86|67:102,2,90,2|2|2,0:2|0:2|0:2,0:0:0:0:
230,9,11605,2,0,B|270:21|272:26|328:40,1,90,2|4,0:2|0:3,0:0:0:0:
352,84,12063,1,8,0:2:0:0:
471,80,12429,6,0,P|497:43|491:-6,2,90,4|8|4,2:1|1:2|2:1,0:0:0:0:
415,150,13252,1,2,1:2:0:0:
458,234,13526,1,4,0:3:0:0:
458,234,13709,2,0,P|494:259|513:304,2,90,12|2|4,2:1|1:2|2:1,0:0:0:0:
384,286,14532,1,2,1:2:0:0:
305,255,14806,1,4,0:3:0:0:
305,255,14989,6,0,B|298:210|300:208|293:161,2,90,12|2|10,1:1|1:2|1:2,0:0:0:0:
249,326,15812,1,2,0:2:0:0:
168,301,16086,1,4,0:3:0:0:
168,301,16269,2,0,P|145:339|152:387,2,90,6|2|10,1:2|1:2|1:2,0:0:0:0:
175,211,17092,1,8,1:2:0:0:
246,156,17366,2,0,B|281:157|310:166|310:174|332:182|367:184,1,120,4|12,0:3|0:3,0:0:0:0:
413,150,17915,1,6,1:2:0:0:
25,318,20841,6,0,P|38:359|78:376,2,90,4|2|10,1:1|1:2|0:2,0:0:0:0:
35,258,21573,2,0,B|67:255|63:248|96:244,1,60,2|2,0:2|1:2,0:0:0:0:
136,201,21939,1,8,0:2:0:0:
233,271,22305,2,0,P|231:307|229:342,2,60,2|2|8,1:2|1:2|0:2,0:0:0:0:
328,197,23036,2,0,P|348:173|351:140,1,60,2|2,1:2|1:2,0:0:0:0:
320,94,23402,1,8,0:2:0:0:
208,50,23768,6,0,B|175:52|160:69|162:74|145:95|132:93,2,90,2|2|8,1:2|0:2|0:2,0:0:0:0:
252,9,24500,1,2,1:2:0:0:
252,9,24683,2,0,B|281:12|319:17,1,60,2|8,1:2|1:2,0:0:0:0:
424,59,25232,2,0,P|437:28|456:-1,2,60,2|2|8,1:2|1:2|1:2,0:0:0:0:
447,119,25780,1,2,0:2:0:0:
447,119,25963,2,0,B|404:110|376:141|381:146|360:172|336:179,1,120,8|8,0:2|1:2,0:0:0:0:
230,146,26695,6,0,P|203:110|211:67,2,90,4|2|8,1:1|0:2|1:2,0:0:0:0:
243,209,27427,1,2,1:2:0:0:
243,209,27610,2,0,P|234:240|207:261,1,60,2|8,1:2|0:2,0:0:0:0:
98,292,28158,2,0,P|75:273|42:270,2,60,2|2|8,1:2|1:2|0:2,0:0:0:0:
180,380,28890,2,0,P|204:377|242:375,1,60,2|2,1:2|0:2,0:0:0:0:
270,323,29256,2,0,P|294:325|332:327,1,60,2|2,0:2|1:2,0:0:0:0:
385,303,29622,6,0,B|408:337|408:337|394:393,2,90,2|2|8,1:2|0:2|0:2,0:0:0:0:
321,207,30536,1,2,1:2:0:0:
321,207,30719,2,0,B|304:178|304:178|313:144,1,60,8|2,0:2|0:2,0:0:0:0:
341,100,31085,2,0,L|402:107,2,60,2|2|8,1:2|1:2|1:2,0:0:0:0:
237,38,31817,2,0,L|166:56,1,60,2|12,1:2|0:3,0:0:0:0:
125,24,32183,2,0,L|56:16,1,60,8|12,0:2|0:3,0:0:0:0:
25,62,32549,5,4,1:1:0:0:
25,62,32732,2,0,P|33:93|40:123,1,60,2|8,0:2|0:2,0:0:0:0:
73,235,33280,2,0,P|31:252|-7:290,2,90,2|10|2,1:2|1:2|0:2,0:0:0:0:
123,267,34012,2,0,P|158:275|193:271,1,60,2|2,1:2|0:2,0:0:0:0:
224,231,34378,1,8,0:2:0:0:
330,287,34744,2,0,P|323:333|316:380,2,90,2|8|2,1:2|0:2|1:2,0:0:0:0:
381,254,35475,5,4,1:1:0:0:
381,254,35658,2,0,L|367:196,1,60,2|2,1:2|1:2,0:0:0:0:
403,80,36207,2,0,P|446:84|496:90,2,90,2|8|2,0:2|1:2|0:2,0:0:0:0:
350,50,36939,2,0,L|290:67,1,60,2|2,1:2|0:2,0:0:0:0:
236,43,37305,1,8,0:2:0:0:
116,58,37671,2,0,P|97:94|100:129,1,60,2|2,1:2|1:2,0:0:0:0:
78,170,38036,2,0,P|105:190|124:226,1,60,4|12,0:3|0:3,0:0:0:0:
133,275,38402,5,4,1:1:0:0:
133,275,38585,2,0,B|93:268|61:283|71:300|47:319|22:317,1,120,2|2,1:2|1:2,0:0:0:0:
4,266,39134,1,8,1:2:0:0:
4,266,39317,2,0,P|0:226|2:198,1,60,6|0,1:1|0:0,0:0:0:0:
24,91,39866,1,4,1:1:0:0:
24,91,40049,2,0,P|70:104|151:126,1,120,2|2,1:2|1:2,0:0:0:0:
196,98,40597,1,8,1:2:0:0:
196,98,40780,2,0,P|238:83|262:77,1,60,6|0,1:1|0:0,0:0:0:0:
372,35,41329,6,0,P|361:78|353:123,2,90,4|10|2,1:1|0:2|1:2,0:0:0:0:
459,11,42152,1,10,0:2:0:0:
507,87,42427,2,0,P|498:120|488:150,1,60,8|8,0:2|0:2,0:0:0:0:
444,183,42793,6,0,B|398:196|400:204|361:215,2,90,2|10|2,1:2|0:2|1:2,0:0:0:0:
510,247,43616,1,10,0:2:0:0:
490,334,43890,2,0,P|459:349|418:347,1,60,8|8,0:3|0:3,0:0:0:0:
379,323,44256,1,8,0:2:0:0:
265,350,44622,5,4,1:1:0:0:
265,350,44804,2,0,P|238:324|233:295,1,60,2|0,0:2|0:0,0:0:0:0:
254,249,45170,1,2,1:2:0:0:
254,249,45353,2,0,L|316:238,2,60,2|0|8,0:2|0:0|0:2,0:0:0:0:
145,209,46085,5,2,1:2:0:0:
145,209,46267,2,0,P|149:175|139:146,1,60,2|0,0:2|0:0,0:0:0:0:
97,118,46633,1,2,1:2:0:0:
97,118,46816,2,0,L|35:129,2,60,2|0|2,0:2|0:0|1:2,0:0:0:0:
202,59,47548,1,8,0:2:0:0:
310,110,47914,6,0,P|359:100|406:83,3,90,4|10|12|12,1:1|1:2|0:3|0:3,0:0:0:0:
468,140,49011,1,4,1:1:0:0:
9,352,50474,6,0,P|54:354|98:364,3,90,4|2|8|12,1:1|1:2|1:2|0:3,0:0:0:0:
174,315,51572,1,10,1:2:0:0:
89,40,53035,6,0,L|0:31,2,90,4|8|8,1:1|0:3|0:2,0:0:0:0:
150,105,53858,1,10,1:2:0:0:
237,76,54132,2,0,P|260:38|244:-2,2,90,4|8|2,1:3|0:3|1:2,0:0:0:0:
266,161,54955,1,8,0:2:0:0:
354,180,55230,6,0,B|379:172|389:136|387:132|384:129|392:101|431:91,1,120,6|2,1:1|1:2,0:0:0:0:
486,107,55778,2,0,P|502:131|502:160,1,60,8|2,0:2|0:2,0:0:0:0:
449,253,56327,2,0,P|404:250|356:279,2,90,2|2|8,1:2|0:2|0:2,0:0:0:0:
493,286,57059,1,2,0:2:0:0:
496,384,57425,6,0,B|461:384|441:375|438:368|416:350|380:353,1,120,4|2,1:1|0:2,0:0:0:0:
326,346,57974,1,8,0:2:0:0:
326,346,58156,2,0,P|288:356|261:363,1,60,0|2,0:0|0:2,0:0:0:0:
210,343,58522,1,2,1:2:0:0:
128,303,58797,1,2,1:2:0:0:
42,309,59071,1,8,0:2:0:0:
42,309,59254,2,0,P|33:270|22:241,1,60,4|4,0:3|0:3,0:0:0:0:
50,196,59620,6,0,B|82:195|100:164|96:159|94:157|118:131|147:129,1,120,4|2,1:1|0:2,0:0:0:0:
264,121,60352,2,0,P|284:142|286:171,1,60,2|6,1:2|0:3,0:0:0:0:
255,223,60717,2,0,L|159:234,2,90,6|6|8,1:2|1:2|0:2,0:0:0:0:
378,245,61632,1,8,0:2:0:0:
378,245,61815,6,0,P|407:277|407:300,1,60,4|2,1:1|1:2,0:0:0:0:
380,345,62181,2,0,L|321:352,2,60,8|4|8,0:2|0:3|0:3,0:0:0:0:
496,313,62913,2,0,P|500:268|504:242,1,60,14|2,1:2|1:2,0:0:0:0:
463,207,63278,2,0,P|454:172|442:137,1,60,2|8,1:2|0:3,0:0:0:0:
478,98,63644,1,8,0:2:0:0:
386,20,64010,5,4,1:1:0:0:
286,83,64375,1,10,1:2:0:0:
286,83,64558,2,0,P|303:124|319:178,2,90,6|2|2,1:2|1:2|1:2,0:0:0:0:
229,61,65290,1,8,0:2:0:0:
131,129,65656,1,2,1:2:0:0:
131,129,65839,2,0,P|102:120|68:104,2,60,2|8|8,1:2|0:2|0:2,0:0:0:0:
193,231,66570,5,0,0:0:0:0:
96,299,66935,1,8,0:2:0:0:
96,299,67118,2,0,P|55:282|1:266,2,90,2|2|2,1:2|1:2|1:2,0:0:0:0:
133,346,67850,1,10,1:2:0:0:
254,327,68216,1,4,1:2:0:0:
254,327,68399,2,0,P|264:360|259:389,2,60,2|8|2,1:2|0:2|1:2,0:0:0:0:
220,276,68948,1,4,0:3:0:0:
266,165,69313,5,4,1:1:0:0:
389,160,69678,1,10,1:2:0:0:
389,160,69861,2,0,B|413:162|442:179|441:186|441:191|455:208|476:213,2,90,6|2|2,1:2|1:2|1:2,0:0:0:0:
355,110,70593,1,8,0:2:0:0:
245,75,70959,1,2,1:2:0:0:
245,75,71142,2,0,B|256:12,2,60,2|8|8,1:2|0:2|0:3,0:0:0:0:
142,137,71873,6,0,P|112:140|89:165,1,60,6|0,1:2|0:0,0:0:0:0:
35,167,72238,1,8,0:2:0:0:
35,167,72421,2,0,P|26:128|10:71,1,90,6|2,1:2|1:2,0:0:0:0:
55,2,72970,1,2,1:2:0:0:
55,2,73153,2,0,P|102:21|176:38,1,120,10|8,1:2|0:2,0:0:0:0:
227,15,73702,5,6,1:2:0:0:
227,15,73885,2,0,B|267:22|284:67|276:69|275:74|286:90|310:102,1,120,8|4,0:2|0:3,0:0:0:0:
359,124,74433,1,8,0:2:0:0:
470,81,74798,2,0,P|488:52|516:24,2,60,8|12|8,0:2|0:3|0:2,0:0:0:0:
476,140,75347,1,4,2:1:0:0:
256,192,84127,12,4,87419,1:1:0:0:
27,182,88882,6,0,P|86:192|143:210,1,120,4|8,1:1|0:2,0:0:0:0:
206,203,89431,1,2,0:3:0:0:
206,203,89614,2,0,P|223:168|220:143,2,60,2|2|10,1:2|0:2|1:2,0:0:0:0:
190,322,90345,2,0,P|128:338|53:363,1,120,2|8,1:2|0:2,0:0:0:0:
27,327,90894,1,0,0:0:0:0:
27,327,91077,2,0,P|22:282|19:262,1,60,2|2,0:2|1:2,0:0:0:0:
38,210,91443,1,8,0:2:0:0:
96,105,91809,6,0,P|54:65|0:83,2,120,0|8|2,0:0|0:2|0:3,0:0:0:0:
124,163,92723,1,2,0:3:0:0:
124,163,92906,1,10,1:2:0:0:
236,121,93272,2,0,P|231:73|225:25,2,90,0|2|2,0:0|0:2|0:2,0:0:0:0:
264,174,94004,2,0,P|303:183|330:191,1,60,2|2,1:2|1:2,0:0:0:0:
380,203,94370,1,4,0:3:0:0:
499,196,94736,6,0,P|511:163|496:125,1,60,4|0,1:1|0:0,0:0:0:0:
480,85,95101,1,8,0:2:0:0:
380,27,95467,1,2,1:2:0:0:
380,27,95650,2,0,B|338:18|314:30|314:36|315:42|294:57|241:43,1,120,2|8,1:2|0:2,0:0:0:0:
205,52,96199,2,0,P|196:23|181:-6,2,60,2|2|8,1:2|0:2|0:2,0:0:0:0:
161,166,96931,1,2,1:2:0:0:
161,166,97114,2,0,P|132:178|102:190,1,60,2|8,0:2|0:2,0:0:0:0:
18,105,97662,6,0,B|7:82|7:82|22:19,2,90,4|2|8,1:1|0:2|0:2,0:0:0:0:
66,140,98394,1,6,1:2:0:0:
152,116,98668,1,2,1:2:0:0:
242,93,98943,1,8,0:2:0:0:
242,93,99126,2,0,L|231:161,1,60,4|4,1:1|0:3,0:0:0:0:
252,209,99492,2,0,P|224:221|197:234,2,60,4|12|0,0:3|0:3|0:0,0:0:0:0:
309,227,100040,1,4,1:1:0:0:
423,194,100406,1,2,1:2:0:0:
423,194,100589,6,0,P|441:219|414:310,1,120,4|8,1:1|0:2,0:0:0:0:
402,359,101138,1,2,0:3:0:0:
402,359,101321,2,0,P|356:349|331:345,1,60,2|2,1:2|1:2,0:0:0:0:
287,369,101687,1,8,0:2:0:0:
171,337,102053,2,0,P|163:288|146:217,1,120,2|8,1:2|0:2,0:0:0:0:
173,165,102601,1,2,0:2:0:0:
173,165,102784,2,0,P|202:158|231:152,2,60,2|2|8,0:2|1:2|0:2,0:0:0:0:
58,127,103516,6,0,P|25:79|47:26,1,120,2|8,1:2|0:2,0:0:0:0:
105,4,104065,1,2,0:2:0:0:
105,4,104248,2,0,P|140:11|166:15,1,60,2|2,0:0|1:2,0:0:0:0:
205,57,104614,1,8,0:2:0:0:
324,58,104979,2,0,P|327:28|336:0,2,60,2|2|8,1:2|0:2|1:2,0:0:0:0:
336,121,105528,1,2,0:2:0:0:
336,121,105711,2,0,P|307:129|267:143,1,60,2|8,1:2|0:2,0:0:0:0:
244,188,106077,1,8,0:2:0:0:
130,148,106443,6,0,P|133:119|137:80,2,60,4|2|8,1:1|1:2|0:2,0:0:0:0:
91,195,106992,1,2,0:2:0:0:
91,195,107175,2,0,B|46:190|47:188|1:181,2,90,2|2|8,1:2|1:3|0:2,0:0:0:0:
126,243,107906,1,2,1:2:0:0:
223,313,108272,2,0,P|255:303|284:302,1,60,8|2,0:2|0:2,0:0:0:0:
337,323,108638,2,0,P|332:354|331:382,2,60,4|0|2,1:2|0:0|0:2,0:0:0:0:
356,204,109370,6,0,P|352:174|343:136,2,60,4|8|8,1:1|0:2|0:2,0:0:0:0:
411,238,109918,1,4,1:1:0:0:
411,238,110101,2,0,P|463:229|479:228,1,60,8|8,0:2|0:2,0:0:0:0:
507,180,110467,2,0,P|502:144|497:104,1,60,4|8,1:1|0:2,0:0:0:0:
464,71,110833,1,12,1:1:0:0:
345,54,111199,1,0,0:0:0:0:
226,38,111565,2,0,P|193:33|162:31,1,60,12|4,0:3|0:3,0:0:0:0:
121,72,111931,2,0,P|118:101|118:138,1,60,12|4,0:3|0:3,0:0:0:0:
160,174,112297,6,0,B|202:164|226:187|226:191|226:195|248:221|282:211,2,120,4|8|2,1:1|1:2|1:2,0:0:0:0:
117,216,113211,1,2,1:2:0:0:
117,216,113394,1,8,0:2:0:0:
114,336,113760,2,0,P|165:363|217:339,1,120,2|8,1:2|0:2,0:0:0:0:
282,348,114309,1,0,0:0:0:0:
282,348,114492,2,0,P|286:311|296:281,1,60,2|2,0:2|1:2,0:0:0:0:
278,230,114858,1,8,0:2:0:0:
332,123,115223,6,0,P|392:127|453:135,1,120,2|8,1:2|0:2,0:0:0:0:
503,101,115772,1,2,0:2:0:0:
503,101,115955,2,0,P|513:68|502:40,1,60,2|2,1:2|1:2,0:0:0:0:
452,15,116321,1,8,0:2:0:0:
336,25,116687,1,6,1:2:0:0:
336,25,116870,2,0,P|304:32|259:42,2,60,2|0|2,0:2|0:0|0:2,0:0:0:0:
378,67,117418,2,0,P|393:99|382:143,1,60,8|8,0:2|0:2,0:0:0:0:
351,168,117784,1,12,0:3:0:0:
298,275,118150,6,0,P|267:270|232:265,1,60,4|2,1:1|0:2,0:0:0:0:
185,236,118516,1,8,0:2:0:0:
72,276,118882,2,0,P|78:324|84:371,2,90,2|2|10,1:2|0:2|0:2,0:0:0:0:
25,236,119614,1,2,1:2:0:0:
47,118,119979,2,0,P|76:110|105:113,1,60,8|2,0:2|0:2,0:0:0:0:
148,156,120345,1,2,1:2:0:0:
236,137,120620,1,2,1:2:0:0:
253,52,120894,1,8,0:2:0:0:
253,52,121077,6,0,P|193:45|133:38,1,120,4|2,1:1|0:2,0:0:0:0:
81,64,121626,1,8,0:2:0:0:
81,64,121809,2,0,P|40:37|36:-1,2,90,2|2|8,1:2|0:2|0:2,0:0:0:0:
117,111,122540,1,4,1:1:0:0:
104,230,122906,2,0,P|68:238|38:245,1,60,10|8,1:2|0:2,0:0:0:0:
14,296,123272,1,10,1:2:0:0:
14,296,123455,2,0,P|23:341|36:357,1,60,8|10,0:2|1:2,0:0:0:0:
152,379,124004,5,0,0:0:0:0:
152,379,124187,2,0,P|201:363|245:356,2,90,2|2|2,1:1|1:1|0:3,0:0:0:0:
101,304,125010,2,0,P|100:267|146:212,1,90,2|2,1:1|0:3,0:0:0:0:
154,169,125467,2,0,P|166:136|156:104,1,60,2|0,1:2|0:0,0:0:0:0:
123,65,125833,1,8,0:2:0:0:
189,4,126108,2,0,B|234:10|229:12|283:22,1,90,2|8,0:3|0:3,0:0:0:0:
334,3,126565,1,8,0:2:0:0:
419,87,126931,6,0,P|450:77|484:67,2,60,2|2|8,1:2|0:2|0:2,0:0:0:0:
379,132,127479,1,2,0:2:0:0:
379,132,127662,2,0,P|342:126|315:125,1,60,2|2,0:3|1:2,0:0:0:0:
264,101,128028,1,8,0:2:0:0:
144,113,128394,2,0,P|137:82|150:48,2,60,2|0|8,1:2|0:0|0:2,0:0:0:0:
141,178,128943,1,2,0:2:0:0:
141,178,129126,2,0,P|105:174|77:175,2,60,2|2|8,0:3|1:2|0:2,0:0:0:0:
261,176,129858,6,0,P|311:198|317:267,1,120,4|8,1:1|0:2,0:0:0:0:
334,321,130406,1,2,0:2:0:0:
334,321,130589,2,0,P|371:325|425:331,2,90,2|0|2,1:2|0:0|0:3,0:0:0:0:
290,362,131321,2,0,P|256:368|231:376,1,60,2|8,1:2|0:2,0:0:0:0:
183,339,131687,1,8,0:2:0:0:
180,218,132053,1,6,1:2:0:0:
90,208,132327,1,12,2:1:0:0:
48,289,132601,1,12,0:3:0:0:
48,289,132784,6,0,P|22:326|28:375,2,90,4|2|2,1:1|1:2|1:2,0:0:0:0:
96,212,133607,1,0,0:0:0:0:
54,138,133881,1,2,1:2:0:0:
54,138,134064,2,0,P|18:113|-1:68,2,90,2|2|2,1:2|1:2|1:2,0:0:0:0:
132,93,134887,1,2,0:2:0:0:
222,120,135161,1,12,0:3:0:0:
222,120,135344,6,0,B|229:165|227:167|234:214,2,90,4|2|2,1:1|1:2|1:3,0:0:0:0:
283,53,136167,1,2,1:2:0:0:
373,83,136441,1,4,0:3:0:0:
373,83,136624,2,0,P|396:45|389:-3,2,90,4|2|2,1:1|1:2|1:2,0:0:0:0:
362,172,137447,1,2,1:2:0:0:
291,227,137721,2,0,B|256:226|227:217|227:209|205:201|170:199,1,120,8|8,0:2|0:2,0:0:0:0:
123,179,138270,1,2,1:2:0:0:
123,179,138453,2,0,P|97:129|123:75,1,120,2|4,1:2|1:2,0:0:0:0:
457,179,140465,5,2,1:2:0:0:
404,251,140739,1,6,1:2:0:0:
463,318,141014,2,0,P|481:348|494:382,1,60,12|0,1:1|0:0,0:0:0:0:
