osu file format v14

[General]
AudioFilename: audio.mp3
AudioLeadIn: 0
PreviewTime: 21912
Countdown: 0
SampleSet: Normal
StackLeniency: 0.7
Mode: 1
LetterboxInBreaks: 0
WidescreenStoryboard: 1

[Editor]
DistanceSpacing: 1
BeatDivisor: 12
GridSize: 32
TimelineZoom: 2.900005

[Metadata]
Title:Sleight of Hand
TitleUnicode:Sleight of Hand
Artist:Toromaru
ArtistUnicode:とろまる
Creator:Nurend
Version:meiqth's Muzukashii
Source:osu!taiko World Cup 2023
Tags:twc 2023 semifinals sf nm2 no mod osu! original custom song featured artist fa jazz instrumental parasol pig retromgp cynplytholowazy cynp-zy meiqth maxie raphalge
BeatmapID:4181037
BeatmapSetID:1972518

[Difficulty]
HPDrainRate:6
CircleSize:2
OverallDifficulty:5
ApproachRate:10
SliderMultiplier:1.4
SliderTickRate:3

[Events]
//Background and Video events
0,0,"bob.png",0,0
//Break Periods
//Storyboard Layer 0 (Background)
//Storyboard Layer 1 (Fail)
//Storyboard Layer 2 (Pass)
//Storyboard Layer 3 (Foreground)
//Storyboard Layer 4 (Overlay)
//Storyboard Sound Samples

[TimingPoints]
1443,352.941176470588,7,1,0,80,1,0
1443,-100,7,1,0,80,0,0
6384,-90.9090909090909,7,1,0,90,0,1
13795,352.941176470588,9,1,0,90,1,1
13795,-90.9090909090909,9,1,0,90,0,1
16971,352.941176470588,4,1,0,80,1,0
18206,352.941176470588,4,1,0,80,1,0
19441,352.941176470588,4,1,0,80,1,0
20676,352.941176470588,4,1,0,80,1,0
21912,352.941176470588,4,1,0,90,1,1
21912,-88.4955752212389,4,1,0,90,0,1
27559,-88.4955752212389,4,1,0,90,0,0
28794,352.941176470588,4,1,0,80,1,0
28794,-88.4955752212389,4,1,0,90,0,0
30029,352.941176470588,4,1,0,80,1,0
30029,-88.4955752212389,4,1,0,90,0,0
31264,352.941176470588,4,1,0,80,1,0
31264,-88.4955752212389,4,1,0,90,0,0
32499,352.941176470588,4,1,0,90,1,1
32499,-88.4955752212389,4,1,0,90,0,1
38146,352.941176470588,3,1,0,80,1,0
38146,-105.263157894737,3,1,0,80,0,0
42381,352.941176470588,4,1,0,80,1,0
46616,352.941176470588,7,1,0,80,1,0
51468,-95.2380952380952,7,1,0,80,0,0
61439,352.941176470588,4,1,0,80,1,0
61439,-90.9090909090909,4,1,0,80,0,0
64194,-100,4,1,0,80,0,0
68436,-71.3239009600809,4,1,0,80,0,0
68497,352.941176470588,7,1,0,80,1,0
68497,-90.9090909090909,7,1,0,80,0,0
78202,-100,7,1,0,80,0,0
88261,352.941176470588,4,1,0,80,1,0
88261,-90.9090909090909,4,1,0,80,0,0
91506,-100,4,1,0,80,0,0
105202,352.941176470588,3,1,0,80,1,0
107319,352.941176470588,4,1,0,80,1,0
110142,352.941176470588,3,1,0,80,1,0
110142,-90.9090909090909,4,1,0,80,0,0
114315,-58.9685037177309,3,1,0,80,0,0
114377,352.941176470588,4,1,0,80,1,0
114377,-86.9565217391304,4,1,0,80,0,0
114903,-62.9910714285714,4,1,0,80,0,0
114962,-63.4927777527787,4,1,0,80,0,0
115021,-100,4,1,0,80,0,0
117200,352.941176470588,7,1,0,80,1,0
119670,352.941176470588,7,1,0,80,1,8
119847,352.941176470588,7,1,0,90,1,1
119847,-83.3333333333333,7,1,0,90,0,1
129729,-83.3333333333333,7,1,0,80,0,0
132199,-83.3333333333333,7,1,0,90,0,1
139611,352.941176470588,6,1,0,90,1,1
139611,-83.3333333333333,6,1,0,90,0,1
139963,-83.3333333333333,6,1,0,80,0,0
141728,-83.3333333333333,6,1,0,80,0,0
142346,-83.3333333333333,6,1,0,90,0,1
142787,-83.3333333333333,6,1,0,80,0,0

[HitObjects]
256,192,1443,5,0,0:0:0:0:
256,192,1619,1,0,0:0:0:0:
256,192,1795,1,8,0:0:0:0:
256,192,1972,1,0,0:0:0:0:
256,192,2148,1,0,0:0:0:0:
256,192,2325,1,8,0:0:0:0:
256,192,2501,1,0,0:0:0:0:
256,192,2678,1,0,0:0:0:0:
256,192,2854,1,0,0:0:0:0:
256,192,3031,1,8,0:0:0:0:
256,192,3207,1,0,0:0:0:0:
256,192,3913,1,0,0:0:0:0:
256,192,4090,1,0,0:0:0:0:
256,192,4266,1,8,0:0:0:0:
256,192,4442,1,0,0:0:0:0:
256,192,4619,1,0,0:0:0:0:
256,192,4795,1,8,0:0:0:0:
256,192,4972,1,8,0:0:0:0:
256,192,5148,1,0,0:0:0:0:
256,192,5325,1,0,0:0:0:0:
256,192,5501,1,8,0:0:0:0:
256,192,5678,1,0,0:0:0:0:
256,192,6384,1,12,0:0:0:0:
256,192,6560,1,0,0:0:0:0:
256,192,6737,1,8,0:0:0:0:
256,192,6913,1,0,0:0:0:0:
256,192,7090,1,0,0:0:0:0:
256,192,7207,1,8,0:0:0:0:
256,192,7266,1,8,0:0:0:0:
256,192,7442,1,0,0:0:0:0:
256,192,7619,1,0,0:0:0:0:
256,192,7795,1,8,0:0:0:0:
256,192,7972,1,8,0:0:0:0:
256,192,8148,1,0,0:0:0:0:
256,192,8854,1,0,0:0:0:0:
256,192,9031,1,0,0:0:0:0:
256,192,9207,1,8,0:0:0:0:
256,192,9384,1,0,0:0:0:0:
256,192,9560,1,8,0:0:0:0:
256,192,9678,1,0,0:0:0:0:
256,192,9737,1,0,0:0:0:0:
256,192,9913,1,8,0:0:0:0:
256,192,10090,1,0,0:0:0:0:
256,192,10266,1,0,0:0:0:0:
256,192,10442,1,8,0:0:0:0:
256,192,10619,1,0,0:0:0:0:
256,192,11325,1,12,0:0:0:0:
256,192,11501,1,0,0:0:0:0:
256,192,11678,1,0,0:0:0:0:
256,192,11854,1,8,0:0:0:0:
256,192,12031,1,0,0:0:0:0:
256,192,12148,1,8,0:0:0:0:
256,192,12207,1,8,0:0:0:0:
256,192,12384,1,0,0:0:0:0:
256,192,12560,1,0,0:0:0:0:
256,192,12737,1,8,0:0:0:0:
256,192,12913,1,8,0:0:0:0:
256,192,13090,1,0,0:0:0:0:
256,192,13795,1,0,0:0:0:0:
256,192,13971,1,0,0:0:0:0:
256,192,14147,1,8,0:0:0:0:
256,192,14324,1,0,0:0:0:0:
256,192,14500,1,8,0:0:0:0:
256,192,14618,1,0,0:0:0:0:
256,192,14677,1,0,0:0:0:0:
256,192,14853,1,8,0:0:0:0:
256,192,15030,1,8,0:0:0:0:
256,192,15206,1,0,0:0:0:0:
256,192,15383,1,0,0:0:0:0:
256,192,15559,1,8,0:0:0:0:
256,192,16265,1,8,0:0:0:0:
256,192,16383,1,0,0:0:0:0:
256,192,16442,1,0,0:0:0:0:
256,192,16559,1,8,0:0:0:0:
256,192,16618,1,8,0:0:0:0:
256,192,16971,1,12,0:0:0:0:
256,192,17265,1,8,0:0:0:0:
256,192,17500,1,0,0:0:0:0:
256,192,17794,1,8,0:0:0:0:
256,192,18206,1,0,0:0:0:0:
256,192,18500,1,8,0:0:0:0:
256,192,18735,1,0,0:0:0:0:
256,192,19441,1,8,0:0:0:0:
256,192,19735,1,8,0:0:0:0:
256,192,19970,1,0,0:0:0:0:
256,192,20264,1,8,0:0:0:0:
256,192,20676,1,0,0:0:0:0:
256,192,20970,1,0,0:0:0:0:
256,192,21205,1,8,0:0:0:0:
256,192,21912,1,4,0:0:0:0:
256,192,22176,1,8,0:0:0:0:
256,192,22441,1,0,0:0:0:0:
256,192,22529,1,0,0:0:0:0:
256,192,22617,1,0,0:0:0:0:
256,192,22882,1,8,0:0:0:0:
256,192,23147,1,0,0:0:0:0:
256,192,23323,1,8,0:0:0:0:
256,192,23588,1,0,0:0:0:0:
256,192,23853,1,8,0:0:0:0:
256,192,24029,1,0,0:0:0:0:
256,192,24294,1,8,0:0:0:0:
256,192,24735,1,12,0:0:0:0:
256,192,25000,1,0,0:0:0:0:
256,192,25264,1,8,0:0:0:0:
256,192,25353,1,8,0:0:0:0:
256,192,25441,1,8,0:0:0:0:
256,192,25706,1,0,0:0:0:0:
256,192,25970,1,0,0:0:0:0:
256,192,26147,1,8,0:0:0:0:
256,192,26411,1,0,0:0:0:0:
256,192,26617,1,8,0:0:0:0:
256,192,26676,1,8,0:0:0:0:
256,192,26853,1,0,0:0:0:0:
256,192,27559,1,12,0:0:0:0:
256,192,27823,1,8,0:0:0:0:
256,192,28088,1,0,0:0:0:0:
256,192,28382,1,8,0:0:0:0:
256,192,28617,1,0,0:0:0:0:
256,192,28794,1,8,0:0:0:0:
256,192,29058,1,8,0:0:0:0:
256,192,29323,1,0,0:0:0:0:
256,192,30029,1,8,0:0:0:0:
256,192,30293,1,8,0:0:0:0:
256,192,30558,1,0,0:0:0:0:
256,192,30852,1,0,0:0:0:0:
256,192,31087,1,8,0:0:0:0:
256,192,31264,1,0,0:0:0:0:
256,192,31528,1,8,0:0:0:0:
256,192,31793,1,0,0:0:0:0:
256,192,32499,1,4,0:0:0:0:
256,192,32763,1,0,0:0:0:0:
256,192,33028,1,8,0:0:0:0:
256,192,33116,1,8,0:0:0:0:
256,192,33204,1,8,0:0:0:0:
256,192,33469,1,0,0:0:0:0:
256,192,33734,1,8,0:0:0:0:
256,192,33910,1,0,0:0:0:0:
256,192,34175,1,0,0:0:0:0:
256,192,34440,1,8,0:0:0:0:
256,192,34616,1,0,0:0:0:0:
256,192,34881,1,0,0:0:0:0:
256,192,35322,1,12,0:0:0:0:
256,192,35587,1,8,0:0:0:0:
256,192,35851,1,0,0:0:0:0:
256,192,35940,1,0,0:0:0:0:
256,192,36028,1,0,0:0:0:0:
256,192,36293,1,8,0:0:0:0:
256,192,36557,1,0,0:0:0:0:
256,192,36734,1,8,0:0:0:0:
256,192,36999,1,8,0:0:0:0:
256,192,37204,1,0,0:0:0:0:
256,192,37263,1,0,0:0:0:0:
256,192,37440,1,8,0:0:0:0:
256,192,38146,1,12,0:0:0:0:
256,192,38675,1,0,0:0:0:0:
256,192,38969,1,0,0:0:0:0:
256,192,39204,1,8,0:0:0:0:
256,192,39734,1,8,0:0:0:0:
256,192,40263,1,8,0:0:0:0:
256,192,40793,1,0,0:0:0:0:
256,192,41087,1,8,0:0:0:0:
256,192,41322,1,8,0:0:0:0:
256,192,41851,1,0,0:0:0:0:
256,192,42146,1,0,0:0:0:0:
256,192,42381,1,12,0:0:0:0:
256,192,42557,1,0,0:0:0:0:
256,192,42733,1,8,0:0:0:0:
256,192,42822,1,8,0:0:0:0:
256,192,43086,1,0,0:0:0:0:
256,192,43351,1,8,0:0:0:0:
256,192,43616,1,8,0:0:0:0:
256,192,43792,1,0,0:0:0:0:
256,192,43969,1,0,0:0:0:0:
256,192,44145,1,8,0:0:0:0:
256,192,44233,1,8,0:0:0:0:
256,192,44498,1,0,0:0:0:0:
256,192,44763,1,0,0:0:0:0:
256,192,45028,1,0,0:0:0:0:
256,192,45204,1,12,0:0:0:0:
256,192,46616,1,0,0:0:0:0:
256,192,46792,1,0,0:0:0:0:
256,192,46968,1,8,0:0:0:0:
256,192,47145,1,0,0:0:0:0:
256,192,47498,1,8,0:0:0:0:
256,192,47674,1,0,0:0:0:0:
256,192,47851,1,0,0:0:0:0:
256,192,48027,1,0,0:0:0:0:
256,192,48204,1,8,0:0:0:0:
256,192,48380,1,0,0:0:0:0:
256,192,48733,1,12,0:0:0:0:
256,192,49086,1,0,0:0:0:0:
256,192,49263,1,0,0:0:0:0:
256,192,49439,1,8,0:0:0:0:
256,192,49616,1,0,0:0:0:0:
256,192,49968,1,8,0:0:0:0:
256,192,50145,1,8,0:0:0:0:
256,192,50321,1,0,0:0:0:0:
256,192,50498,1,0,0:0:0:0:
256,192,50674,1,8,0:0:0:0:
256,192,50851,1,0,0:0:0:0:
256,192,51204,1,12,0:0:0:0:
256,192,51557,1,8,0:0:0:0:
256,192,51674,1,0,0:0:0:0:
256,192,51733,1,0,0:0:0:0:
256,192,51910,1,8,0:0:0:0:
256,192,52086,1,0,0:0:0:0:
256,192,52263,1,0,0:0:0:0:
256,192,52439,1,8,0:0:0:0:
256,192,52616,1,0,0:0:0:0:
256,192,52792,1,0,0:0:0:0:
256,192,52968,1,8,0:0:0:0:
256,192,53086,1,0,0:0:0:0:
256,192,53145,1,0,0:0:0:0:
256,192,53321,1,8,0:0:0:0:
256,192,54027,1,8,0:0:0:0:
256,192,54204,1,8,0:0:0:0:
256,192,54380,1,0,0:0:0:0:
256,192,54733,1,8,0:0:0:0:
256,192,54910,1,8,0:0:0:0:
256,192,55086,1,0,0:0:0:0:
256,192,55263,1,8,0:0:0:0:
256,192,55527,1,0,0:0:0:0:
256,192,55615,1,0,0:0:0:0:
256,192,55792,1,8,0:0:0:0:
256,192,56145,1,0,0:0:0:0:
256,192,56498,1,0,0:0:0:0:
256,192,56615,1,8,0:0:0:0:
256,192,56674,1,8,0:0:0:0:
256,192,56851,1,0,0:0:0:0:
256,192,57027,1,8,0:0:0:0:
256,192,57204,1,8,0:0:0:0:
256,192,57380,1,0,0:0:0:0:
256,192,57557,1,8,0:0:0:0:
256,192,57733,1,0,0:0:0:0:
256,192,57851,1,8,0:0:0:0:
256,192,57910,1,8,0:0:0:0:
256,192,58086,1,8,0:0:0:0:
256,192,58263,1,0,0:0:0:0:
256,192,58968,1,8,0:0:0:0:
256,192,59321,1,0,0:0:0:0:
256,192,59498,1,0,0:0:0:0:
256,192,59674,1,8,0:0:0:0:
256,192,60027,1,0,0:0:0:0:
256,192,60204,1,0,0:0:0:0:
256,192,60380,1,8,0:0:0:0:
256,192,60733,1,8,0:0:0:0:
256,192,61086,1,0,0:0:0:0:
256,192,61439,1,12,0:0:0:0:
256,192,61733,1,12,0:0:0:0:
256,192,61968,1,4,0:0:0:0:
256,192,62850,1,12,0:0:0:0:
256,192,63144,1,4,0:0:0:0:
256,192,63380,1,12,0:0:0:0:
256,192,64262,1,12,0:0:0:0:
256,192,64439,1,0,0:0:0:0:
256,192,64615,1,8,0:0:0:0:
256,192,64791,1,8,0:0:0:0:
256,192,64968,1,4,0:0:0:0:
256,192,65144,1,8,0:0:0:0:
256,192,65321,1,8,0:0:0:0:
256,192,65497,1,8,0:0:0:0:
256,192,65674,1,4,0:0:0:0:
256,192,66027,1,8,0:0:0:0:
256,192,66203,1,0,0:0:0:0:
256,192,66556,1,8,0:0:0:0:
256,192,66733,1,8,0:0:0:0:
256,192,66909,1,0,0:0:0:0:
256,192,67086,1,8,0:0:0:0:
256,192,67439,1,0,0:0:0:0:
256,192,67615,1,0,0:0:0:0:
256,192,67791,1,8,0:0:0:0:
256,192,68497,1,12,0:0:0:0:
256,192,68673,1,0,0:0:0:0:
256,192,68849,1,0,0:0:0:0:
256,192,69026,1,0,0:0:0:0:
256,192,69144,1,8,0:0:0:0:
256,192,69202,1,8,0:0:0:0:
256,192,69379,1,0,0:0:0:0:
256,192,69555,1,8,0:0:0:0:
256,192,70085,1,0,0:0:0:0:
256,192,70261,1,8,0:0:0:0:
256,192,70438,1,8,0:0:0:0:
256,192,70614,1,8,0:0:0:0:
256,192,70732,1,0,0:0:0:0:
256,192,70791,1,0,0:0:0:0:
256,192,70967,1,8,0:0:0:0:
256,192,71261,1,0,0:0:0:0:
256,192,71673,1,0,0:0:0:0:
256,192,71967,1,8,0:0:0:0:
256,192,72379,1,8,0:0:0:0:
256,192,72673,1,0,0:0:0:0:
256,192,73261,1,0,0:0:0:0:
256,192,73438,1,12,0:0:0:0:
256,192,73614,1,0,0:0:0:0:
256,192,73791,1,8,0:0:0:0:
256,192,73967,1,0,0:0:0:0:
256,192,74085,1,8,0:0:0:0:
256,192,74144,1,8,0:0:0:0:
256,192,74320,1,0,0:0:0:0:
256,192,74497,1,8,0:0:0:0:
256,192,75026,1,0,0:0:0:0:
256,192,75202,1,8,0:0:0:0:
256,192,75379,1,0,0:0:0:0:
256,192,75555,1,8,0:0:0:0:
256,192,75673,1,0,0:0:0:0:
256,192,75732,1,0,0:0:0:0:
256,192,75908,1,8,0:0:0:0:
256,192,76202,1,8,0:0:0:0:
256,192,76614,1,0,0:0:0:0:
256,192,76908,1,8,0:0:0:0:
256,192,77320,1,0,0:0:0:0:
256,192,77614,1,0,0:0:0:0:
256,192,78732,1,12,0:0:0:0:
256,192,78908,1,0,0:0:0:0:
256,192,79085,1,8,0:0:0:0:
256,192,79379,1,0,0:0:0:0:
256,192,79967,1,8,0:0:0:0:
256,192,80144,1,0,0:0:0:0:
256,192,80438,1,8,0:0:0:0:
256,192,80849,1,8,0:0:0:0:
256,192,81202,1,0,0:0:0:0:
256,192,81555,1,0,0:0:0:0:
256,192,81732,1,8,0:0:0:0:
256,192,82085,1,8,0:0:0:0:
256,192,82261,1,0,0:0:0:0:
256,192,82614,1,8,0:0:0:0:
256,192,83320,1,12,0:0:0:0:
256,192,83496,1,0,0:0:0:0:
256,192,83673,1,0,0:0:0:0:
256,192,83849,1,8,0:0:0:0:
256,192,83967,1,0,0:0:0:0:
256,192,84320,1,8,0:0:0:0:
256,192,84379,1,8,0:0:0:0:
256,192,84673,1,8,0:0:0:0:
256,192,84732,1,8,0:0:0:0:
256,192,84849,2,0,B|373:176|373:176|256:192,1,233.333333333333
256,192,85614,1,8,0:0:0:0:
256,192,85967,1,0,0:0:0:0:
256,192,86320,1,8,0:0:0:0:
256,192,86496,1,8,0:0:0:0:
257,190,86791,1,8,0:0:0:0:
256,192,86967,1,8,0:0:0:0:
256,192,87202,1,0,0:0:0:0:
256,192,87379,1,0,0:0:0:0:
256,192,87555,1,8,0:0:0:0:
256,192,88261,1,12,0:0:0:0:
256,192,88437,1,0,0:0:0:0:
256,192,88613,1,8,0:0:0:0:
256,192,88790,1,0,0:0:0:0:
256,192,88908,1,0,0:0:0:0:
256,192,89143,1,8,0:0:0:0:
256,192,89319,1,8,0:0:0:0:
256,192,89496,1,0,0:0:0:0:
256,192,89672,1,12,0:0:0:0:
256,192,89849,1,0,0:0:0:0:
256,192,90025,1,8,0:0:0:0:
256,192,90202,1,0,0:0:0:0:
256,192,90319,1,8,0:0:0:0:
256,192,90555,1,0,0:0:0:0:
256,192,90731,1,0,0:0:0:0:
256,192,90908,1,8,0:0:0:0:
256,192,91084,1,4,0:0:0:0:
256,192,91790,1,8,0:0:0:0:
256,192,92143,1,0,0:0:0:0:
256,192,92496,1,8,0:0:0:0:
256,192,92849,1,8,0:0:0:0:
256,192,93202,1,0,0:0:0:0:
256,192,93378,1,12,0:0:0:0:
256,192,93643,1,12,0:0:0:0:
256,192,93908,1,4,0:0:0:0:
256,192,94613,1,0,0:0:0:0:
256,192,94878,1,0,0:0:0:0:
256,192,95143,1,0,0:0:0:0:
256,192,95319,1,8,0:0:0:0:
256,192,95496,1,0,0:0:0:0:
256,192,95672,1,8,0:0:0:0:
256,192,96025,1,0,0:0:0:0:
256,192,96378,1,0,0:0:0:0:
256,192,96555,1,12,0:0:0:0:
256,192,96731,1,12,0:0:0:0:
256,192,97613,1,8,0:0:0:0:
256,192,97966,1,0,0:0:0:0:
256,192,98143,1,8,0:0:0:0:
256,192,98319,1,8,0:0:0:0:
256,192,98496,1,0,0:0:0:0:
256,192,98849,1,0,0:0:0:0:
256,192,99025,1,12,0:0:0:0:
256,192,99290,1,4,0:0:0:0:
256,192,99555,1,12,0:0:0:0:
256,192,99908,1,0,0:0:0:0:
256,192,100261,1,8,0:0:0:0:
256,192,100437,1,0,0:0:0:0:
256,192,100613,1,8,0:0:0:0:
256,192,100790,1,8,0:0:0:0:
256,192,100966,1,0,0:0:0:0:
256,192,101143,1,8,0:0:0:0:
256,192,101319,1,8,0:0:0:0:
256,192,101496,1,0,0:0:0:0:
256,192,101672,2,0,B|362:185|362:185|256:192,1,210
256,192,102378,1,12,0:0:0:0:
256,192,103084,1,0,0:0:0:0:
256,192,103349,1,0,0:0:0:0:
256,192,103613,1,0,0:0:0:0:
256,192,103790,1,8,0:0:0:0:
256,192,104496,1,8,0:0:0:0:
256,192,104760,1,8,0:0:0:0:
256,192,105025,1,0,0:0:0:0:
256,192,105202,1,8,0:0:0:0:
256,192,105496,1,0,0:0:0:0:
256,192,105731,1,8,0:0:0:0:
256,192,105907,1,0,0:0:0:0:
256,192,106260,1,0,0:0:0:0:
256,192,106525,1,0,0:0:0:0:
256,192,106790,1,0,0:0:0:0:
256,192,106966,1,8,0:0:0:0:
256,193,107319,1,12,0:0:0:0:
256,193,107613,1,0,0:0:0:0:
256,193,108024,1,0,0:0:0:0:
256,192,108319,1,8,0:0:0:0:
256,192,108730,1,0,0:0:0:0:
256,192,109083,1,8,0:0:0:0:
256,192,109260,1,0,0:0:0:0:
256,192,109436,1,8,0:0:0:0:
256,192,110142,1,12,0:0:0:0:
256,192,110436,1,0,0:0:0:0:
256,192,110671,1,8,0:0:0:0:
256,192,110965,1,8,0:0:0:0:
256,192,111200,1,0,0:0:0:0:
256,192,111494,1,8,0:0:0:0:
256,192,111730,1,0,0:0:0:0:
256,192,112024,1,8,0:0:0:0:
256,192,112259,1,0,0:0:0:0:
256,192,112553,1,8,0:0:0:0:
256,192,112789,1,8,0:0:0:0:
256,192,113083,1,0,0:0:0:0:
256,192,113318,1,8,0:0:0:0:
256,192,113612,1,8,0:0:0:0:
256,192,113847,1,8,0:0:0:0:
256,192,114142,1,0,0:0:0:0:
256,192,114377,1,12,0:0:0:0:
256,192,115082,2,0,B|396:187|396:187|256:192,1,280
256,191,116141,1,8,0:0:0:0:
256,191,116494,1,8,0:0:0:0:
256,191,116847,1,8,0:0:0:0:
256,191,117200,1,0,0:0:0:0:
256,191,117552,1,8,0:0:0:0:
256,191,117729,1,0,0:0:0:0:
256,191,118082,1,0,0:0:0:0:
256,191,118258,1,8,0:0:0:0:
256,191,118435,1,0,0:0:0:0:
256,191,118788,1,8,0:0:0:0:
256,191,118964,1,0,0:0:0:0:
256,192,119847,1,12,0:0:0:0:
256,192,120023,1,0,0:0:0:0:
256,192,120141,1,8,0:0:0:0:
256,192,120199,1,8,0:0:0:0:
256,192,120376,1,0,0:0:0:0:
256,192,120552,1,8,0:0:0:0:
256,192,120670,1,0,0:0:0:0:
256,192,120729,1,0,0:0:0:0:
256,192,120905,1,0,0:0:0:0:
256,192,121082,1,8,0:0:0:0:
256,192,121258,1,8,0:0:0:0:
256,192,121435,1,8,0:0:0:0:
256,192,121611,1,0,0:0:0:0:
256,192,121964,1,8,0:0:0:0:
256,192,122317,1,0,0:0:0:0:
256,192,122494,1,0,0:0:0:0:
256,192,122611,1,8,0:0:0:0:
256,192,122670,1,8,0:0:0:0:
256,192,122847,1,0,0:0:0:0:
256,192,123023,1,8,0:0:0:0:
256,192,123141,1,0,0:0:0:0:
256,192,123199,1,0,0:0:0:0:
256,192,123376,1,8,0:0:0:0:
256,192,123552,1,0,0:0:0:0:
256,192,123729,1,0,0:0:0:0:
256,192,123905,1,8,0:0:0:0:
256,192,124082,1,0,0:0:0:0:
256,192,124788,1,4,0:0:0:0:
256,192,124964,1,8,0:0:0:0:
256,192,125082,1,0,0:0:0:0:
256,192,125141,1,0,0:0:0:0:
256,192,125317,1,8,0:0:0:0:
256,192,125494,1,0,0:0:0:0:
256,192,125611,1,8,0:0:0:0:
256,192,125670,1,8,0:0:0:0:
256,192,125847,1,0,0:0:0:0:
256,192,126023,1,0,0:0:0:0:
256,192,126199,1,8,0:0:0:0:
256,192,126376,1,8,0:0:0:0:
256,192,126552,1,0,0:0:0:0:
256,192,126905,1,8,0:0:0:0:
256,192,127258,1,0,0:0:0:0:
256,192,127435,1,0,0:0:0:0:
256,192,127552,1,8,0:0:0:0:
256,192,127611,1,8,0:0:0:0:
256,192,127788,1,0,0:0:0:0:
256,192,127964,1,8,0:0:0:0:
256,192,128082,1,0,0:0:0:0:
256,192,128141,1,0,0:0:0:0:
256,192,128317,1,8,0:0:0:0:
256,192,128494,1,8,0:0:0:0:
256,192,128670,1,0,0:0:0:0:
256,192,128847,1,0,0:0:0:0:
256,192,129023,1,8,0:0:0:0:
256,192,129729,1,8,0:0:0:0:
256,192,130082,1,4,0:0:0:0:
256,192,130611,1,4,0:0:0:0:
256,192,131141,1,4,0:0:0:0:
256,192,131670,1,4,0:0:0:0:
256,192,131847,1,8,0:0:0:0:
256,192,132199,1,12,0:0:0:0:
256,192,132376,1,8,0:0:0:0:
256,192,132494,1,0,0:0:0:0:
256,192,132552,1,0,0:0:0:0:
256,192,132729,1,8,0:0:0:0:
256,192,132905,1,0,0:0:0:0:
256,192,133023,1,8,0:0:0:0:
256,192,133082,1,8,0:0:0:0:
256,192,133258,1,0,0:0:0:0:
256,192,133435,1,0,0:0:0:0:
256,192,133611,1,8,0:0:0:0:
256,192,133788,1,0,0:0:0:0:
256,192,133964,1,8,0:0:0:0:
256,192,134317,1,8,0:0:0:0:
256,192,134670,1,4,0:0:0:0:
256,192,134847,1,8,0:0:0:0:
256,192,134964,1,0,0:0:0:0:
256,192,135023,1,0,0:0:0:0:
256,192,135199,1,8,0:0:0:0:
256,192,135376,1,8,0:0:0:0:
256,192,135494,1,0,0:0:0:0:
256,192,135552,1,0,0:0:0:0:
256,192,135729,1,8,0:0:0:0:
256,192,135905,1,8,0:0:0:0:
256,192,136082,1,0,0:0:0:0:
256,192,136258,1,8,0:0:0:0:
256,192,136435,1,0,0:0:0:0:
256,192,137141,1,0,0:0:0:0:
256,192,137317,1,8,0:0:0:0:
256,192,137435,1,8,0:0:0:0:
256,192,137494,1,8,0:0:0:0:
256,192,137670,1,0,0:0:0:0:
256,192,137847,1,8,0:0:0:0:
256,192,137964,1,0,0:0:0:0:
256,192,138023,1,0,0:0:0:0:
256,192,138199,1,8,0:0:0:0:
256,192,138376,1,0,0:0:0:0:
256,192,138552,1,8,0:0:0:0:
256,192,138729,1,8,0:0:0:0:
256,192,138905,1,0,0:0:0:0:
256,192,139611,1,8,0:0:0:0:
256,192,139728,1,0,0:0:0:0:
256,192,139787,1,0,0:0:0:0:
256,192,139905,1,8,0:0:0:0:
256,192,139963,1,8,0:0:0:0:
256,192,140316,1,8,0:0:0:0:
256,192,140611,1,0,0:0:0:0:
256,192,141022,1,0,0:0:0:0:
256,192,141375,1,8,0:0:0:0:
256,192,141728,1,0,0:0:0:0:
256,192,142346,1,12,0:0:0:0:
256,192,142611,1,12,0:0:0:0:
