osu file format v14

[General]
AudioFilename: audio.mp3
AudioLeadIn: 0
PreviewTime: 21912
Countdown: 0
SampleSet: Normal
StackLeniency: 0.7
Mode: 1
LetterboxInBreaks: 0
WidescreenStoryboard: 1

[Editor]
DistanceSpacing: 1
BeatDivisor: 3
GridSize: 32
TimelineZoom: 5.600003

[Metadata]
Title:Sleight of Hand
TitleUnicode:Sleight of Hand
Artist:Toromaru
ArtistUnicode:とろまる
Creator:Nurend
Version:maxie's Futsuu
Source:osu!taiko World Cup 2023
Tags:twc 2023 semifinals sf nm2 no mod osu! original custom song featured artist fa jazz instrumental parasol pig retromgp cynplytholowazy cynp-zy meiqth maxie raphalge
BeatmapID:4181036
BeatmapSetID:1972518

[Difficulty]
HPDrainRate:7
CircleSize:5
OverallDifficulty:4
ApproachRate:5
SliderMultiplier:1.4
SliderTickRate:3

[Events]
//Background and Video events
0,0,"bob.png",0,0
//Break Periods
//Storyboard Layer 0 (Background)
//Storyboard Layer 1 (Fail)
//Storyboard Layer 2 (Pass)
//Storyboard Layer 3 (Foreground)
//Storyboard Layer 4 (Overlay)
//Storyboard Sound Samples

[TimingPoints]
1443,352.941176470588,7,1,0,80,1,0
6384,-100,7,1,0,90,0,1
13795,352.941176470588,9,1,0,90,1,1
16971,352.941176470588,4,1,0,80,1,0
18206,352.941176470588,4,1,0,80,1,0
19441,352.941176470588,4,1,0,80,1,0
20676,352.941176470588,4,1,0,80,1,0
21912,352.941176470588,4,1,0,90,1,1
27559,-100,4,1,0,90,0,0
28794,352.941176470588,4,1,0,80,1,0
30029,352.941176470588,4,1,0,80,1,0
31264,352.941176470588,4,1,0,80,1,0
32499,352.941176470588,4,1,0,90,1,1
38146,352.941176470588,3,1,0,80,1,0
42381,352.941176470588,4,1,0,80,1,0
46616,352.941176470588,7,1,0,80,1,0
61439,352.941176470588,4,1,0,80,1,0
68497,352.941176470588,7,1,0,80,1,0
88261,352.941176470588,4,1,0,80,1,0
105202,352.941176470588,3,1,0,80,1,0
107319,352.941176470588,4,1,0,80,1,0
110142,352.941176470588,3,1,0,80,1,0
114377,352.941176470588,4,1,0,80,1,0
117200,352.941176470588,7,1,0,80,1,0
119670,352.941176470588,7,1,0,80,1,8
119847,352.941176470588,7,1,0,90,1,1
129729,-100,7,1,0,80,0,0
132199,-100,7,1,0,90,0,1
139611,352.941176470588,6,1,0,90,1,1
142611,-100,6,1,0,80,0,0

[HitObjects]
448,64,1443,5,8,1:0:0:0:
448,64,1972,1,8,1:0:0:0:
448,64,2678,1,8,1:0:0:0:
448,64,3207,1,8,1:0:0:0:
448,64,3913,1,8,1:0:0:0:
448,64,4442,1,8,1:0:0:0:
448,64,5148,1,8,1:0:0:0:
64,64,5678,1,0,1:0:0:0:
64,64,5854,1,0,1:0:0:0:
64,64,6031,1,0,1:0:0:0:
448,320,6384,1,12,1:0:0:0:
64,64,6737,1,0,0:0:0:0:
448,64,6913,1,8,1:0:0:0:
64,64,7442,1,0,1:0:0:0:
448,64,7619,1,8,1:0:0:0:
64,64,7972,1,0,1:0:0:0:
448,64,8148,1,8,1:0:0:0:
64,64,8501,1,0,1:0:0:0:
448,64,8854,1,8,1:0:0:0:
64,64,9207,1,0,1:0:0:0:
448,64,9384,1,8,1:0:0:0:
64,64,9913,1,0,1:0:0:0:
448,64,10090,1,8,1:0:0:0:
64,64,10442,1,0,1:0:0:0:
448,64,10619,1,8,1:0:0:0:
64,64,10972,1,0,1:0:0:0:
64,64,11148,1,0,1:0:0:0:
448,320,11325,1,12,1:0:0:0:
64,64,11678,1,0,1:0:0:0:
64,64,12384,1,0,1:0:0:0:
448,64,12560,1,8,1:0:0:0:
64,64,12913,1,0,1:0:0:0:
448,64,13090,1,8,1:0:0:0:
448,64,13266,1,8,1:0:0:0:
64,64,13442,1,0,1:0:0:0:
448,64,13795,1,8,1:0:0:0:
64,64,14148,1,0,1:0:0:0:
448,64,14324,1,8,1:0:0:0:
64,64,14853,1,0,1:0:0:0:
448,64,15030,1,8,1:0:0:0:
448,64,15383,1,8,1:0:0:0:
64,64,15559,1,0,1:0:0:0:
64,64,15736,1,0,1:0:0:0:
64,64,15912,1,0,1:0:0:0:
152,153,16265,2,0,L|218:120,3,46.6666666666667
448,320,16971,1,12,1:0:0:0:
64,64,17853,1,0,1:0:0:0:
448,64,18206,1,8,1:0:0:0:
448,64,18470,1,8,1:0:0:0:
64,64,18735,1,0,1:0:0:0:
448,64,19441,1,8,1:0:0:0:
448,64,19705,1,8,1:0:0:0:
64,64,20323,1,0,1:0:0:0:
448,64,20676,1,8,1:0:0:0:
448,64,20940,1,8,1:0:0:0:
64,64,21205,1,0,1:0:0:0:
448,320,21912,1,12,1:0:0:0:
448,64,22617,1,8,1:0:0:0:
64,64,22970,1,0,1:0:0:0:
448,64,23323,1,8,1:0:0:0:
64,64,23853,1,0,1:0:0:0:
448,64,24029,1,8,1:0:0:0:
64,64,24382,1,0,1:0:0:0:
64,64,24559,1,0,1:0:0:0:
448,320,24735,1,12,1:0:0:0:
448,64,25441,1,8,1:0:0:0:
64,64,25794,1,0,1:0:0:0:
448,64,26147,1,8,1:0:0:0:
64,64,26676,1,0,1:0:0:0:
64,64,27029,1,0,1:0:0:0:
64,64,27206,1,0,1:0:0:0:
448,320,27559,1,12,1:0:0:0:
64,64,28441,1,0,1:0:0:0:
448,64,28794,1,8,1:0:0:0:
448,64,29323,1,8,1:0:0:0:
64,64,29499,1,0,1:0:0:0:
64,64,29676,1,0,1:0:0:0:
64,64,29852,1,0,1:0:0:0:
448,64,30029,1,8,1:0:0:0:
64,64,30911,1,0,1:0:0:0:
448,64,31264,1,8,1:0:0:0:
64,64,31793,1,0,1:0:0:0:
448,64,31969,1,8,1:0:0:0:
448,64,32146,1,8,1:0:0:0:
448,320,32499,1,12,1:0:0:0:
64,64,33028,1,0,1:0:0:0:
448,64,33204,1,8,1:0:0:0:
64,64,33557,1,0,1:0:0:0:
448,64,33910,1,8,1:0:0:0:
64,64,34440,1,0,1:0:0:0:
64,64,34616,1,0,1:0:0:0:
64,64,34793,1,0,1:0:0:0:
64,64,34969,1,0,1:0:0:0:
448,320,35322,1,12,1:0:0:0:
64,64,35851,1,0,0:0:0:0:
448,64,36028,1,8,1:0:0:0:
64,64,36381,1,0,1:0:0:0:
448,64,36734,1,8,1:0:0:0:
64,64,37263,1,0,1:0:0:0:
64,64,37440,1,0,1:0:0:0:
448,64,37616,1,8,1:0:0:0:
448,64,37793,1,8,1:0:0:0:
448,320,38146,1,12,1:0:0:0:
64,64,38675,1,0,1:0:0:0:
64,64,38940,1,0,1:0:0:0:
448,64,39204,1,8,1:0:0:0:
64,64,39734,1,0,1:0:0:0:
448,64,40263,1,8,1:0:0:0:
64,64,40793,1,0,1:0:0:0:
64,64,41057,1,0,1:0:0:0:
448,64,41322,1,8,1:0:0:0:
448,64,41851,1,8,1:0:0:0:
448,64,42116,1,8,1:0:0:0:
448,320,42381,1,12,1:0:0:0:
64,64,43086,1,0,1:0:0:0:
448,64,43263,1,8,1:0:0:0:
64,64,43616,1,0,1:0:0:0:
448,320,43792,1,12,1:0:0:0:
448,64,44498,1,8,1:0:0:0:
448,64,44763,1,8,1:0:0:0:
448,64,45028,1,8,1:0:0:0:
448,320,45204,1,12,1:0:0:0:
268,114,45792,2,0,L|324:113,7,46.6666666666667
64,160,46968,1,0,0:0:0:0:
448,64,47145,1,8,1:0:0:0:
448,64,47851,1,8,1:0:0:0:
64,64,48380,1,0,1:0:0:0:
64,64,48733,1,0,1:0:0:0:
448,64,49086,1,8,1:0:0:0:
448,64,49616,1,8,1:0:0:0:
448,64,50321,1,8,1:0:0:0:
64,64,50851,1,0,1:0:0:0:
448,64,51204,1,8,1:0:0:0:
448,320,51557,1,12,1:0:0:0:
448,64,52086,1,8,1:0:0:0:
64,64,52263,1,0,1:0:0:0:
448,64,52792,1,8,1:0:0:0:
64,64,53145,1,0,1:0:0:0:
448,64,53321,1,8,1:0:0:0:
448,64,53498,1,8,1:0:0:0:
64,64,53674,1,0,1:0:0:0:
448,64,54027,1,8,1:0:0:0:
64,64,54733,1,0,1:0:0:0:
64,64,54910,1,0,1:0:0:0:
448,64,55086,1,8,1:0:0:0:
448,64,55263,1,8,1:0:0:0:
448,64,55792,1,8,1:0:0:0:
448,64,55968,1,8,1:0:0:0:
64,64,56145,1,0,1:0:0:0:
448,320,56498,1,12,1:0:0:0:
448,64,57027,1,8,1:0:0:0:
64,64,57204,1,0,1:0:0:0:
448,64,57733,1,8,1:0:0:0:
64,64,58086,1,0,1:0:0:0:
64,64,58263,1,0,1:0:0:0:
448,64,58439,1,8,1:0:0:0:
64,64,58615,1,0,1:0:0:0:
64,64,58792,1,0,1:0:0:0:
237,131,59086,2,0,L|298:110,11,46.6666666666667
64,64,60733,1,0,1:0:0:0:
64,64,60910,1,0,1:0:0:0:
64,64,61086,1,0,1:0:0:0:
448,320,61439,1,12,1:0:0:0:
448,320,61703,1,12,1:0:0:0:
448,320,61968,1,12,1:0:0:0:
448,320,62850,1,12,1:0:0:0:
448,320,63115,1,12,1:0:0:0:
64,320,63380,1,4,1:0:0:0:
448,320,64262,1,12,1:0:0:0:
64,64,64615,1,0,1:0:0:0:
448,320,64968,1,12,1:0:0:0:
64,64,65321,1,0,1:0:0:0:
448,320,65674,1,12,1:0:0:0:
64,64,66203,1,0,1:0:0:0:
248,121,67086,2,0,L|308:121,9,46.6666666666667
448,320,68497,1,12,1:0:0:0:
64,64,68849,1,0,1:0:0:0:
448,64,69202,1,8,1:0:0:0:
448,64,69555,1,8,1:0:0:0:
64,64,69732,1,0,1:0:0:0:
448,64,69908,1,8,1:0:0:0:
64,64,70261,1,0,1:0:0:0:
64,64,70614,1,0,1:0:0:0:
64,64,70791,1,0,1:0:0:0:
448,64,70967,1,8,1:0:0:0:
64,64,71320,1,0,1:0:0:0:
448,64,72026,1,8,1:0:0:0:
448,64,72379,1,8,1:0:0:0:
448,64,72908,1,8,1:0:0:0:
448,64,73261,1,8,1:0:0:0:
448,320,73438,1,12,1:0:0:0:
64,64,73791,1,0,1:0:0:0:
448,64,74144,1,8,1:0:0:0:
448,64,74497,1,8,1:0:0:0:
64,64,74673,1,0,1:0:0:0:
448,64,74849,1,8,1:0:0:0:
64,64,75202,1,0,1:0:0:0:
64,64,75555,1,0,1:0:0:0:
64,64,75732,1,0,1:0:0:0:
448,64,75908,1,8,1:0:0:0:
64,64,76261,1,0,1:0:0:0:
448,64,76967,1,8,1:0:0:0:
448,64,77320,1,8,1:0:0:0:
64,64,77673,1,0,1:0:0:0:
448,64,78379,1,8,1:0:0:0:
448,64,78732,1,8,1:0:0:0:
448,64,78908,1,8,1:0:0:0:
448,64,79085,1,8,1:0:0:0:
448,64,79438,1,8,1:0:0:0:
64,64,79614,1,0,1:0:0:0:
448,64,79791,1,8,1:0:0:0:
64,64,80144,1,0,1:0:0:0:
448,64,80408,1,8,1:0:0:0:
64,64,80673,1,0,1:0:0:0:
448,64,80849,1,8,1:0:0:0:
64,64,81202,1,0,1:0:0:0:
64,64,81555,1,0,0:0:0:0:
448,64,81732,1,8,1:0:0:0:
225,94,82085,1,0,0:0:0:0:
448,64,82261,1,8,1:0:0:0:
64,64,82614,1,0,1:0:0:0:
212,143,82791,1,0,0:0:0:0:
216,147,82967,1,0,0:0:0:0:
448,320,83320,1,12,1:0:0:0:
64,64,83673,1,0,1:0:0:0:
448,64,84379,1,8,1:0:0:0:
64,64,84555,1,0,1:0:0:0:
448,64,84732,1,8,1:0:0:0:
64,64,85085,1,0,1:0:0:0:
64,64,85438,1,0,1:0:0:0:
448,64,85614,1,8,1:0:0:0:
64,64,85791,1,0,1:0:0:0:
64,64,86144,1,0,1:0:0:0:
448,64,86320,1,8,1:0:0:0:
448,64,86496,1,8,1:0:0:0:
64,64,86849,1,0,1:0:0:0:
64,64,87202,1,0,1:0:0:0:
64,64,87555,1,0,1:0:0:0:
64,64,87732,1,0,1:0:0:0:
64,64,87908,1,0,1:0:0:0:
448,320,88261,1,12,1:0:0:0:
64,64,89143,1,0,1:0:0:0:
448,64,89319,1,8,1:0:0:0:
448,320,89672,1,12,1:0:0:0:
64,64,90202,1,0,1:0:0:0:
64,64,90555,1,0,1:0:0:0:
448,64,90731,1,8,1:0:0:0:
448,320,91084,1,12,1:0:0:0:
64,64,91437,1,0,1:0:0:0:
448,64,91790,1,8,1:0:0:0:
64,64,92143,1,0,1:0:0:0:
64,64,92496,1,0,1:0:0:0:
64,64,92672,1,0,1:0:0:0:
64,64,92849,1,0,1:0:0:0:
448,64,93202,1,8,1:0:0:0:
448,64,93555,1,8,1:0:0:0:
448,64,93908,1,12,1:0:0:0:
448,64,94613,1,8,1:0:0:0:
448,64,94878,1,8,1:0:0:0:
448,64,95143,1,8,1:0:0:0:
64,64,95319,1,0,1:0:0:0:
64,64,95672,1,0,1:0:0:0:
64,64,96025,1,0,1:0:0:0:
64,64,96378,1,0,1:0:0:0:
448,320,96731,1,12,1:0:0:0:
448,64,97084,1,8,1:0:0:0:
64,64,97261,1,0,1:0:0:0:
64,64,97437,1,0,1:0:0:0:
448,64,97613,1,8,1:0:0:0:
448,64,98143,1,8,1:0:0:0:
448,64,98849,1,8,1:0:0:0:
448,64,99202,1,8,1:0:0:0:
448,320,99555,1,12,1:0:0:0:
448,64,99908,1,8,1:0:0:0:
64,64,100437,1,0,1:0:0:0:
64,64,100966,1,0,1:0:0:0:
64,64,101496,1,0,1:0:0:0:
229,96,101672,2,0,L|305:90,4,46.6666666666667
448,320,102378,1,12,1:0:0:0:
64,64,103084,1,0,1:0:0:0:
64,64,103349,1,0,1:0:0:0:
64,64,103613,1,0,1:0:0:0:
448,64,103790,1,8,1:0:0:0:
448,64,104496,1,8,1:0:0:0:
64,64,104760,1,0,0:0:0:0:
64,64,105025,1,0,1:0:0:0:
64,64,105202,1,0,1:0:0:0:
64,64,105731,1,0,0:0:0:0:
448,64,105907,1,8,1:0:0:0:
224,96,106260,1,0,0:0:0:0:
64,64,106790,1,0,1:0:0:0:
64,64,106966,1,8,1:0:0:0:
448,320,107319,1,12,1:0:0:0:
64,64,108024,1,0,1:0:0:0:
64,64,108554,1,0,1:0:0:0:
64,64,108730,1,0,1:0:0:0:
448,64,109436,1,8,1:0:0:0:
448,64,109613,1,8,1:0:0:0:
64,64,109789,1,0,1:0:0:0:
448,320,110142,1,12,1:0:0:0:
448,64,110671,1,8,1:0:0:0:
448,64,110936,1,8,1:0:0:0:
448,64,111200,1,8,1:0:0:0:
448,64,111465,1,8,1:0:0:0:
448,64,111730,1,8,1:0:0:0:
448,320,112259,1,12,1:0:0:0:
448,64,112789,1,8,1:0:0:0:
448,64,113053,1,8,1:0:0:0:
448,64,113318,1,8,1:0:0:0:
448,64,113583,1,8,1:0:0:0:
448,64,113847,1,8,1:0:0:0:
448,320,114377,1,12,1:0:0:0:
64,64,115965,1,0,1:0:0:0:
448,64,116141,1,8,1:0:0:0:
448,64,116494,1,8,1:0:0:0:
448,64,116847,1,8,1:0:0:0:
448,64,117200,1,8,1:0:0:0:
448,64,117729,1,8,1:0:0:0:
448,64,118435,1,8,1:0:0:0:
448,64,118964,1,8,1:0:0:0:
448,64,119317,1,8,1:0:0:0:
448,64,119494,1,8,1:0:0:0:
448,320,119847,1,12,1:0:0:0:
64,64,120199,1,0,1:0:0:0:
448,64,120376,1,8,1:0:0:0:
64,64,120905,1,0,1:0:0:0:
448,64,121082,1,8,1:0:0:0:
64,64,121435,1,0,1:0:0:0:
448,64,121611,1,8,1:0:0:0:
64,64,121964,1,0,1:0:0:0:
448,64,122317,1,8,1:0:0:0:
64,64,122670,1,0,1:0:0:0:
448,64,122847,1,8,1:0:0:0:
64,64,123376,1,0,1:0:0:0:
448,64,123552,1,8,1:0:0:0:
64,64,123905,1,0,1:0:0:0:
448,64,124082,1,8,1:0:0:0:
64,64,124435,1,0,1:0:0:0:
64,64,124611,1,0,1:0:0:0:
448,320,124788,1,12,1:0:0:0:
64,64,125141,1,0,1:0:0:0:
64,64,125317,1,8,0:0:0:0:
448,64,126023,1,8,1:0:0:0:
64,64,126376,1,0,1:0:0:0:
448,64,126552,1,8,1:0:0:0:
448,64,126729,1,8,1:0:0:0:
64,64,126905,1,0,1:0:0:0:
448,64,127258,1,8,1:0:0:0:
64,64,127611,1,0,1:0:0:0:
64,64,127788,1,8,1:0:0:0:
64,64,128317,1,0,1:0:0:0:
448,64,128494,1,8,1:0:0:0:
448,64,128847,1,8,1:0:0:0:
64,64,129023,1,0,1:0:0:0:
64,64,129199,1,0,1:0:0:0:
64,64,129376,1,0,1:0:0:0:
448,320,130082,1,12,1:0:0:0:
448,320,130611,1,12,1:0:0:0:
448,320,131141,1,12,1:0:0:0:
448,320,131670,1,12,1:0:0:0:
64,320,131847,1,4,1:0:0:0:
448,320,132199,1,12,1:0:0:0:
448,64,132729,1,8,1:0:0:0:
448,64,132905,1,8,1:0:0:0:
448,64,133082,1,8,1:0:0:0:
64,64,133258,1,0,1:0:0:0:
448,64,133611,1,8,1:0:0:0:
448,64,133964,1,8,1:0:0:0:
64,64,134317,1,0,1:0:0:0:
64,64,134494,1,0,1:0:0:0:
448,320,134670,1,12,1:0:0:0:
64,64,135023,1,0,0:0:0:0:
448,64,135199,1,8,1:0:0:0:
448,64,135905,1,8,1:0:0:0:
64,64,136258,1,0,1:0:0:0:
448,64,136435,1,8,1:0:0:0:
448,64,136611,1,8,1:0:0:0:
64,64,136788,1,0,1:0:0:0:
448,64,137141,1,8,1:0:0:0:
448,64,137317,1,8,1:0:0:0:
64,64,137494,1,0,1:0:0:0:
448,64,137847,1,8,1:0:0:0:
448,64,138199,1,8,1:0:0:0:
64,64,138376,1,0,1:0:0:0:
64,64,138552,1,0,1:0:0:0:
448,64,138729,1,8,1:0:0:0:
64,64,138905,1,0,1:0:0:0:
249,115,139611,2,0,L|319:111,3,46.6666666666667
64,64,140493,1,0,1:0:0:0:
448,64,140669,1,8,1:0:0:0:
64,64,141022,1,0,1:0:0:0:
448,64,141199,1,8,1:0:0:0:
448,64,141728,1,8,1:0:0:0:
64,64,141905,1,0,1:0:0:0:
448,64,142081,1,8,1:0:0:0:
448,320,142346,1,12,1:0:0:0:
448,320,142611,1,12,1:0:0:0:
