osu file format v14

[General]
AudioFilename: audio.mp3
AudioLeadIn: 0
PreviewTime: 21912
Countdown: 0
SampleSet: Normal
StackLeniency: 0.7
Mode: 1
LetterboxInBreaks: 0
WidescreenStoryboard: 1

[Editor]
DistanceSpacing: 1
BeatDivisor: 1
GridSize: 32
TimelineZoom: 1.640003

[Metadata]
Title:Sleight of Hand
TitleUnicode:Sleight of Hand
Artist:Toromaru
ArtistUnicode:とろまる
Creator:Nurend
Version:Raph's Kantan
Source:osu!taiko World Cup 2023
Tags:twc 2023 semifinals sf nm2 no mod osu! original custom song featured artist fa jazz instrumental parasol pig retromgp cynplytholowazy cynp-zy meiqth maxie raphalge
BeatmapID:4181038
BeatmapSetID:1972518

[Difficulty]
HPDrainRate:8
CircleSize:5
OverallDifficulty:3
ApproachRate:5
SliderMultiplier:1.4
SliderTickRate:3

[Events]
//Background and Video events
0,0,"bob.png",0,0
//Break Periods
//Storyboard Layer 0 (Background)
//Storyboard Layer 1 (Fail)
//Storyboard Layer 2 (Pass)
//Storyboard Layer 3 (Foreground)
//Storyboard Layer 4 (Overlay)
//Storyboard Sound Samples

[TimingPoints]
1443,352.941176470588,7,1,0,80,1,0
6384,-100,7,1,0,90,0,1
13795,352.941176470588,9,1,0,90,1,1
16971,352.941176470588,4,1,0,80,1,0
18206,352.941176470588,4,1,0,80,1,0
19441,352.941176470588,4,1,0,80,1,0
20676,352.941176470588,4,1,0,80,1,0
21912,352.941176470588,4,1,0,90,1,1
27559,-100,4,1,0,90,0,0
28794,352.941176470588,4,1,0,80,1,0
30029,352.941176470588,4,1,0,80,1,0
31264,352.941176470588,4,1,0,80,1,0
32499,352.941176470588,4,1,0,90,1,1
38146,352.941176470588,3,1,0,80,1,0
42381,352.941176470588,4,1,0,80,1,0
46616,352.941176470588,7,1,0,80,1,0
61439,352.941176470588,4,1,0,80,1,0
68497,352.941176470588,7,1,0,80,1,0
88261,352.941176470588,4,1,0,80,1,0
105202,352.941176470588,3,1,0,80,1,0
107319,352.941176470588,4,1,0,80,1,0
110142,352.941176470588,3,1,0,80,1,0
114377,352.941176470588,4,1,0,80,1,0
117200,352.941176470588,7,1,0,80,1,0
119670,352.941176470588,7,1,0,80,1,8
119847,352.941176470588,7,1,0,90,1,1
129729,-100,7,1,0,80,0,0
132199,-100,7,1,0,90,0,1
139611,352.941176470588,6,1,0,90,1,1
142611,-100,6,1,0,80,0,0

[HitObjects]
448,64,1443,5,8,0:0:0:0:
448,64,1972,1,8,0:0:0:0:
216,163,2678,1,8,0:0:0:0:
448,64,3913,1,8,0:0:0:0:
448,64,4442,1,8,0:0:0:0:
288,220,5148,1,8,0:0:0:0:
351,214,6384,1,12,0:0:0:0:
280,232,6913,1,0,0:0:0:0:
347,213,7619,1,0,0:0:0:0:
302,222,8854,1,8,0:0:0:0:
302,222,9384,1,0,0:0:0:0:
302,222,10090,1,0,0:0:0:0:
302,222,11325,1,12,0:0:0:0:
302,222,11854,1,0,0:0:0:0:
302,222,12560,1,0,0:0:0:0:
278,246,13795,1,8,0:0:0:0:
278,246,14324,1,0,0:0:0:0:
342,257,15030,1,0,0:0:0:0:
429,263,15559,1,8,0:0:0:0:
294,256,16971,1,12,0:0:0:0:
338,253,17500,1,0,0:0:0:0:
320,273,18206,1,8,0:0:0:0:
338,253,18735,1,0,0:0:0:0:
338,253,19441,1,0,0:0:0:0:
306,217,19970,1,8,0:0:0:0:
306,217,20676,1,8,0:0:0:0:
281,202,21205,1,0,0:0:0:0:
448,320,21912,1,12,0:0:0:0:
380,249,23323,1,8,0:0:0:0:
380,249,24029,1,0,0:0:0:0:
380,249,24735,1,12,0:0:0:0:
328,265,26147,1,8,0:0:0:0:
328,265,26853,1,0,0:0:0:0:
311,257,27559,1,12,0:0:0:0:
306,270,28088,1,0,0:0:0:0:
295,241,28794,1,8,0:0:0:0:
317,253,29323,1,0,0:0:0:0:
317,253,30029,1,0,0:0:0:0:
241,171,30558,1,8,0:0:0:0:
314,223,31264,1,8,0:0:0:0:
298,219,31793,1,0,0:0:0:0:
291,193,32499,1,12,0:0:0:0:
280,236,33910,1,8,0:0:0:0:
280,236,34616,1,0,0:0:0:0:
280,236,35322,1,12,0:0:0:0:
280,236,36734,1,8,0:0:0:0:
280,236,37440,1,0,0:0:0:0:
280,236,38146,1,12,0:0:0:0:
271,249,39204,1,8,0:0:0:0:
327,172,39734,1,0,0:0:0:0:
271,249,40263,1,8,0:0:0:0:
271,249,41322,1,8,0:0:0:0:
277,272,41851,1,8,0:0:0:0:
271,249,42381,1,4,0:0:0:0:
64,64,43086,1,0,0:0:0:0:
261,233,43792,1,8,0:0:0:0:
64,64,44498,1,0,0:0:0:0:
261,233,45204,1,12,0:0:0:0:
448,64,46616,1,8,0:0:0:0:
448,64,47145,1,8,0:0:0:0:
366,286,47851,1,8,0:0:0:0:
448,64,49086,1,8,0:0:0:0:
448,64,49615,1,8,0:0:0:0:
297,267,50321,1,8,0:0:0:0:
297,267,51557,1,12,0:0:0:0:
281,238,52086,1,0,0:0:0:0:
297,267,52616,1,0,0:0:0:0:
240,163,52968,1,8,0:0:0:0:
261,276,53498,1,8,0:0:0:0:
325,286,54027,1,0,0:0:0:0:
256,192,54733,1,0,0:0:0:0:
277,143,55792,1,0,0:0:0:0:
277,143,56145,1,0,0:0:0:0:
277,143,56498,1,12,0:0:0:0:
301,240,57027,1,0,0:0:0:0:
268,130,57557,1,0,0:0:0:0:
268,130,57910,1,8,0:0:0:0:
315,262,58439,1,8,0:0:0:0:
307,244,58968,1,0,0:0:0:0:
256,192,59674,1,0,0:0:0:0:
228,206,60733,1,0,0:0:0:0:
228,206,61086,1,0,0:0:0:0:
228,206,61439,1,12,0:0:0:0:
228,206,61968,1,12,0:0:0:0:
281,276,62497,1,0,0:0:0:0:
281,276,62850,1,12,0:0:0:0:
281,276,63380,1,12,0:0:0:0:
281,276,63909,1,0,0:0:0:0:
281,276,64262,1,12,0:0:0:0:
281,276,64968,1,12,0:0:0:0:
256,192,65674,12,0,68144,0:0:0:0:
273,273,68497,5,12,0:0:0:0:
448,64,69202,1,8,0:0:0:0:
448,64,69555,1,8,0:0:0:0:
448,64,70085,1,8,0:0:0:0:
64,64,70614,1,0,0:0:0:0:
448,64,70967,1,8,0:0:0:0:
305,271,71673,1,8,0:0:0:0:
448,64,72379,1,8,0:0:0:0:
448,320,73438,1,12,0:0:0:0:
448,64,74144,1,8,0:0:0:0:
448,64,74496,1,8,0:0:0:0:
448,64,75026,1,8,0:0:0:0:
64,64,75555,1,0,0:0:0:0:
448,64,75908,1,8,0:0:0:0:
448,64,76614,1,8,0:0:0:0:
448,64,77320,1,8,0:0:0:0:
64,64,78379,1,0,0:0:0:0:
448,64,79085,1,8,0:0:0:0:
256,224,79438,1,0,0:0:0:0:
256,192,79967,1,0,0:0:0:0:
448,64,80497,1,8,0:0:0:0:
64,64,80849,1,0,0:0:0:0:
256,224,81555,1,0,0:0:0:0:
448,64,82261,1,8,0:0:0:0:
292,146,82614,1,0,0:0:0:0:
352,256,82967,1,0,0:0:0:0:
273,118,83320,1,12,0:0:0:0:
448,64,84026,1,8,0:0:0:0:
64,64,84379,1,0,0:0:0:0:
448,64,84732,1,8,0:0:0:0:
256,192,85438,1,8,0:0:0:0:
448,64,85791,1,0,0:0:0:0:
448,64,86496,1,8,0:0:0:0:
448,64,86849,1,8,0:0:0:0:
64,64,87202,1,0,0:0:0:0:
448,320,88261,1,12,0:0:0:0:
256,256,88790,1,0,0:0:0:0:
448,64,89143,1,8,0:0:0:0:
256,64,89672,1,8,0:0:0:0:
256,256,90202,1,0,0:0:0:0:
448,64,90555,1,8,0:0:0:0:
448,320,91084,1,12,0:0:0:0:
448,320,93378,1,12,0:0:0:0:
448,320,93643,1,12,0:0:0:0:
448,320,93908,1,12,0:0:0:0:
448,320,96731,1,12,0:0:0:0:
448,320,99025,1,12,0:0:0:0:
448,320,99290,1,12,0:0:0:0:
448,320,99555,1,12,0:0:0:0:
37,178,101672,6,0,L|93:163,4,35
448,320,102378,1,12,0:0:0:0:
64,64,103084,1,0,0:0:0:0:
448,64,103790,1,8,0:0:0:0:
448,64,104496,1,8,0:0:0:0:
64,64,105202,1,0,0:0:0:0:
448,64,105731,1,8,0:0:0:0:
64,64,106260,1,0,0:0:0:0:
448,64,106790,1,8,0:0:0:0:
448,320,107319,1,12,0:0:0:0:
64,64,108024,1,0,0:0:0:0:
64,64,108730,1,0,0:0:0:0:
448,64,109436,1,8,0:0:0:0:
448,320,110142,1,12,0:0:0:0:
256,192,110494,12,0,114024,0:0:0:0:
448,320,114377,5,12,0:0:0:0:
256,128,115788,1,8,0:0:0:0:
256,128,116141,1,8,0:0:0:0:
256,128,116494,1,8,0:0:0:0:
256,128,116847,1,8,0:0:0:0:
448,64,117200,1,8,0:0:0:0:
448,64,117729,1,8,0:0:0:0:
448,64,118435,1,8,0:0:0:0:
448,320,119847,1,12,0:0:0:0:
64,64,120376,1,0,0:0:0:0:
448,64,120729,1,8,0:0:0:0:
64,64,121082,1,0,0:0:0:0:
281,216,121611,1,0,0:0:0:0:
448,64,122317,1,8,0:0:0:0:
64,64,122847,1,0,0:0:0:0:
448,64,123199,1,8,0:0:0:0:
64,64,123552,1,0,0:0:0:0:
448,320,124788,1,12,0:0:0:0:
64,64,125317,1,0,0:0:0:0:
448,64,125670,1,8,0:0:0:0:
64,64,126023,1,0,0:0:0:0:
64,64,126552,1,0,0:0:0:0:
448,64,127258,1,8,0:0:0:0:
64,64,127788,1,0,0:0:0:0:
448,64,128141,1,8,0:0:0:0:
64,64,128494,1,0,0:0:0:0:
448,320,130082,1,12,0:0:0:0:
448,320,130611,1,12,0:0:0:0:
448,320,131141,1,12,0:0:0:0:
448,320,131670,1,12,0:0:0:0:
448,320,132199,1,12,0:0:0:0:
64,64,132729,1,0,0:0:0:0:
448,64,133082,1,0,0:0:0:0:
448,64,133435,1,8,0:0:0:0:
217,208,133964,1,0,0:0:0:0:
448,320,134670,1,12,0:0:0:0:
64,64,135199,1,0,0:0:0:0:
448,64,135552,1,0,0:0:0:0:
448,64,135905,1,8,0:0:0:0:
448,320,137141,1,12,0:0:0:0:
64,64,137670,1,0,0:0:0:0:
448,64,138023,1,0,0:0:0:0:
448,64,138376,1,8,0:0:0:0:
64,64,138905,1,0,0:0:0:0:
448,64,140316,1,8,0:0:0:0:
448,64,140846,1,8,0:0:0:0:
448,64,141375,1,8,0:0:0:0:
448,320,142346,1,12,0:0:0:0:
