osu file format v14

[General]
AudioFilename: audio.mp3
AudioLeadIn: 0
PreviewTime: 21912
Countdown: 0
SampleSet: Normal
StackLeniency: 0.7
Mode: 1
LetterboxInBreaks: 0
WidescreenStoryboard: 1

[Editor]
DistanceSpacing: 1
BeatDivisor: 12
GridSize: 32
TimelineZoom: 3.900004

[Metadata]
Title:Sleight of Hand
TitleUnicode:Sleight of Hand
Artist:Toromaru
ArtistUnicode:とろまる
Creator:Nurend
Version:Disruption
Source:osu!taiko World Cup 2023
Tags:twc 2023 semifinals sf nm2 no mod osu! original custom song featured artist fa jazz instrumental parasol pig retromgp cynplytholowazy cynp-zy meiqth maxie raphalge
BeatmapID:4093075
BeatmapSetID:1972518

[Difficulty]
HPDrainRate:4
CircleSize:5
OverallDifficulty:7
ApproachRate:5
SliderMultiplier:1.4
SliderTickRate:3

[Events]
//Background and Video events
0,0,"bob.png",0,0
//Break Periods
//Storyboard Layer 0 (Background)
//Storyboard Layer 1 (Fail)
//Storyboard Layer 2 (Pass)
//Storyboard Layer 3 (Foreground)
//Storyboard Layer 4 (Overlay)
//Storyboard Sound Samples

[TimingPoints]
1443,352.941176470588,7,1,0,80,1,0
1443,-76.9230769230769,7,1,0,80,0,0
6384,-71.4285714285714,7,1,0,90,0,1
13795,352.941176470588,9,1,0,90,1,1
13795,-71.4285714285714,9,1,0,90,0,1
16203,-69.2408376963351,9,1,0,90,0,1
16262,-68.1876772364011,9,1,0,90,0,1
16321,-67.1660741493144,9,1,0,90,0,1
16380,-66.1746309732299,9,1,0,90,0,1
16439,-65.2120315581854,9,1,0,90,0,1
16497,-64.2926592124453,9,1,0,90,0,1
16556,-63.3836568416008,9,1,0,90,0,1
16615,-62.5,9,1,0,90,0,1
16971,352.941176470588,4,1,0,80,1,0
16971,-80,4,1,0,80,0,0
18206,352.941176470588,4,1,0,80,1,0
18206,-80,4,1,0,80,0,0
19441,352.941176470588,4,1,0,80,1,0
19441,-80,4,1,0,80,0,0
20676,352.941176470588,4,1,0,80,1,0
20676,-80,4,1,0,80,0,0
21912,352.941176470588,4,1,0,90,1,1
21912,-76.9230769230769,4,1,0,90,0,1
21997,-76.6291289117911,4,1,0,90,0,1
22195,-75.9758897818599,4,1,0,90,0,1
22350,-75.4722360824007,4,1,0,90,0,1
22438,-75.1892513741141,4,1,0,90,0,1
22526,-74.9083808526594,4,1,0,90,0,1
22614,-74.6296009134866,4,1,0,90,0,1
22703,-74.3497556317061,4,1,0,90,0,1
22909,-73.710005290858,4,1,0,90,0,1
22967,-73.5318628812712,4,1,0,90,0,1
23085,-73.1720801658604,4,1,0,90,0,1
23144,-72.9935058667807,4,1,0,90,0,1
23320,-72.4659503114092,4,1,0,90,0,1
23409,-72.2020675922643,4,1,0,90,0,1
23607,-71.6218410087126,4,1,0,90,0,1
23761,-71.1769609293071,4,1,0,90,0,1
23850,-70.9223658650948,4,1,0,90,0,1
23938,-70.6724158645824,4,1,0,90,0,1
24026,-70.4242214624932,4,1,0,90,0,1
24114,-70.1777642271034,4,1,0,90,0,1
24181,-69.9912742272403,4,1,0,90,0,1
24320,-69.6075208730524,4,1,0,90,0,1
24379,-69.445901983419,4,1,0,90,0,1
24497,-69.1249053351788,4,1,0,90,0,1
24556,-68.9655172413793,4,1,0,90,0,1
24735,-76.9230769230769,4,1,0,90,0,1
24820,-76.6291289117911,4,1,0,90,0,1
25018,-75.9758897818599,4,1,0,90,0,1
25173,-75.4722360824007,4,1,0,90,0,1
25261,-75.1892513741141,4,1,0,90,0,1
25349,-74.9083808526594,4,1,0,90,0,1
25437,-74.6296009134866,4,1,0,90,0,1
25526,-74.3497556317061,4,1,0,90,0,1
25732,-73.710005290858,4,1,0,90,0,1
25790,-73.5318628812712,4,1,0,90,0,1
25908,-73.1720801658604,4,1,0,90,0,1
25967,-72.9935058667807,4,1,0,90,0,1
26143,-72.4659503114092,4,1,0,90,0,1
26232,-72.2020675922643,4,1,0,90,0,1
26430,-71.6218410087126,4,1,0,90,0,1
26584,-71.1769609293071,4,1,0,90,0,1
26673,-70.9223658650948,4,1,0,90,0,1
26761,-70.6724158645824,4,1,0,90,0,1
26849,-70.4242214624932,4,1,0,90,0,1
26937,-70.1777642271034,4,1,0,90,0,1
27004,-69.9912742272403,4,1,0,90,0,1
27143,-69.6075208730524,4,1,0,90,0,1
27202,-69.445901983419,4,1,0,90,0,1
27320,-69.1249053351788,4,1,0,90,0,1
27379,-68.9655172413793,4,1,0,90,0,1
27559,-83.3333333333333,4,1,0,80,0,0
28794,352.941176470588,4,1,0,80,1,0
28794,-83.3333333333333,4,1,0,80,0,0
30029,352.941176470588,4,1,0,80,1,0
30029,-83.3333333333333,4,1,0,80,0,0
31264,352.941176470588,4,1,0,80,1,0
31264,-83.3333333333333,4,1,0,80,0,0
32499,352.941176470588,4,1,0,90,1,1
32499,-76.9230769230769,4,1,0,90,0,1
32584,-76.6291289117911,4,1,0,90,0,1
32782,-75.9758897818599,4,1,0,90,0,1
32937,-75.4722360824007,4,1,0,90,0,1
33025,-75.1892513741141,4,1,0,90,0,1
33113,-74.9083808526594,4,1,0,90,0,1
33201,-74.6296009134866,4,1,0,90,0,1
33290,-74.3497556317061,4,1,0,90,0,1
33496,-73.710005290858,4,1,0,90,0,1
33554,-73.5318628812712,4,1,0,90,0,1
33672,-73.1720801658604,4,1,0,90,0,1
33731,-72.9935058667807,4,1,0,90,0,1
33907,-72.4659503114092,4,1,0,90,0,1
33996,-72.2020675922643,4,1,0,90,0,1
34194,-71.6218410087126,4,1,0,90,0,1
34348,-71.1769609293071,4,1,0,90,0,1
34437,-70.9223658650948,4,1,0,90,0,1
34525,-70.6724158645824,4,1,0,90,0,1
34613,-70.4242214624932,4,1,0,90,0,1
34701,-70.1777642271034,4,1,0,90,0,1
34768,-69.9912742272403,4,1,0,90,0,1
34907,-69.6075208730524,4,1,0,90,0,1
34966,-69.445901983419,4,1,0,90,0,1
35084,-69.1249053351788,4,1,0,90,0,1
35143,-68.9655172413793,4,1,0,90,0,1
35322,-76.9230769230769,4,1,0,90,0,1
35407,-76.6291289117911,4,1,0,90,0,1
35605,-75.9758897818599,4,1,0,90,0,1
35760,-75.4722360824007,4,1,0,90,0,1
35848,-75.1892513741141,4,1,0,90,0,1
35936,-74.9083808526594,4,1,0,90,0,1
36024,-74.6296009134866,4,1,0,90,0,1
36113,-74.3497556317061,4,1,0,90,0,1
36319,-73.710005290858,4,1,0,90,0,1
36377,-73.5318628812712,4,1,0,90,0,1
36495,-73.1720801658604,4,1,0,90,0,1
36554,-72.9935058667807,4,1,0,90,0,1
36730,-72.4659503114092,4,1,0,90,0,1
36819,-72.2020675922643,4,1,0,90,0,1
37017,-71.6218410087126,4,1,0,90,0,1
37171,-71.1769609293071,4,1,0,90,0,1
37260,-70.9223658650948,4,1,0,90,0,1
37348,-70.6724158645824,4,1,0,90,0,1
37436,-70.4242214624932,4,1,0,90,0,1
37524,-70.1777642271034,4,1,0,90,0,1
37591,-69.9912742272403,4,1,0,90,0,1
37730,-69.6075208730524,4,1,0,90,0,1
37789,-69.445901983419,4,1,0,90,0,1
37907,-69.1249053351788,4,1,0,90,0,1
37966,-68.9655172413793,4,1,0,90,0,1
38146,352.941176470588,3,1,0,80,1,0
38146,-83.3333333333333,3,1,0,80,0,0
42381,352.941176470588,4,1,0,80,1,0
42381,-80,4,1,0,80,0,0
46616,352.941176470588,7,1,0,80,1,0
46616,-80,7,1,0,80,0,0
51468,-76.9230769230769,7,1,0,80,0,0
61380,-74.0740740740741,7,1,0,80,0,0
61439,352.941176470588,4,1,0,80,1,0
61439,-74.0740740740741,4,1,0,80,0,0
64200,-72.9981378026071,4,1,0,80,0,0
64259,-72.4673403993098,4,1,0,80,0,0
64436,-70.9202749969847,4,1,0,80,0,0
64494,-70.4275961192957,4,1,0,80,0,0
64553,-69.9333967649857,4,1,0,80,0,0
64612,-69.446084799811,4,1,0,80,0,0
64730,-68.4915550378567,4,1,0,80,0,0
64788,-68.0319333564734,4,1,0,80,0,0
64847,-67.5706734084119,4,1,0,80,0,0
64906,-67.1156260700833,4,1,0,80,0,0
64965,-66.6666666666667,4,1,0,80,0,0
65141,-74.0740740740741,4,1,0,80,0,0
65200,-73.1690481121005,4,1,0,80,0,0
65259,-72.2858701582106,4,1,0,80,0,0
65318,-71.4237585068392,4,1,0,80,0,0
65436,-69.7597894044093,4,1,0,80,0,0
65494,-68.9700045546229,4,1,0,80,0,0
65553,-68.1847420558343,4,1,0,80,0,0
65612,-67.4171595751447,4,1,0,80,0,0
65671,-66.6666666666667,4,1,0,80,0,0
65759,-66.8054996805263,4,1,0,80,0,0
65847,-66.9449121392492,4,1,0,80,0,0
65965,-67.1327673539274,4,1,0,80,0,0
66024,-67.2270908744523,4,1,0,80,0,0
66141,-67.4149253731343,4,1,0,80,0,0
66200,-67.5100440022958,4,1,0,80,0,0
66318,-67.7010887812365,4,1,0,80,0,0
66377,-67.7970172194337,4,1,0,80,0,0
66494,-67.9880545253119,4,1,0,80,0,0
66553,-68.0847984950438,4,1,0,80,0,0
66671,-68.2791147659935,4,1,0,80,0,0
66730,-68.3766894346752,4,1,0,80,0,0
66847,-68.5710121693507,4,1,0,80,0,0
66906,-68.6694234979324,4,1,0,80,0,0
67024,-68.8670960187354,4,1,0,80,0,0
67083,-68.9663596609093,4,1,0,80,0,0
67171,-69.1149467499082,4,1,0,80,0,0
67259,-69.2641754790588,4,1,0,80,0,0
67377,-69.4652919609242,4,1,0,80,0,0
67436,-69.5662888122228,4,1,0,80,0,0
67553,-69.7674418604651,4,1,0,80,0,0
67612,-69.8693198693199,4,1,0,80,0,0
67730,-70.0739711065879,4,1,0,80,0,0
67788,-70.1750024858308,4,1,0,80,0,0
67906,-70.3814510097233,4,1,0,80,0,0
67965,-70.4851314573918,4,1,0,80,0,0
68083,-70.6934114642025,4,1,0,80,0,0
68141,-70.7962382445141,4,1,0,80,0,0
68259,-71.0063636592298,4,1,0,80,0,0
68318,-71.1118948057837,4,1,0,80,0,0
68436,-71.3239009600809,4,1,0,80,0,0
68497,352.941176470588,7,1,0,80,1,0
68497,-71.4285714285714,7,1,0,80,0,0
78729,-70.9219858156028,7,1,0,80,0,0
78788,-69.3598459543365,7,1,0,80,0,0
78846,-67.8898376798215,7,1,0,80,0,0
78905,-66.4570664758928,7,1,0,80,0,0
78964,-65.0835207787898,7,1,0,80,0,0
79023,-63.765602702361,7,1,0,80,0,0
79082,-62.5,7,1,0,80,0,0
79317,-65.213375207833,7,1,0,80,0,0
79376,-65.9320134478894,7,1,0,80,0,0
79435,-66.6666666666667,7,1,0,80,0,0
79552,-68.1730397837003,7,1,0,80,0,0
79611,-68.9587810119164,7,1,0,80,0,0
79729,-70.5858828234353,7,1,0,80,0,0
79788,-71.4285714285714,7,1,0,80,0,0
79964,-68.1876772364011,7,1,0,80,0,0
80023,-67.1660741493144,7,1,0,80,0,0
80082,-66.1746309732299,7,1,0,80,0,0
80141,-65.2120315581854,7,1,0,80,0,0
80199,-64.2926592124453,7,1,0,80,0,0
80258,-63.3836568416008,7,1,0,80,0,0
80317,-62.5,7,1,0,80,0,0
80846,-63.8259402121504,7,1,0,80,0,0
80964,-64.7468818782098,7,1,0,80,0,0
81067,-65.5727554179567,7,1,0,80,0,0
81199,-66.6624700994586,7,1,0,80,0,0
81317,-67.667731629393,7,1,0,80,0,0
81420,-68.5703185703186,7,1,0,80,0,0
81552,-69.7628458498024,7,1,0,80,0,0
81729,-71.4285714285714,7,1,0,80,0,0
82023,-67.4178762414057,7,1,0,80,0,0
82082,-66.6666666666667,7,1,0,80,0,0
82199,-65.2254249815226,7,1,0,80,0,0
82258,-64.5220252239079,7,1,0,80,0,0
82435,-62.5,7,1,0,80,0,0
82611,-71.4285714285714,7,1,0,80,0,0
82729,-68.9604685212299,7,1,0,80,0,0
82788,-67.7892918825561,7,1,0,80,0,0
82905,-65.5806182121972,7,1,0,80,0,0
83082,-62.5,7,1,0,80,0,0
83258,-64.0988372093023,7,1,0,80,0,0
83317,-64.6532766456531,7,1,0,80,0,0
83405,-65.4982919946532,7,1,0,80,0,0
83493,-66.3656884875846,7,1,0,80,0,0
83611,-67.5654971656197,7,1,0,80,0,0
83670,-68.1818181818182,7,1,0,80,0,0
83788,-69.4488188976378,7,1,0,80,0,0
83846,-70.0890019071837,7,1,0,80,0,0
83964,-71.4285714285714,7,1,0,80,0,0
84317,-70.1754385964912,7,1,0,80,0,0
84376,-68.9655172413793,7,1,0,80,0,0
84670,-67.7966101694915,7,1,0,80,0,0
84729,-66.6666666666667,7,1,0,80,0,0
84846,-65.2254249815226,7,1,0,80,0,0
84905,-64.5220252239079,7,1,0,80,0,0
84964,-63.8336347197107,7,1,0,80,0,0
85023,-63.1597781356235,7,1,0,80,0,0
85082,-62.5,7,1,0,80,0,0
85141,-61.8538636761871,7,1,0,80,0,0
85199,-61.2315698178664,7,1,0,80,0,0
85258,-60.6112637362637,7,1,0,80,0,0
85317,-60.0033996260411,7,1,0,80,0,0
85376,-59.407606866375,7,1,0,80,0,0
85435,-58.8235294117647,7,1,0,80,0,0
85905,-60.4990999258763,7,1,0,80,0,0
85964,-60.8794487461817,7,1,0,80,0,0
86082,-61.6546762589928,7,1,0,80,0,0
86317,-63.2589038568002,7,1,0,80,0,0
86435,-64.0963314760106,7,1,0,80,0,0
86493,-64.5161290322581,7,1,0,80,0,0
86788,-65.8474596031431,7,1,0,80,0,0
86846,-66.1157024793389,7,1,0,80,0,0
86964,-66.6682405155929,7,1,0,80,0,0
87141,-67.5145835325619,7,1,0,80,0,0
87199,-67.7966101694915,7,1,0,80,0,0
87317,-68.3777239709443,7,1,0,80,0,0
87376,-68.6720326824405,7,1,0,80,0,0
87552,-69.5652173913043,7,1,0,80,0,0
87670,-70.1771824755846,7,1,0,80,0,0
87729,-70.4872204472843,7,1,0,80,0,0
87846,-71.1102157983532,7,1,0,80,0,0
87905,-71.4285714285714,7,1,0,80,0,0
88261,352.941176470588,4,1,0,80,1,0
88261,-70.3121540845694,4,1,0,80,0,0
88375,-69.9497841599859,4,1,0,80,0,0
88434,-69.7684636000176,4,1,0,80,0,0
88552,-69.4086279994755,4,1,0,80,0,0
88610,-69.2331167981863,4,1,0,80,0,0
88787,-68.7029505927144,4,1,0,80,0,0
88905,-68.3539944903581,4,1,0,80,0,0
89140,-67.6694933310606,4,1,0,80,0,0
89258,-67.3309306762773,4,1,0,80,0,0
89316,-67.1657573066024,4,1,0,80,0,0
89434,-66.8322040318168,4,1,0,80,0,0
89493,-66.6666666666667,4,1,0,80,0,0
89669,-66.1776962827138,4,1,0,80,0,0
89787,-65.8538608277349,4,1,0,80,0,0
89846,-65.6931286973069,4,1,0,80,0,0
89963,-65.3766982297242,4,1,0,80,0,0
90022,-65.2182841184443,4,1,0,80,0,0
90199,-64.7476147761559,4,1,0,80,0,0
90316,-64.4402061437325,4,1,0,80,0,0
90552,-63.8289320310302,4,1,0,80,0,0
90669,-63.5301648263722,4,1,0,80,0,0
90728,-63.3805627619238,4,1,0,80,0,0
90846,-63.0834624399158,4,1,0,80,0,0
90905,-62.9359543436905,4,1,0,80,0,0
91081,-62.5,4,1,0,80,0,0
91434,-71.4285714285714,4,1,0,80,0,0
91610,-69.2090395480226,4,1,0,80,0,0
91669,-68.4955442949502,4,1,0,80,0,0
91728,-67.7966101694915,4,1,0,80,0,0
91787,-67.1117959253553,4,1,0,80,0,0
91905,-65.7828494713878,4,1,0,80,0,0
92022,-64.5161290322581,4,1,0,80,0,0
92140,-66.1191829858918,4,1,0,80,0,0
92258,-67.8039300367091,4,1,0,80,0,0
92316,-68.66389678548,4,1,0,80,0,0
92434,-70.4826038159372,4,1,0,80,0,0
92493,-71.4285714285714,4,1,0,80,0,0
92669,-67.8063772570111,4,1,0,80,0,0
92728,-66.6729625082633,4,1,0,80,0,0
92787,-65.5768159019134,4,1,0,80,0,0
92846,-64.5161290322581,4,1,0,80,0,0
93022,-65.5707253645398,4,1,0,80,0,0
93140,-66.2973049112593,4,1,0,80,0,0
93199,-66.6666666666667,4,1,0,80,0,0
93316,-67.4114389382221,4,1,0,80,0,0
93375,-67.7933550989053,4,1,0,80,0,0
93434,-68.1796233703525,4,1,0,80,0,0
93493,-68.5703185703186,4,1,0,80,0,0
93552,-68.9655172413793,4,1,0,80,0,0
93669,-69.7628458498024,4,1,0,80,0,0
93728,-70.1719510983004,4,1,0,80,0,0
93905,-71.4285714285714,4,1,0,80,0,0
94493,-68.0166950069563,4,1,0,80,0,0
94552,-66.2052362323202,4,1,0,80,0,0
94610,-64.5161290322581,4,1,0,80,0,0
94768,-71.4285714285714,4,1,0,80,0,0
94787,-67.9177837354781,4,1,0,80,0,0
94846,-66.173269481933,4,1,0,80,0,0
94905,-64.5161290322581,4,1,0,80,0,0
95316,-66.6624661331989,4,1,0,80,0,0
95434,-68.1832828510666,4,1,0,80,0,0
95493,-68.9700130378097,4,1,0,80,0,0
95552,-69.7751104662666,4,1,0,80,0,0
95610,-70.5850957368737,4,1,0,80,0,0
95669,-71.4285714285714,4,1,0,80,0,0
95846,-68.9587810119164,4,1,0,80,0,0
95905,-68.1730397837003,4,1,0,80,0,0
95963,-67.4178762414057,4,1,0,80,0,0
96022,-66.6666666666667,4,1,0,80,0,0
96140,-65.213375207833,4,1,0,80,0,0
96258,-63.8220936539505,4,1,0,80,0,0
96375,-62.5,4,1,0,80,0,0
96493,-61.22095039889,4,1,0,80,0,0
96552,-60.6008583690987,4,1,0,80,0,0
96610,-60.0033996260411,4,1,0,80,0,0
96669,-59.407606866375,4,1,0,80,0,0
96728,-58.8235294117647,4,1,0,80,0,0
97258,-61.7387652246955,4,1,0,80,0,0
97316,-62.5,4,1,0,80,0,0
97375,-63.2938643702906,4,1,0,80,0,0
97434,-64.1081552551243,4,1,0,80,0,0
97493,-64.9436713055003,4,1,0,80,0,0
97552,-65.8012533572068,4,1,0,80,0,0
97610,-66.6666666666667,4,1,0,80,0,0
97905,-68.857938718663,4,1,0,80,0,0
97963,-69.3058203431647,4,1,0,80,0,0
98140,-70.7093821510297,4,1,0,80,0,0
98258,-71.6771050800278,4,1,0,80,0,0
98375,-72.663139329806,4,1,0,80,0,0
98434,-73.1707317073171,4,1,0,80,0,0
98493,-73.6854656015262,4,1,0,80,0,0
98610,-74.7279322853688,4,1,0,80,0,0
98728,-75.8096172718351,4,1,0,80,0,0
98846,-76.9230769230769,4,1,0,80,0,0
99022,-72.7385122604574,4,1,0,80,0,0
99081,-71.4357988465041,4,1,0,80,0,0
99140,-70.1789264413519,4,1,0,80,0,0
99199,-68.9655172413793,4,1,0,80,0,0
99316,-66.6792595391009,4,1,0,80,0,0
99375,-65.5829075708314,4,1,0,80,0,0
99434,-64.5220252239079,4,1,0,80,0,0
99493,-63.4949186077885,4,1,0,80,0,0
99552,-62.5,4,1,0,80,0,0
99709,-69.7674580854554,4,1,0,80,0,0
99819,-68.1818491735678,4,1,0,80,0,0
99886,-66.6671111140741,4,1,0,80,0,0
100081,-66.6750693219057,4,1,0,80,0,0
100140,-65.2200715078289,4,1,0,80,0,0
100199,-63.8272200772201,4,1,0,80,0,0
100258,-62.4926166568222,4,1,0,80,0,0
100375,-60.0045372050817,4,1,0,80,0,0
100434,-58.8235294117647,4,1,0,80,0,0
100547,-71.4285714285714,4,1,0,80,0,0
100591,-66.6750693219057,4,1,0,80,0,0
100650,-65.2200715078289,4,1,0,80,0,0
100709,-63.8272200772201,4,1,0,80,0,0
100768,-62.4926166568222,4,1,0,80,0,0
100885,-60.0045372050817,4,1,0,80,0,0
100944,-58.8235294117647,4,1,0,80,0,0
101057,-71.4285714285714,4,1,0,80,0,0
101121,-66.6750693219057,4,1,0,80,0,0
101180,-65.2200715078289,4,1,0,80,0,0
101239,-63.8272200772201,4,1,0,80,0,0
101298,-62.4926166568222,4,1,0,80,0,0
101415,-60.0045372050817,4,1,0,80,0,0
101474,-58.8235294117647,4,1,0,80,0,0
101610,-60.2335586969883,4,1,0,80,0,0
101669,-60.9705516383243,4,1,0,80,0,0
101728,-61.725803065295,4,1,0,80,0,0
101787,-62.5,4,1,0,80,0,0
101846,-63.2938643702906,4,1,0,80,0,0
101905,-64.1081552551243,4,1,0,80,0,0
101963,-64.9293286219081,4,1,0,80,0,0
102022,-65.7865294249273,4,1,0,80,0,0
102081,-66.6666666666667,4,1,0,80,0,0
102140,-67.5706734084119,4,1,0,80,0,0
102199,-68.4995340167754,4,1,0,80,0,0
102257,-69.4378837978271,4,1,0,80,0,0
102316,-70.4191616766467,4,1,0,80,0,0
102375,-71.4285714285714,4,1,0,80,0,0
103062,-71.4285714285714,4,1,0,80,0,0
103349,-68.9655172413793,4,1,0,80,0,0
103591,-66.6666666666667,4,1,0,80,0,0
103768,-62.5,4,1,0,80,0,0
103856,-71.4285714285714,4,1,0,80,0,0
104760,-68.9655172413793,4,1,0,80,0,0
104937,-66.6666666666667,4,1,0,80,0,0
105003,-64.5161290322581,4,1,0,80,0,0
105202,352.941176470588,3,1,0,80,1,0
105202,-71.4285714285714,3,1,0,80,0,0
105466,-68.4931506849315,3,1,0,80,0,0
105687,-65.7894736842105,3,1,0,80,0,0
105885,-71.4285714285714,3,1,0,80,0,0
106525,-68.4931506849315,3,1,0,80,0,0
106768,-65.7894736842105,3,1,0,80,0,0
106944,-71.4285714285714,3,1,0,80,0,0
107319,352.941176470588,4,1,0,80,1,0
107319,-71.4285714285714,4,1,0,80,0,0
110142,352.941176470588,3,1,0,80,1,0
110142,-71.4285714285714,3,1,0,80,0,0
110256,-71.0081990576952,3,1,0,80,0,0
110315,-70.798087532181,3,1,0,80,0,0
110433,-70.3815728245696,3,1,0,80,0,0
110491,-70.1786365293474,3,1,0,80,0,0
110609,-69.7693574958814,3,1,0,80,0,0
110668,-69.5665029485684,3,1,0,80,0,0
110786,-69.1643121948033,3,1,0,80,0,0
110844,-68.968325054963,3,1,0,80,0,0
110962,-68.5730015058534,3,1,0,80,0,0
111021,-68.377034358047,3,1,0,80,0,0
111139,-67.9884411623054,3,1,0,80,0,0
111197,-67.7990522540984,3,1,0,80,0,0
111315,-67.4169823935815,3,1,0,80,0,0
111374,-67.227557742678,3,1,0,80,0,0
111491,-66.8550500426231,3,1,0,80,0,0
111550,-66.66876564394,3,1,0,80,0,0
111668,-66.2992939555709,3,1,0,80,0,0
111727,-66.1160895494427,3,1,0,80,0,0
111844,-65.7557643040137,3,1,0,80,0,0
111903,-65.5755473661392,3,1,0,80,0,0
112021,-65.2180608599236,3,1,0,80,0,0
112080,-65.0407752676117,3,1,0,80,0,0
112197,-64.6920444824636,3,1,0,80,0,0
112256,-64.5176033271888,3,1,0,80,0,0
112374,-64.1715281460717,3,1,0,80,0,0
112433,-63.9998791029438,3,1,0,80,0,0
112550,-63.6621920238113,3,1,0,80,0,0
112609,-63.4932533733133,3,1,0,80,0,0
112727,-63.1580517195097,3,1,0,80,0,0
112786,-62.9917746277759,3,1,0,80,0,0
112903,-62.6646148382705,3,1,0,80,0,0
112962,-62.500922386694,3,1,0,80,0,0
113080,-62.1760897332374,3,1,0,80,0,0
113139,-62.014936301069,3,1,0,80,0,0
113256,-61.6978190877173,3,1,0,80,0,0
113315,-61.5391322037839,3,1,0,80,0,0
113433,-61.2241947608859,3,1,0,80,0,0
113491,-61.0705736451994,3,1,0,80,0,0
113609,-60.7604017216643,3,1,0,80,0,0
113668,-60.6064942685004,3,1,0,80,0,0
113786,-60.3010066779627,3,1,0,80,0,0
113844,-60.1519778424828,3,1,0,80,0,0
113962,-59.851043683489,3,1,0,80,0,0
114021,-59.7017029434984,3,1,0,80,0,0
114139,-59.4052461775845,3,1,0,80,0,0
114197,-59.2606067390574,3,1,0,80,0,0
114315,-58.9685037177309,3,1,0,80,0,0
114377,352.941176470588,4,1,0,80,1,0
114377,-58.8235294117647,4,1,0,80,0,0
114903,-62.9910714285714,4,1,0,80,0,0
114962,-63.4927777527787,4,1,0,80,0,0
115021,-64.0025401433367,4,1,0,80,0,0
115079,-64.5117044623263,4,1,0,80,0,0
115138,-65.0380271952063,4,1,0,80,0,0
115197,-65.573008643926,4,1,0,80,0,0
115256,-66.1168642519095,4,1,0,80,0,0
115315,-66.6698166698167,4,1,0,80,0,0
115374,-67.2320960594654,4,1,0,80,0,0
115432,-67.7941671070965,4,1,0,80,0,0
115491,-68.3756541965497,4,1,0,80,0,0
115550,-68.9672026980791,4,1,0,80,0,0
115609,-69.5690760280051,4,1,0,80,0,0
115668,-70.1815468788859,4,1,0,80,0,0
115726,-70.7942401284431,4,1,0,80,0,0
115785,-71.4285714285714,4,1,0,80,0,0
117200,352.941176470588,7,1,0,80,1,0
117200,-76.9230769230769,7,1,0,80,0,0
119670,352.941176470588,7,1,0,80,1,8
119670,-71.4285714285714,7,1,0,80,0,8
119847,352.941176470588,7,1,0,90,1,1
119847,-71.4285714285714,7,1,0,90,0,1
129641,-62.5,7,1,0,90,0,1
129729,-62.5,7,1,0,80,0,0
132199,-66.6666666666667,7,1,0,90,0,1
139611,352.941176470588,6,1,0,90,1,1
139611,-66.6666666666667,6,1,0,90,0,1
140184,-71.4285714285714,6,1,0,90,0,1
142611,-71.4285714285714,6,1,0,80,0,0

[HitObjects]
448,352,1443,5,0,0:0:0:0:
448,352,1560,1,8,0:0:0:0:
448,352,1619,1,0,0:0:0:0:
448,352,1737,1,8,0:0:0:0:
448,352,1795,1,8,0:0:0:0:
448,352,1972,1,0,0:0:0:0:
448,352,2090,1,0,0:0:0:0:
448,352,2148,1,8,0:0:0:0:
448,352,2266,1,8,0:0:0:0:
448,352,2325,1,0,0:0:0:0:
448,352,2442,1,0,0:0:0:0:
448,352,2501,1,0,0:0:0:0:
448,352,2619,1,8,0:0:0:0:
448,352,2678,1,0,0:0:0:0:
448,352,2795,1,0,0:0:0:0:
448,352,2854,1,8,0:0:0:0:
448,352,2972,1,8,0:0:0:0:
448,352,3031,1,8,0:0:0:0:
448,352,3207,1,0,0:0:0:0:
448,352,3325,1,8,0:0:0:0:
448,352,3384,1,8,0:0:0:0:
448,352,3501,1,0,0:0:0:0:
448,352,3560,1,0,0:0:0:0:
448,352,3678,1,0,0:0:0:0:
448,352,3737,1,8,0:0:0:0:
448,352,3913,1,0,0:0:0:0:
448,352,4031,1,8,0:0:0:0:
448,352,4090,1,0,0:0:0:0:
448,352,4207,1,8,0:0:0:0:
448,352,4266,1,8,0:0:0:0:
448,352,4442,1,0,0:0:0:0:
448,352,4560,1,0,0:0:0:0:
448,352,4619,1,8,0:0:0:0:
448,352,4737,1,8,0:0:0:0:
448,352,4795,1,0,0:0:0:0:
448,352,4913,1,0,0:0:0:0:
448,352,4972,1,0,0:0:0:0:
448,352,5090,1,8,0:0:0:0:
448,352,5148,1,0,0:0:0:0:
448,352,5266,1,0,0:0:0:0:
448,352,5325,1,8,0:0:0:0:
448,352,5442,1,8,0:0:0:0:
448,352,5501,1,8,0:0:0:0:
448,352,5678,1,0,0:0:0:0:
448,352,5795,1,8,0:0:0:0:
448,352,5854,1,8,0:0:0:0:
448,352,5972,1,0,0:0:0:0:
448,352,6031,1,0,0:0:0:0:
448,352,6148,1,0,0:0:0:0:
448,352,6207,1,8,0:0:0:0:
448,352,6384,1,12,0:0:0:0:
448,352,6501,1,8,0:0:0:0:
448,352,6560,1,0,0:0:0:0:
448,352,6678,1,8,0:0:0:0:
448,352,6737,1,8,0:0:0:0:
448,352,6913,1,0,0:0:0:0:
448,352,7031,1,8,0:0:0:0:
448,352,7090,1,0,0:0:0:0:
448,352,7207,1,0,0:0:0:0:
448,352,7266,1,8,0:0:0:0:
448,352,7384,1,0,0:0:0:0:
448,352,7442,1,0,0:0:0:0:
448,352,7560,1,8,0:0:0:0:
448,352,7619,1,0,0:0:0:0:
448,352,7737,1,8,0:0:0:0:
448,352,7795,1,0,0:0:0:0:
448,352,7913,1,8,0:0:0:0:
448,352,7972,1,8,0:0:0:0:
448,352,8148,1,0,0:0:0:0:
448,352,8266,1,8,0:0:0:0:
448,352,8325,1,8,0:0:0:0:
448,352,8442,1,0,0:0:0:0:
448,352,8501,1,0,0:0:0:0:
448,352,8619,1,0,0:0:0:0:
448,352,8678,1,8,0:0:0:0:
448,352,8854,1,0,0:0:0:0:
448,352,8971,1,8,0:0:0:0:
448,352,9030,1,0,0:0:0:0:
448,352,9148,1,8,0:0:0:0:
448,352,9207,1,8,0:0:0:0:
448,352,9383,1,0,0:0:0:0:
448,352,9501,1,0,0:0:0:0:
448,352,9560,1,8,0:0:0:0:
448,352,9678,1,8,0:0:0:0:
448,352,9736,1,0,0:0:0:0:
448,352,9854,1,8,0:0:0:0:
448,352,9913,1,8,0:0:0:0:
448,352,10030,1,0,0:0:0:0:
448,352,10089,1,8,0:0:0:0:
448,352,10207,1,0,0:0:0:0:
448,352,10265,1,8,0:0:0:0:
448,352,10383,1,0,0:0:0:0:
448,352,10442,1,0,0:0:0:0:
448,352,10618,1,0,0:0:0:0:
448,352,10736,1,8,0:0:0:0:
448,352,10795,1,8,0:0:0:0:
448,352,10912,1,0,0:0:0:0:
448,352,10971,1,0,0:0:0:0:
448,352,11089,1,0,0:0:0:0:
448,352,11148,1,8,0:0:0:0:
448,352,11325,1,12,0:0:0:0:
448,352,11442,1,8,0:0:0:0:
448,352,11501,1,0,0:0:0:0:
448,352,11619,1,8,0:0:0:0:
448,352,11678,1,8,0:0:0:0:
448,352,11854,1,0,0:0:0:0:
448,352,11972,1,8,0:0:0:0:
448,352,12031,1,0,0:0:0:0:
448,352,12148,1,0,0:0:0:0:
448,352,12207,1,8,0:0:0:0:
448,352,12325,1,0,0:0:0:0:
448,352,12383,1,0,0:0:0:0:
448,352,12501,1,8,0:0:0:0:
448,352,12560,1,0,0:0:0:0:
448,352,12678,1,8,0:0:0:0:
448,352,12736,1,0,0:0:0:0:
448,352,12854,1,8,0:0:0:0:
448,352,12913,1,8,0:0:0:0:
448,352,13089,1,0,0:0:0:0:
448,352,13207,1,8,0:0:0:0:
448,352,13266,1,8,0:0:0:0:
448,352,13383,1,0,0:0:0:0:
448,352,13442,1,0,0:0:0:0:
448,352,13560,1,0,0:0:0:0:
448,352,13619,1,8,0:0:0:0:
448,352,13795,1,0,0:0:0:0:
448,352,13912,1,8,0:0:0:0:
448,352,13971,1,0,0:0:0:0:
448,352,14089,1,8,0:0:0:0:
448,352,14148,1,8,0:0:0:0:
448,352,14324,1,0,0:0:0:0:
448,352,14442,1,0,0:0:0:0:
448,352,14501,1,8,0:0:0:0:
448,352,14619,1,8,0:0:0:0:
448,352,14677,1,0,0:0:0:0:
448,352,14795,1,8,0:0:0:0:
448,352,14854,1,8,0:0:0:0:
448,352,14971,1,0,0:0:0:0:
448,352,15030,1,8,0:0:0:0:
448,352,15148,1,0,0:0:0:0:
448,352,15206,1,8,0:0:0:0:
448,352,15324,1,0,0:0:0:0:
448,352,15383,1,0,0:0:0:0:
448,352,15559,1,0,0:0:0:0:
448,352,15677,1,8,0:0:0:0:
448,352,15736,1,8,0:0:0:0:
448,352,15853,1,0,0:0:0:0:
448,352,15912,1,0,0:0:0:0:
448,352,16030,1,0,0:0:0:0:
448,352,16089,1,8,0:0:0:0:
448,352,16206,1,0,0:0:0:0:
448,352,16265,1,8,0:0:0:0:
448,352,16324,1,8,0:0:0:0:
448,352,16383,1,8,0:0:0:0:
448,352,16442,1,8,0:0:0:0:
448,352,16500,1,8,0:0:0:0:
448,352,16559,1,8,0:0:0:0:
448,352,16618,1,0,0:0:0:0:
448,352,16971,1,12,0:0:0:0:
448,352,17071,1,0,0:0:0:0:
448,352,17265,1,8,0:0:0:0:
448,352,17500,1,0,0:0:0:0:
448,352,17610,1,0,0:0:0:0:
448,352,17794,1,0,0:0:0:0:
448,352,17853,1,8,0:0:0:0:
448,352,17941,1,0,0:0:0:0:
448,352,18007,1,0,0:0:0:0:
448,352,18206,1,0,0:0:0:0:
448,352,18316,1,0,0:0:0:0:
448,352,18382,1,0,0:0:0:0:
448,352,18500,1,8,0:0:0:0:
448,352,18735,1,8,0:0:0:0:
448,352,19323,1,8,0:0:0:0:
448,352,19382,1,8,0:0:0:0:
448,352,19441,1,8,0:0:0:0:
448,352,19541,1,0,0:0:0:0:
448,352,19735,1,8,0:0:0:0:
448,352,19970,1,0,0:0:0:0:
448,352,20080,1,0,0:0:0:0:
448,352,20264,1,0,0:0:0:0:
448,352,20323,1,8,0:0:0:0:
448,352,20411,1,0,0:0:0:0:
448,352,20477,1,0,0:0:0:0:
448,352,20676,1,0,0:0:0:0:
448,352,20786,1,0,0:0:0:0:
448,352,20852,1,0,0:0:0:0:
448,352,20970,1,8,0:0:0:0:
448,352,21205,1,8,0:0:0:0:
448,352,21499,1,0,0:0:0:0:
448,352,21558,1,0,0:0:0:0:
448,352,21676,1,0,0:0:0:0:
448,352,21734,1,0,0:0:0:0:
448,352,21912,1,12,0:0:0:0:
448,352,22000,1,0,0:0:0:0:
448,352,22198,1,0,0:0:0:0:
448,352,22353,1,0,0:0:0:0:
448,352,22441,1,8,0:0:0:0:
448,352,22529,1,0,0:0:0:0:
448,352,22617,1,0,0:0:0:0:
448,352,22706,1,0,0:0:0:0:
448,352,22912,1,0,0:0:0:0:
448,352,22970,1,8,0:0:0:0:
448,352,23088,1,0,0:0:0:0:
448,352,23147,1,0,0:0:0:0:
448,352,23323,1,8,0:0:0:0:
448,352,23412,1,0,0:0:0:0:
448,352,23610,1,0,0:0:0:0:
448,352,23764,1,0,0:0:0:0:
448,352,23853,1,8,0:0:0:0:
448,352,23941,1,0,0:0:0:0:
448,352,24029,1,8,0:0:0:0:
448,352,24117,1,0,0:0:0:0:
448,352,24184,1,0,0:0:0:0:
448,352,24323,1,0,0:0:0:0:
448,352,24382,1,8,0:0:0:0:
448,352,24500,1,8,0:0:0:0:
448,352,24559,1,8,0:0:0:0:
448,352,24735,1,12,0:0:0:0:
448,352,24823,1,0,0:0:0:0:
448,352,25044,1,0,0:0:0:0:
448,352,25176,1,0,0:0:0:0:
448,352,25264,1,8,0:0:0:0:
448,352,25353,1,0,0:0:0:0:
448,352,25441,1,0,0:0:0:0:
448,352,25529,1,0,0:0:0:0:
448,352,25735,1,0,0:0:0:0:
448,352,25794,1,8,0:0:0:0:
448,352,25911,1,0,0:0:0:0:
448,352,25970,1,0,0:0:0:0:
448,352,26147,1,8,0:0:0:0:
448,352,26235,1,0,0:0:0:0:
448,352,26434,1,0,0:0:0:0:
448,352,26617,1,8,0:0:0:0:
448,352,26676,1,8,0:0:0:0:
448,352,26764,1,0,0:0:0:0:
448,352,26853,1,8,0:0:0:0:
448,352,26963,1,0,0:0:0:0:
448,352,27029,1,8,0:0:0:0:
448,352,27147,1,0,0:0:0:0:
448,352,27206,1,0,0:0:0:0:
448,352,27323,1,0,0:0:0:0:
448,352,27382,1,8,0:0:0:0:
448,352,27559,1,12,0:0:0:0:
448,352,27676,1,0,0:0:0:0:
448,352,27867,1,8,0:0:0:0:
448,352,28088,1,0,0:0:0:0:
448,352,28198,1,0,0:0:0:0:
448,352,28382,1,0,0:0:0:0:
448,352,28441,1,8,0:0:0:0:
448,352,28529,1,0,0:0:0:0:
448,352,28595,1,0,0:0:0:0:
448,352,28794,1,8,0:0:0:0:
448,352,28911,1,0,0:0:0:0:
448,352,28970,1,0,0:0:0:0:
448,352,29080,1,8,0:0:0:0:
448,352,29323,1,8,0:0:0:0:
448,352,29499,1,8,0:0:0:0:
448,352,29617,1,8,0:0:0:0:
448,352,29676,1,8,0:0:0:0:
448,352,29794,1,8,0:0:0:0:
448,352,29852,1,8,0:0:0:0:
448,352,30029,1,8,0:0:0:0:
448,352,30146,1,0,0:0:0:0:
448,352,30323,1,8,0:0:0:0:
448,352,30558,1,0,0:0:0:0:
448,352,30676,1,0,0:0:0:0:
448,352,30852,1,0,0:0:0:0:
448,352,30911,1,8,0:0:0:0:
448,352,30999,1,0,0:0:0:0:
448,352,31065,1,0,0:0:0:0:
448,352,31264,1,0,0:0:0:0:
448,352,31381,1,0,0:0:0:0:
448,352,31440,1,0,0:0:0:0:
448,352,31558,1,8,0:0:0:0:
448,352,31793,1,8,0:0:0:0:
448,352,31969,1,8,0:0:0:0:
448,352,32028,1,8,0:0:0:0:
448,352,32087,1,8,0:0:0:0:
448,352,32146,1,8,0:0:0:0:
448,352,32499,1,12,0:0:0:0:
448,352,32587,1,0,0:0:0:0:
448,352,32785,1,8,0:3:0:0:
448,352,32940,1,0,0:0:0:0:
448,352,33028,1,8,0:0:0:0:
448,352,33116,1,0,0:0:0:0:
448,352,33204,1,0,0:0:0:0:
448,352,33293,1,0,0:0:0:0:
448,352,33499,1,0,0:0:0:0:
448,352,33557,1,8,0:0:0:0:
448,352,33675,1,0,0:0:0:0:
448,352,33734,1,0,0:0:0:0:
448,352,33910,1,8,0:0:0:0:
448,352,33999,1,0,0:0:0:0:
448,352,34197,1,0,0:0:0:0:
448,352,34351,1,0,0:0:0:0:
448,352,34440,1,8,0:0:0:0:
448,352,34528,1,0,0:0:0:0:
448,352,34616,1,8,0:0:0:0:
448,352,34734,1,8,0:0:0:0:
448,352,34793,1,8,0:0:0:0:
448,352,34910,1,0,0:0:0:0:
448,352,34969,1,8,0:0:0:0:
448,352,35087,1,8,0:0:0:0:
448,352,35146,1,8,0:0:0:0:
448,352,35322,1,8,0:0:0:0:
448,352,35410,1,0,0:0:0:0:
448,352,35609,1,0,0:0:0:0:
448,352,35763,1,0,0:0:0:0:
448,352,35851,1,8,0:0:0:0:
448,352,35940,1,0,0:0:0:0:
448,352,36028,1,0,0:0:0:0:
448,352,36116,1,0,0:0:0:0:
448,352,36322,1,0,0:0:0:0:
448,352,36381,1,8,0:0:0:0:
448,352,36498,1,0,0:0:0:0:
448,352,36557,1,0,0:0:0:0:
448,352,36734,1,8,0:0:0:0:
448,352,36822,1,0,0:0:0:0:
448,352,37021,1,0,0:0:0:0:
448,352,37204,1,8,0:0:0:0:
448,352,37263,1,8,0:0:0:0:
448,352,37351,1,0,0:0:0:0:
448,352,37440,1,8,0:0:0:0:
448,352,37528,1,0,0:0:0:0:
448,352,37616,1,8,0:0:0:0:
448,352,37726,1,0,0:0:0:0:
448,352,37910,1,0,0:0:0:0:
448,352,37969,1,8,0:0:0:0:
448,352,38146,1,12,0:0:0:0:
448,352,38322,1,0,0:0:0:0:
448,352,38440,1,0,0:0:0:0:
448,352,38675,1,8,0:0:0:0:
448,352,38793,1,0,0:0:0:0:
448,352,38969,1,8,0:0:0:0:
448,352,39204,1,8,0:0:0:0:
448,352,39381,1,8,0:0:0:0:
448,352,39498,1,8,0:0:0:0:
448,352,39658,1,0,0:0:0:0:
448,352,39734,1,8,0:0:0:0:
448,352,39910,1,0,0:0:0:0:
448,352,40028,1,8,0:0:0:0:
448,352,40263,1,8,0:0:0:0:
448,352,40440,1,8,0:0:0:0:
448,352,40557,1,8,0:0:0:0:
448,352,40616,1,0,0:0:0:0:
448,352,40734,1,0,0:0:0:0:
448,352,40793,1,8,0:0:0:0:
448,352,40881,1,0,0:0:0:0:
448,352,41087,1,8,0:0:0:0:
448,352,41234,1,8,0:0:0:0:
448,352,41322,1,8,0:0:0:0:
448,352,41440,1,0,0:0:0:0:
448,352,41616,1,8,0:0:0:0:
448,352,41763,1,0,0:0:0:0:
448,352,41851,1,8,0:0:0:0:
448,352,41969,1,8,0:0:0:0:
448,352,42146,1,8,0:0:0:0:
448,352,42381,1,12,0:0:0:0:
448,352,42557,1,0,0:0:0:0:
448,352,42675,1,0,0:0:0:0:
448,352,42733,1,8,0:0:0:0:
448,352,42822,1,8,0:0:0:0:
448,352,43028,1,0,0:0:0:0:
448,352,43086,1,8,0:0:0:0:
448,352,43263,1,8,0:0:0:0:
448,352,43381,1,0,0:0:0:0:
448,352,43616,1,0,0:0:0:0:
448,352,43792,1,12,0:0:0:0:
448,352,43969,1,0,0:0:0:0:
448,352,44086,1,8,0:0:0:0:
448,352,44145,1,8,0:0:0:0:
448,352,44233,1,8,0:0:0:0:
448,352,44439,1,0,0:0:0:0:
448,352,44498,1,12,0:0:0:0:
448,352,44616,1,12,0:0:0:0:
448,352,44792,1,12,0:0:0:0:
448,352,45028,1,12,0:0:0:0:
448,352,45204,1,12,0:0:0:0:
448,352,45822,1,0,0:0:0:0:
448,352,45866,1,0,0:0:0:0:
448,352,45910,1,8,0:0:0:0:
448,352,46028,1,0,0:0:0:0:
448,352,46145,1,8,0:0:0:0:
448,352,46263,1,8,0:0:0:0:
448,352,46381,1,0,0:0:0:0:
448,352,46498,1,0,0:0:0:0:
448,352,46616,1,8,0:0:0:0:
448,352,46733,1,0,0:0:0:0:
448,352,46792,1,8,0:0:0:0:
448,352,46910,1,8,0:0:0:0:
448,352,46968,1,0,0:0:0:0:
448,352,47145,1,0,0:0:0:0:
448,352,47263,1,0,0:0:0:0:
448,352,47439,1,8,0:0:0:0:
448,352,47498,1,0,0:0:0:0:
448,352,47616,1,0,0:0:0:0:
448,352,47674,1,8,0:0:0:0:
448,352,47792,1,8,0:0:0:0:
448,352,47851,1,0,0:0:0:0:
448,352,47968,1,0,0:0:0:0:
448,352,48027,1,0,0:0:0:0:
448,352,48145,1,0,0:0:0:0:
448,352,48204,1,8,0:0:0:0:
448,352,48380,1,8,0:0:0:0:
448,352,48733,1,8,0:0:0:0:
448,352,49086,1,8,0:0:0:0:
448,352,49204,1,8,0:0:0:0:
448,352,49263,1,0,0:0:0:0:
448,352,49380,1,0,0:0:0:0:
448,352,49439,1,8,0:0:0:0:
448,352,49616,1,0,0:0:0:0:
448,352,49733,1,0,0:0:0:0:
448,352,49910,1,8,0:0:0:0:
448,352,49968,1,0,0:0:0:0:
448,352,50086,1,0,0:0:0:0:
448,352,50145,1,8,0:0:0:0:
448,352,50263,1,8,0:0:0:0:
448,352,50321,1,0,0:0:0:0:
448,352,50439,1,0,0:0:0:0:
448,352,50498,1,0,0:0:0:0:
448,352,50616,1,0,0:0:0:0:
448,352,50674,1,8,0:0:0:0:
448,352,50851,1,8,0:0:0:0:
448,352,51086,1,8,0:0:0:0:
448,352,51145,1,8,0:0:0:0:
448,352,51204,1,8,0:0:0:0:
448,352,51380,1,8,0:0:0:0:
448,352,51498,1,0,0:0:0:0:
448,352,51557,1,12,0:0:0:0:
448,352,51674,1,8,0:0:0:0:
448,352,51733,1,0,0:0:0:0:
448,352,51851,1,0,0:0:0:0:
448,352,51910,1,8,0:0:0:0:
448,352,52086,1,0,0:0:0:0:
448,352,52204,1,0,0:0:0:0:
448,352,52263,1,8,0:0:0:0:
448,352,52380,1,0,0:0:0:0:
448,352,52439,1,0,0:0:0:0:
448,352,52557,1,0,0:0:0:0:
448,352,52616,1,8,0:0:0:0:
448,352,52733,1,0,0:0:0:0:
448,352,52792,1,8,0:0:0:0:
448,352,52910,1,0,0:0:0:0:
448,352,52968,1,0,0:0:0:0:
448,352,53086,1,8,0:0:0:0:
448,352,53145,1,0,0:0:0:0:
448,352,53321,1,8,0:0:0:0:
448,352,53410,1,8,0:0:0:0:
448,352,53498,1,0,0:0:0:0:
448,352,53615,1,0,0:0:0:0:
448,352,53674,1,8,0:0:0:0:
448,352,53792,1,8,0:0:0:0:
448,352,53851,1,8,0:0:0:0:
448,352,54027,1,0,0:0:0:0:
448,352,54174,1,8,0:0:0:0:
448,352,54380,1,8,0:0:0:0:
448,352,54527,1,0,0:0:0:0:
448,352,54645,1,0,0:0:0:0:
448,352,54733,1,8,0:0:0:0:
448,352,54880,1,0,0:0:0:0:
448,352,55027,1,0,0:0:0:0:
448,352,55086,1,8,0:0:0:0:
448,352,55204,1,8,0:0:0:0:
448,352,55263,1,0,0:0:0:0:
448,352,55351,1,0,0:0:0:0:
448,352,55527,1,0,0:0:0:0:
448,352,55615,1,8,0:0:0:0:
448,352,55704,1,8,0:0:0:0:
448,352,55792,1,0,0:0:0:0:
448,352,55880,1,0,0:0:0:0:
448,352,55968,1,8,0:0:0:0:
448,352,56056,1,0,0:0:0:0:
448,352,56145,1,8,0:0:0:0:
448,352,56262,1,0,0:0:0:0:
448,352,56321,1,0,0:0:0:0:
448,352,56439,1,0,0:0:0:0:
448,352,56498,1,8,0:0:0:0:
448,352,56615,1,8,0:0:0:0:
448,352,56674,1,0,0:0:0:0:
448,352,56792,1,0,0:0:0:0:
448,352,56851,1,8,0:0:0:0:
448,352,57027,1,0,0:0:0:0:
448,352,57145,1,0,0:0:0:0:
448,352,57204,1,8,0:0:0:0:
448,352,57321,1,0,0:0:0:0:
448,352,57380,1,0,0:0:0:0:
448,352,57498,1,0,0:0:0:0:
448,352,57557,1,8,0:0:0:0:
448,352,57674,1,8,0:0:0:0:
448,352,57733,1,0,0:0:0:0:
448,352,57851,1,0,0:0:0:0:
448,352,57909,1,0,0:0:0:0:
448,352,58027,1,0,0:0:0:0:
448,352,58086,1,8,0:0:0:0:
448,352,58262,1,8,0:0:0:0:
448,352,58351,1,0,0:0:0:0:
448,352,58439,1,8,0:0:0:0:
448,352,58556,1,0,0:0:0:0:
448,352,58615,1,8,0:0:0:0:
448,352,58733,1,8,0:0:0:0:
448,352,58792,1,8,0:0:0:0:
448,352,58968,1,8,0:0:0:0:
448,352,59115,1,8,0:0:0:0:
448,352,59174,1,8,0:0:0:0:
448,352,59233,1,0,0:0:0:0:
448,352,59292,1,8,0:0:0:0:
448,352,59351,1,0,0:0:0:0:
448,352,59410,1,0,0:0:0:0:
448,352,59468,1,8,0:0:0:0:
448,352,59527,1,0,0:0:0:0:
448,352,59586,1,0,0:0:0:0:
448,352,59645,1,8,0:0:0:0:
448,352,59704,1,8,0:0:0:0:
448,352,59763,1,0,0:0:0:0:
448,352,59821,1,8,0:0:0:0:
448,352,59880,1,0,0:0:0:0:
448,352,59939,1,0,0:3:0:0:
448,352,59998,1,8,0:0:0:0:
448,352,60057,1,0,0:0:0:0:
448,352,60115,1,8,0:0:0:0:
448,352,60174,1,8,0:0:0:0:
448,352,60233,1,0,0:0:0:0:
448,352,60292,1,0,0:0:0:0:
448,352,60351,1,8,0:0:0:0:
448,352,60468,1,0,0:0:0:0:
448,352,60586,1,8,0:0:0:0:
448,352,60733,1,8,0:0:0:0:
448,352,60851,1,8,0:0:0:0:
448,352,60910,1,8,0:0:0:0:
448,352,61027,1,8,0:0:0:0:
448,352,61086,1,8,0:0:0:0:
448,352,61204,1,0,0:0:0:0:
448,352,61263,1,0,0:0:0:0:
448,352,61380,1,0,0:0:0:0:
448,352,61439,1,12,0:0:0:0:
448,352,61615,1,0,0:0:0:0:
448,352,61733,1,12,0:0:0:0:
448,352,61968,1,12,0:0:0:0:
448,352,62321,1,0,0:0:0:0:
448,352,62439,1,0,0:0:0:0:
448,352,62497,1,0,0:0:0:0:
448,352,62615,1,0,0:0:0:0:
448,352,62674,1,0,0:0:0:0:
448,352,62850,1,12,0:0:0:0:
448,352,63027,1,0,0:0:0:0:
448,352,63144,1,12,0:0:0:0:
448,352,63380,1,12,0:0:0:0:
448,352,63733,1,0,0:0:0:0:
448,352,63850,1,0,0:0:0:0:
448,352,63909,1,8,0:0:0:0:
448,352,64027,1,8,0:0:0:0:
448,352,64086,1,8,0:0:0:0:
448,352,64203,1,0,0:0:0:0:
448,352,64262,1,12,0:0:0:0:
448,352,64439,1,0,0:0:0:0:
448,352,64497,1,0,0:0:0:0:
448,352,64556,1,0,0:0:0:0:
448,352,64615,1,8,0:0:0:0:
448,352,64733,1,0,0:0:0:0:
448,352,64791,1,0,0:0:0:0:
448,352,64850,1,0,0:0:0:0:
448,352,64909,1,0,0:0:0:0:
448,352,64968,1,12,0:0:0:0:
448,352,65144,1,0,0:0:0:0:
448,352,65203,1,0,0:0:0:0:
448,352,65262,1,0,0:0:0:0:
448,352,65321,1,8,0:0:0:0:
448,352,65439,1,0,0:0:0:0:
448,352,65497,1,0,0:0:0:0:
448,352,65556,1,0,0:0:0:0:
448,352,65615,1,0,0:0:0:0:
448,352,65674,1,12,0:0:0:0:
448,352,65762,1,0,0:0:0:0:
448,352,65850,1,0,0:0:0:0:
448,352,65968,1,8,0:0:0:0:
448,352,66027,1,0,0:0:0:0:
448,352,66144,1,8,0:0:0:0:
448,352,66203,1,0,0:0:0:0:
448,352,66321,1,0,0:0:0:0:
448,352,66380,1,8,0:0:0:0:
448,352,66497,1,0,0:0:0:0:
448,352,66556,1,8,0:0:0:0:
448,352,66674,1,8,0:0:0:0:
448,352,66733,1,0,0:0:0:0:
448,352,66850,1,8,0:0:0:0:
448,352,66909,1,8,0:0:0:0:
448,352,67027,1,0,0:0:0:0:
448,352,67086,1,8,0:0:0:0:
448,352,67174,1,0,0:0:0:0:
448,352,67262,1,0,0:0:0:0:
448,352,67380,1,8,0:0:0:0:
448,352,67439,1,0,0:0:0:0:
448,352,67556,1,0,0:0:0:0:
448,352,67615,1,8,0:0:0:0:
448,352,67733,1,0,0:0:0:0:
448,352,67791,1,8,0:0:0:0:
448,352,67909,1,0,0:0:0:0:
448,352,67968,1,0,0:0:0:0:
448,352,68086,1,0,0:0:0:0:
448,352,68144,1,8,0:0:0:0:
448,352,68262,1,0,0:0:0:0:
448,352,68321,1,0,0:0:0:0:
448,352,68439,1,0,0:0:0:0:
448,352,68497,1,12,0:0:0:0:
448,352,68673,1,0,0:0:0:0:
448,352,68849,1,8,0:0:0:0:
448,352,68967,1,0,0:0:0:0:
448,352,69026,1,8,0:0:0:0:
448,352,69144,1,8,0:0:0:0:
448,352,69202,1,8,0:0:0:0:
448,352,69320,1,0,0:0:0:0:
448,352,69379,1,0,0:0:0:0:
448,352,69497,1,0,0:0:0:0:
448,352,69555,1,8,0:0:0:0:
448,352,70085,1,0,0:0:0:0:
448,352,70261,1,8,0:0:0:0:
448,352,70379,1,0,0:0:0:0:
448,352,70438,1,8,0:0:0:0:
448,352,70555,1,8,0:0:0:0:
448,352,70614,1,8,0:0:0:0:
448,352,70732,1,0,0:0:0:0:
448,352,70791,1,0,0:0:0:0:
448,352,70908,1,8,0:0:0:0:
448,352,70967,1,0,0:0:0:0:
448,352,71144,1,8,0:0:0:0:
448,352,71261,1,0,0:0:0:0:
448,352,71673,1,0,0:0:0:0:
448,352,71849,1,8,0:0:0:0:
448,352,71967,1,8,0:0:0:0:
448,352,72144,1,0,0:0:0:0:
448,352,72202,1,8,0:0:0:0:
448,352,72320,1,0,0:0:0:0:
448,352,72379,1,0,0:0:0:0:
448,352,72555,1,8,0:0:0:0:
448,352,72673,1,8,0:0:0:0:
448,352,73261,1,0,0:0:0:0:
448,352,73379,1,0,0:0:0:0:
448,352,73438,1,12,0:0:0:0:
448,352,73614,1,0,0:0:0:0:
448,352,73791,1,8,0:0:0:0:
448,352,73908,1,0,0:0:0:0:
448,352,73967,1,8,0:0:0:0:
448,352,74085,1,8,0:0:0:0:
448,352,74144,1,8,0:0:0:0:
448,352,74261,1,0,0:0:0:0:
448,352,74320,1,0,0:0:0:0:
448,352,74438,1,0,0:0:0:0:
448,352,74497,1,8,0:0:0:0:
448,352,75026,1,0,0:0:0:0:
448,352,75202,1,8,0:0:0:0:
448,352,75320,1,0,0:0:0:0:
448,352,75379,1,8,0:0:0:0:
448,352,75497,1,8,0:0:0:0:
448,352,75555,1,8,0:0:0:0:
448,352,75673,1,0,0:0:0:0:
448,352,75732,1,0,0:0:0:0:
448,352,75850,1,8,0:0:0:0:
448,352,75908,1,0,0:0:0:0:
448,352,76085,1,8,0:0:0:0:
448,352,76202,1,0,0:0:0:0:
448,352,76614,1,0,0:0:0:0:
448,352,76790,1,8,0:0:0:0:
448,352,76908,1,8,0:0:0:0:
448,352,77085,1,0,0:0:0:0:
448,352,77143,1,8,0:0:0:0:
448,352,77261,1,0,0:0:0:0:
448,352,77320,1,0,0:0:0:0:
448,352,77496,1,8,0:0:0:0:
448,352,77614,1,8,0:0:0:0:
448,352,78202,1,0,0:0:0:0:
448,352,78320,1,0,0:0:0:0:
448,352,78379,1,8,0:0:0:0:
448,352,78732,1,8,0:0:0:0:
448,352,78791,1,0,0:0:0:0:
448,352,78849,1,0,0:0:0:0:
448,352,78908,1,0,0:0:0:0:
448,352,78967,1,0,0:0:0:0:
448,352,79026,1,0,0:0:0:0:
448,352,79085,1,8,0:0:0:0:
448,352,79320,1,8,0:0:0:0:
448,352,79379,1,0,0:0:0:0:
448,352,79438,1,8,0:0:0:0:
448,352,79570,1,8,0:0:0:0:
448,352,79614,1,0,0:0:0:0:
448,352,79732,1,0,0:0:0:0:
448,352,79791,1,0,0:0:0:0:
448,352,79967,1,0,0:0:0:0:
448,352,80026,1,0,0:0:0:0:
448,352,80085,1,0,0:0:0:0:
448,352,80144,1,8,0:0:0:0:
448,352,80202,1,0,0:0:0:0:
448,352,80261,1,0,0:0:0:0:
448,352,80320,1,8,0:0:0:0:
448,352,80438,1,8,0:0:0:0:
448,352,80614,1,0,0:0:0:0:
448,352,80673,1,8,0:0:0:0:
448,352,80849,1,8,0:0:0:0:
448,352,80967,1,0,0:0:0:0:
448,352,81070,1,0,0:0:0:0:
448,352,81202,1,8,0:0:0:0:
448,352,81320,1,0,0:0:0:0:
448,352,81423,1,0,0:0:0:0:
448,352,81555,1,8,0:0:0:0:
448,352,81732,1,0,0:0:0:0:
448,352,82041,1,8,0:0:0:0:
448,352,82085,1,8,0:0:0:0:
448,352,82202,1,8,0:0:0:0:
448,352,82261,1,0,0:0:0:0:
448,352,82438,1,0,0:0:0:0:
448,352,82614,1,8,0:0:0:0:
448,352,82732,1,0,0:0:0:0:
448,352,82791,1,0,0:0:0:0:
448,352,82908,1,8,0:0:0:0:
448,352,83085,1,0,0:0:0:0:
448,352,83261,1,0,0:0:0:0:
448,352,83320,1,12,0:0:0:0:
448,352,83408,1,0,0:0:0:0:
448,352,83496,1,8,0:0:0:0:
448,352,83614,1,0,0:0:0:0:
448,352,83673,1,8,0:0:0:0:
448,352,83791,1,0,0:0:0:0:
448,352,83849,1,0,0:0:0:0:
448,352,83967,1,0,0:0:0:0:
448,352,84320,1,8,0:0:0:0:
448,352,84379,1,8,0:0:0:0:
448,352,84673,1,8,0:0:0:0:
448,352,84732,1,8,0:0:0:0:
448,352,84849,1,8,0:0:0:0:
448,352,84908,1,0,0:0:0:0:
448,352,84967,1,8,0:0:0:0:
448,352,85026,1,0,0:0:0:0:
448,352,85085,1,8,0:0:0:0:
448,352,85144,1,0,0:0:0:0:
448,352,85202,1,8,0:0:0:0:
448,352,85261,1,0,0:0:0:0:
448,352,85320,1,8,0:0:0:0:
448,352,85379,1,0,0:0:0:0:
448,352,85438,1,8,0:0:0:0:
448,352,85539,1,8,0:0:0:0:
448,352,85589,1,8,0:0:0:0:
448,352,85639,1,8,0:0:0:0:
448,352,85908,1,8,0:0:0:0:
448,352,85967,1,0,0:0:0:0:
448,352,86085,1,8,0:0:0:0:
448,352,86320,1,0,0:0:0:0:
448,352,86438,1,0,0:0:0:0:
448,352,86496,1,8,0:0:0:0:
449,350,86791,1,8,0:0:0:0:
450,354,86849,1,8,0:0:0:0:
448,352,86967,1,8,0:0:0:0:
448,352,87144,1,8,0:0:0:0:
448,352,87202,1,0,0:0:0:0:
448,352,87320,1,0,0:0:0:0:
448,352,87379,1,0,0:0:0:0:
448,352,87555,1,8,0:0:0:0:
448,352,87673,1,8,0:0:0:0:
448,352,87732,1,0,0:0:0:0:
448,352,87849,1,0,0:0:0:0:
448,352,87908,1,8,0:0:0:0:
448,352,88261,1,12,0:0:0:0:
448,352,88378,1,8,0:0:0:0:
448,352,88437,1,0,0:0:0:0:
448,352,88555,1,0,0:0:0:0:
448,352,88613,1,8,0:0:0:0:
448,352,88790,1,0,0:0:0:0:
448,352,88908,1,8,0:0:0:0:
448,352,89143,1,8,0:0:0:0:
448,352,89261,1,0,0:0:0:0:
448,352,89319,1,8,0:0:0:0:
448,352,89437,1,0,0:0:0:0:
448,352,89496,1,8,0:0:0:0:
448,352,89672,1,12,0:0:0:0:
448,352,89790,1,8,0:0:0:0:
448,352,89849,1,8,0:0:0:0:
448,352,89966,1,8,0:0:0:0:
448,352,90025,1,8,0:0:0:0:
448,352,90202,1,0,0:0:0:0:
448,352,90319,1,8,0:0:0:0:
448,352,90555,1,8,0:0:0:0:
448,352,90672,1,8,0:0:0:0:
448,352,90731,1,8,0:0:0:0:
448,352,90849,1,8,0:0:0:0:
448,352,90908,1,8,0:0:0:0:
448,352,91084,1,12,0:0:0:0:
448,352,91437,1,8,0:0:0:0:
448,352,91613,1,0,0:0:0:0:
448,352,91672,1,0,0:0:0:0:
448,352,91731,1,0,0:0:0:0:
448,352,91790,1,8,0:0:0:0:
448,352,91908,1,0,0:0:0:0:
448,352,92025,1,0,0:0:0:0:
448,352,92143,1,8,0:0:0:0:
448,352,92261,1,8,0:0:0:0:
448,352,92319,1,8,0:0:0:0:
448,352,92437,1,8,0:0:0:0:
448,352,92496,1,0,0:0:0:0:
448,352,92672,1,8,0:0:0:0:
448,352,92731,1,8,0:0:0:0:
448,352,92790,1,8,0:0:0:0:
448,352,92849,1,8,0:0:0:0:
448,352,93025,1,8,0:0:0:0:
448,352,93143,1,8,0:0:0:0:
448,352,93202,1,0,0:0:0:0:
448,352,93319,1,0,0:0:0:0:
448,352,93378,1,8,0:0:0:0:
448,352,93437,1,0,0:0:0:0:
448,352,93496,1,0,0:0:0:0:
448,352,93555,1,0,0:0:0:0:
448,352,93672,1,0,0:0:0:0:
448,352,93731,1,0,0:0:0:0:
448,352,93908,1,8,0:0:0:0:
448,352,94025,1,8,0:0:0:0:
448,352,94084,1,8,0:0:0:0:
448,352,94261,1,8,0:0:0:0:
448,352,94393,1,8,0:0:0:0:
448,352,94496,1,8,0:0:0:0:
448,352,94555,1,8,0:0:0:0:
448,352,94613,1,0,0:0:0:0:
448,352,94790,1,8,0:0:0:0:
448,352,94849,1,8,0:0:0:0:
448,352,94908,1,0,0:0:0:0:
448,352,95084,1,0,0:0:0:0:
448,352,95143,1,8,0:0:0:0:
448,352,95319,1,8,0:0:0:0:
448,352,95437,1,8,0:0:0:0:
448,352,95496,1,8,0:0:0:0:
448,352,95555,1,0,0:0:0:0:
448,352,95613,1,0,0:0:0:0:
448,352,95672,1,0,0:0:0:0:
448,352,95849,1,0,0:0:0:0:
448,352,95908,1,0,0:0:0:0:
448,352,95966,1,0,0:0:0:0:
448,352,96025,1,8,0:0:0:0:
448,352,96143,1,8,0:0:0:0:
448,352,96261,1,8,0:0:0:0:
448,352,96378,1,8,0:0:0:0:
448,352,96496,1,8,0:0:0:0:
448,352,96555,1,0,0:0:0:0:
448,352,96613,1,8,0:0:0:0:
448,352,96672,1,0,0:0:0:0:
448,352,96731,1,12,0:0:0:0:
448,352,96908,1,0,0:0:0:0:
448,352,97025,1,12,0:0:0:0:
448,352,97261,1,0,0:0:0:0:
448,352,97319,1,0,0:0:0:0:
448,352,97378,1,0,0:0:0:0:
448,352,97437,1,0,0:0:0:0:
448,352,97496,1,0,0:0:0:0:
448,352,97555,1,0,0:0:0:0:
448,352,97613,1,8,0:0:0:0:
448,352,97908,1,8,0:0:0:0:
448,352,97966,1,0,0:0:0:0:
448,352,98143,1,12,0:0:0:0:
448,352,98261,1,8,0:0:0:0:
448,352,98378,1,8,0:0:0:0:
448,352,98437,1,0,0:0:0:0:
448,352,98496,1,0,0:0:0:0:
448,352,98613,1,0,0:0:0:0:
448,352,98731,1,0,0:0:0:0:
448,352,98849,1,8,0:0:0:0:
448,352,99025,1,8,0:0:0:0:
448,352,99084,1,8,0:0:0:0:
448,352,99143,1,8,0:0:0:0:
448,352,99202,1,8,0:0:0:0:
448,352,99319,1,0,0:0:0:0:
448,352,99378,1,0,0:0:0:0:
448,352,99437,1,0,0:0:0:0:
448,352,99496,1,0,0:0:0:0:
448,352,99555,1,12,0:0:0:0:
448,352,99731,1,8,0:0:0:0:
448,352,99849,1,8,0:0:0:0:
448,352,99908,1,0,0:0:0:0:
448,352,100084,1,8,0:0:0:0:
448,352,100143,1,0,0:0:0:0:
448,352,100202,1,0,0:0:0:0:
448,352,100261,1,8,0:0:0:0:
448,352,100378,1,8,0:0:0:0:
448,352,100437,1,0,0:0:0:0:
448,352,100613,1,8,0:0:0:0:
448,352,100672,1,0,0:0:0:0:
448,352,100731,1,0,0:0:0:0:
448,352,100790,1,8,0:0:0:0:
448,352,100908,1,8,0:0:0:0:
448,352,100966,1,0,0:0:0:0:
448,352,101143,1,8,0:0:0:0:
448,352,101202,1,0,0:0:0:0:
448,352,101260,1,0,0:0:0:0:
448,352,101319,1,8,0:0:0:0:
448,352,101437,1,8,0:0:0:0:
448,352,101496,1,0,0:0:0:0:
448,352,101613,1,8,0:0:0:0:
448,352,101672,1,0,0:0:0:0:
448,352,101731,1,0,0:0:0:0:
448,352,101790,1,0,0:0:0:0:
448,352,101849,1,0,0:0:0:0:
448,352,101908,1,0,0:0:0:0:
448,352,101966,1,0,0:0:0:0:
448,352,102025,1,0,0:0:0:0:
448,352,102084,1,0,0:0:0:0:
448,352,102143,1,0,0:0:0:0:
448,352,102202,1,0,0:0:0:0:
448,352,102260,1,0,0:0:0:0:
448,352,102319,1,0,0:0:0:0:
448,352,102378,1,12,0:0:0:0:
448,352,103084,1,0,0:0:0:0:
448,352,103378,1,0,0:0:0:0:
448,352,103613,1,0,0:0:0:0:
448,352,103790,1,8,0:0:0:0:
448,352,104496,1,8,0:0:0:0:
448,352,104790,1,0,0:0:0:0:
448,352,104966,1,8,0:0:0:0:
448,352,105025,1,8,0:0:0:0:
448,352,105202,1,0,0:0:0:0:
448,352,105496,1,0,0:0:0:0:
448,352,105731,1,8,0:0:0:0:
448,352,105907,1,0,0:0:0:0:
448,352,106260,1,0,0:0:0:0:
448,352,106554,1,0,0:0:0:0:
448,352,106790,1,0,0:0:0:0:
448,352,106966,1,8,0:0:0:0:
448,352,107084,1,8,0:0:0:0:
448,352,107143,1,8,0:0:0:0:
448,353,107319,1,12,0:0:0:0:
448,353,107495,1,0,0:0:0:0:
448,353,107613,1,0,0:0:0:0:
448,353,107848,1,8,0:0:0:0:
448,353,108024,1,8,0:0:0:0:
448,352,108201,1,0,0:0:0:0:
448,352,108319,1,0,0:0:0:0:
448,352,108554,1,0,0:0:0:0:
448,352,108613,1,8,0:0:0:0:
448,352,108671,1,8,0:0:0:0:
448,352,108730,1,0,0:0:0:0:
448,352,108907,1,0,0:0:0:0:
448,352,109024,1,0,0:0:0:0:
448,352,109083,1,8,0:0:0:0:
448,352,109201,1,0,0:0:0:0:
448,352,109260,1,0,0:0:0:0:
448,352,109348,1,0,0:0:0:0:
448,352,109436,1,8,0:0:0:0:
448,352,109524,1,0,0:0:0:0:
448,352,109613,1,8,0:0:0:0:
448,352,109701,1,0,0:0:0:0:
448,352,109789,1,0,0:0:0:0:
448,352,109877,1,8,0:0:0:0:
448,352,109966,1,0,0:0:0:0:
448,352,110083,1,0,0:0:0:0:
448,352,110142,1,12,0:0:0:0:
448,352,110259,1,0,0:0:0:0:
448,352,110318,1,0,0:0:0:0:
448,352,110436,1,8,0:0:0:0:
448,352,110494,1,0,0:0:0:0:
448,352,110612,1,0,0:0:0:0:
448,352,110671,1,8,0:0:0:0:
448,352,110789,1,8,0:0:0:0:
448,352,110847,1,8,0:0:0:0:
448,352,110965,1,0,0:0:0:0:
448,352,111024,1,0,0:0:0:0:
448,352,111142,1,0,0:0:0:0:
448,352,111200,1,8,0:0:0:0:
448,352,111318,1,0,0:0:0:0:
448,352,111377,1,0,0:0:0:0:
447,352,111494,1,8,0:0:0:0:
447,352,111553,1,0,0:0:0:0:
447,351,111671,1,8,0:0:0:0:
447,351,111730,1,0,0:0:0:0:
447,352,111847,1,0,0:0:0:0:
447,352,111906,1,0,0:0:0:0:
448,352,112024,1,8,0:0:0:0:
448,352,112083,1,0,0:0:0:0:
447,352,112200,1,0,0:0:0:0:
447,352,112259,1,12,0:0:0:0:
447,352,112377,1,0,0:0:0:0:
447,352,112436,1,0,0:0:0:0:
448,352,112553,1,0,0:0:0:0:
448,352,112612,1,8,0:0:0:0:
448,352,112730,1,0,0:0:0:0:
448,352,112789,1,8,0:0:0:0:
448,352,112906,1,8,0:0:0:0:
448,352,112965,1,8,0:0:0:0:
448,352,113083,1,0,0:0:0:0:
448,352,113142,1,0,0:0:0:0:
448,352,113259,1,0,0:0:0:0:
448,352,113318,1,8,0:0:0:0:
448,352,113436,1,0,0:0:0:0:
448,352,113494,1,0,0:0:0:0:
448,352,113612,1,8,0:0:0:0:
448,352,113671,1,0,0:0:0:0:
448,352,113789,1,0,0:0:0:0:
448,352,113847,1,8,0:0:0:0:
448,352,113965,1,8,0:0:0:0:
448,352,114024,1,8,0:0:0:0:
448,352,114142,1,8,0:0:0:0:
448,352,114200,1,0,0:0:0:0:
448,352,114318,1,0,0:0:0:0:
448,352,114377,1,12,0:0:0:0:
448,352,114906,1,0,0:0:0:0:
448,352,114965,1,8,0:0:0:0:
448,352,115024,1,8,0:0:0:0:
448,352,115082,1,0,0:0:0:0:
448,352,115141,1,8,0:0:0:0:
448,352,115200,1,8,0:0:0:0:
448,352,115259,1,8,0:0:0:0:
448,352,115318,1,8,0:0:0:0:
448,352,115377,1,0,0:0:0:0:
448,352,115435,1,8,0:0:0:0:
448,352,115494,1,8,0:0:0:0:
448,352,115553,1,8,0:0:0:0:
448,352,115612,1,0,0:0:0:0:
448,352,115671,1,8,0:0:0:0:
448,352,115729,1,8,0:0:0:0:
448,352,115788,1,0,0:0:0:0:
448,352,115906,1,0,0:0:0:0:
448,352,115965,1,0,0:0:0:0:
448,352,116024,1,0,0:0:0:0:
448,352,116082,1,0,0:0:0:0:
448,352,116141,1,8,0:0:0:0:
448,352,116318,1,0,0:0:0:0:
448,352,116435,1,0,0:0:0:0:
448,352,116494,1,8,0:0:0:0:
448,352,116671,1,0,0:0:0:0:
448,352,116788,1,0,0:0:0:0:
448,352,116847,1,8,0:0:0:0:
448,352,117200,1,0,0:0:0:0:
448,352,117317,1,8,0:0:0:0:
448,352,117376,1,0,0:0:0:0:
448,352,117494,1,0,0:0:0:0:
448,352,117552,1,8,0:0:0:0:
448,352,117729,1,0,0:0:0:0:
448,352,117847,1,0,0:0:0:0:
448,352,117905,1,8,0:0:0:0:
448,352,118023,1,8,0:0:0:0:
448,352,118082,1,0,0:0:0:0:
448,352,118199,1,0,0:0:0:0:
448,352,118258,1,8,0:0:0:0:
448,352,118376,1,8,0:0:0:0:
448,352,118435,1,0,0:0:0:0:
448,352,118552,1,0,0:0:0:0:
448,352,118611,1,8,0:0:0:0:
448,352,118729,1,8,0:0:0:0:
448,352,118788,1,8,0:0:0:0:
448,352,118964,1,8,0:0:0:0:
448,352,119317,1,8,0:0:0:0:
448,352,119376,1,8,0:0:0:0:
448,352,119435,1,8,0:0:0:0:
448,352,119494,1,8,0:0:0:0:
448,352,119847,1,12,0:0:0:0:
448,352,119964,1,0,0:0:0:0:
448,352,120023,1,8,0:0:0:0:
448,352,120141,1,8,0:0:0:0:
448,352,120200,1,0,0:0:0:0:
448,352,120376,1,0,0:0:0:0:
448,352,120494,1,8,0:0:0:0:
448,352,120553,1,0,0:0:0:0:
448,352,120670,1,0,0:0:0:0:
448,352,120729,1,8,0:0:0:0:
448,352,120847,1,0,0:0:0:0:
448,352,120905,1,8,0:0:0:0:
448,352,121023,1,8,0:0:0:0:
448,352,121082,1,0,0:0:0:0:
448,352,121200,1,8,0:0:0:0:
448,352,121258,1,0,0:0:0:0:
448,352,121376,1,8,0:0:0:0:
448,352,121435,1,8,0:0:0:0:
448,352,121611,1,0,0:0:0:0:
448,352,121729,1,8,0:0:0:0:
448,352,121788,1,8,0:0:0:0:
448,352,121905,1,0,0:0:0:0:
448,352,121964,1,0,0:0:0:0:
448,352,122082,1,0,0:0:0:0:
448,352,122141,1,8,0:0:0:0:
448,352,122317,1,0,0:0:0:0:
448,352,122434,1,8,0:0:0:0:
448,352,122493,1,0,0:0:0:0:
448,352,122611,1,0,0:0:0:0:
448,352,122670,1,8,0:0:0:0:
448,352,122846,1,0,0:0:0:0:
448,352,122964,1,0,0:0:0:0:
448,352,123023,1,8,0:0:0:0:
448,352,123141,1,0,0:0:0:0:
448,352,123199,1,8,0:0:0:0:
448,352,123317,1,8,0:0:0:0:
448,352,123376,1,0,0:0:0:0:
448,352,123493,1,8,0:0:0:0:
448,352,123552,1,0,0:0:0:0:
448,352,123670,1,0,0:0:0:0:
448,352,123728,1,8,0:0:0:0:
448,352,123846,1,8,0:0:0:0:
448,352,123905,1,8,0:0:0:0:
448,352,124081,1,0,0:0:0:0:
448,352,124199,1,8,0:0:0:0:
448,352,124258,1,8,0:0:0:0:
448,352,124375,1,0,0:0:0:0:
448,352,124434,1,0,0:0:0:0:
448,352,124552,1,0,0:0:0:0:
448,352,124611,1,8,0:0:0:0:
448,352,124788,1,12,0:0:0:0:
448,352,124905,1,0,0:0:0:0:
448,352,124964,1,8,0:0:0:0:
448,352,125082,1,8,0:0:0:0:
448,352,125141,1,0,0:0:0:0:
448,352,125317,1,0,0:0:0:0:
448,352,125435,1,8,0:0:0:0:
448,352,125494,1,0,0:0:0:0:
448,352,125611,1,0,0:0:0:0:
448,352,125670,1,8,0:0:0:0:
448,352,125788,1,0,0:0:0:0:
448,352,125846,1,8,0:0:0:0:
448,352,125964,1,8,0:0:0:0:
448,352,126023,1,0,0:0:0:0:
448,352,126141,1,8,0:0:0:0:
448,352,126199,1,0,0:0:0:0:
448,352,126317,1,8,0:0:0:0:
448,352,126376,1,8,0:0:0:0:
448,352,126552,1,0,0:0:0:0:
448,352,126670,1,8,0:0:0:0:
448,352,126729,1,8,0:0:0:0:
448,352,126846,1,0,0:0:0:0:
448,352,126905,1,0,0:0:0:0:
448,352,127023,1,0,0:0:0:0:
448,352,127082,1,8,0:0:0:0:
448,352,127258,1,0,0:0:0:0:
448,352,127375,1,8,0:0:0:0:
448,352,127434,1,0,0:0:0:0:
448,352,127552,1,0,0:0:0:0:
448,352,127611,1,8,0:0:0:0:
448,352,127787,1,0,0:0:0:0:
448,352,127905,1,0,0:0:0:0:
448,352,127964,1,8,0:0:0:0:
448,352,128082,1,0,0:0:0:0:
448,352,128140,1,8,0:0:0:0:
448,352,128258,1,8,0:0:0:0:
448,352,128317,1,0,0:0:0:0:
448,352,128434,1,8,0:0:0:0:
448,352,128493,1,0,0:0:0:0:
448,352,128611,1,0,0:0:0:0:
448,352,128669,1,8,0:0:0:0:
448,352,128787,1,8,0:0:0:0:
448,352,128846,1,8,0:0:0:0:
448,352,129022,1,0,0:0:0:0:
448,352,129140,1,8,0:0:0:0:
448,352,129199,1,8,0:0:0:0:
448,352,129316,1,0,0:0:0:0:
448,352,129375,1,0,0:0:0:0:
448,352,129493,1,0,0:0:0:0:
448,352,129552,1,8,0:0:0:0:
448,352,129729,1,0,0:0:0:0:
448,352,129905,1,0,0:0:0:0:
448,352,129964,1,0,0:0:0:0:
448,352,130023,1,0,0:0:0:0:
448,352,130082,1,12,0:0:0:0:
448,352,130258,1,0,0:0:0:0:
448,352,130376,1,0,0:0:0:0:
448,352,130435,1,0,0:0:0:0:
448,352,130552,1,0,0:0:0:0:
448,352,130611,1,12,0:0:0:0:
448,352,130788,1,0,0:0:0:0:
448,352,130905,1,0,0:0:0:0:
448,352,130964,1,0,0:0:0:0:
448,352,131082,1,0,0:0:0:0:
448,352,131141,1,12,0:0:0:0:
448,352,131258,1,0,0:0:0:0:
448,352,131317,1,0,0:0:0:0:
448,352,131494,1,0,0:0:0:0:
448,352,131611,1,0,0:0:0:0:
448,352,131670,1,12,0:0:0:0:
448,352,131788,1,0,0:0:0:0:
448,352,131847,1,12,0:0:0:0:
448,352,131964,1,0,0:0:0:0:
448,352,132023,1,0,0:0:0:0:
448,352,132199,1,12,0:0:0:0:
448,352,132317,1,8,0:0:0:0:
448,352,132376,1,0,0:0:0:0:
448,352,132494,1,0,0:0:0:0:
448,352,132552,1,8,0:0:0:0:
448,352,132729,1,0,0:0:0:0:
448,352,132847,1,0,0:0:0:0:
448,352,132905,1,8,0:0:0:0:
448,352,133023,1,0,0:0:0:0:
448,352,133082,1,0,0:0:0:0:
448,352,133199,1,0,0:0:0:0:
448,352,133258,1,8,0:0:0:0:
448,352,133376,1,8,0:0:0:0:
448,352,133435,1,8,0:0:0:0:
448,352,133552,1,8,0:0:0:0:
448,352,133611,1,0,0:0:0:0:
448,352,133729,1,0,0:0:0:0:
448,352,133788,1,8,0:0:0:0:
448,352,133964,1,0,0:0:0:0:
448,352,134082,1,0,0:0:0:0:
448,352,134141,1,8,0:0:0:0:
448,352,134258,1,0,0:0:0:0:
448,352,134317,1,0,0:0:0:0:
448,352,134435,1,8,0:0:0:0:
448,352,134494,1,8,0:0:0:0:
448,352,134611,1,0,0:0:0:0:
448,352,134670,1,12,0:0:0:0:
448,352,134788,1,8,0:0:0:0:
448,352,134847,1,0,0:0:0:0:
448,352,134964,1,0,0:0:0:0:
448,352,135023,1,8,0:0:0:0:
448,352,135199,1,0,0:0:0:0:
448,352,135317,1,0,0:0:0:0:
448,352,135376,1,8,0:0:0:0:
448,352,135494,1,0,0:0:0:0:
448,352,135552,1,0,0:0:0:0:
448,352,135670,1,0,0:0:0:0:
448,352,135729,1,8,0:0:0:0:
448,352,135847,1,8,0:0:0:0:
448,352,135905,1,0,0:0:0:0:
448,352,136023,1,8,0:0:0:0:
448,352,136082,1,8,0:0:0:0:
448,352,136199,1,0,0:0:0:0:
448,352,136258,1,8,0:0:0:0:
448,352,136435,1,0,0:0:0:0:
448,352,136552,1,0,0:0:0:0:
448,352,136611,1,8,0:0:0:0:
448,352,136729,1,8,0:0:0:0:
448,352,136788,1,0,0:0:0:0:
448,352,136905,1,0,0:0:0:0:
448,352,136964,1,0,0:0:0:0:
448,352,137082,1,8,0:0:0:0:
448,352,137141,1,0,0:0:0:0:
448,352,137258,1,8,0:0:0:0:
448,352,137317,1,8,0:0:0:0:
448,352,137435,1,0,0:0:0:0:
448,352,137494,1,8,0:0:0:0:
448,352,137670,1,0,0:0:0:0:
448,352,137788,1,0,0:0:0:0:
448,352,137847,1,8,0:0:0:0:
448,352,137964,1,8,0:0:0:0:
448,352,138023,1,0,0:0:0:0:
448,352,138141,1,0,0:0:0:0:
448,352,138199,1,8,0:0:0:0:
448,352,138317,1,0,0:0:0:0:
448,352,138376,1,0,0:0:0:0:
448,352,138494,1,8,0:0:0:0:
448,352,138552,1,0,0:0:0:0:
448,352,138670,1,0,0:0:0:0:
448,352,138729,1,8,0:0:0:0:
448,352,138847,1,8,0:0:0:0:
448,352,138905,1,8,0:0:0:0:
448,352,139023,1,8,0:0:0:0:
448,352,139082,1,0,0:0:0:0:
448,352,139199,1,0,0:0:0:0:
448,352,139258,1,0,0:0:0:0:
448,352,139376,1,0,0:0:0:0:
448,352,139435,1,0,0:0:0:0:
448,352,139523,1,8,0:0:0:0:
448,352,139611,1,0,0:0:0:0:
448,352,139669,1,0,0:0:0:0:
448,352,139728,1,0,0:0:0:0:
448,352,139787,1,0,0:0:0:0:
448,352,139846,1,0,0:0:0:0:
448,352,139905,1,0,0:0:0:0:
448,352,139963,1,8,0:0:0:0:
448,352,140199,1,8,0:0:0:0:
448,352,140258,1,8,0:0:0:0:
448,352,140316,1,0,0:0:0:0:
448,352,140434,1,8,0:0:0:0:
448,352,140493,1,0,0:0:0:0:
448,352,140611,1,0,0:0:0:0:
448,352,140669,1,0,0:0:0:0:
448,352,140787,1,8,0:0:0:0:
448,352,140846,1,8,0:0:0:0:
448,352,141022,1,0,0:0:0:0:
448,352,141140,1,8,0:0:0:0:
448,352,141316,1,0,0:0:0:0:
448,352,141375,1,8,0:0:0:0:
448,352,141493,1,8,0:0:0:0:
448,352,141552,1,8,0:0:0:0:
448,352,141728,1,8,0:0:0:0:
448,352,141846,1,0,0:0:0:0:
448,352,141905,1,8,0:0:0:0:
448,352,142022,1,8,0:0:0:0:
448,352,142081,1,8,0:0:0:0:
448,352,142199,1,8,0:0:0:0:
448,352,142258,1,0,0:0:0:0:
448,352,142375,1,12,0:0:0:0:
448,352,142611,1,12,0:0:0:0:
