osu file format v14

[General]
AudioFilename: audio.mp3
AudioLeadIn: 0
PreviewTime: 21912
Countdown: 0
SampleSet: Normal
StackLeniency: 0.7
Mode: 1
LetterboxInBreaks: 0
WidescreenStoryboard: 1

[Editor]
DistanceSpacing: 1
BeatDivisor: 6
GridSize: 32
TimelineZoom: 4.700003

[Metadata]
Title:Sleight of Hand
TitleUnicode:Sleight of Hand
Artist:Toromaru
ArtistUnicode:とろまる
Creator:Nurend
Version:Cynp-zy's Oni
Source:osu!taiko World Cup 2023
Tags:twc 2023 semifinals sf nm2 no mod osu! original custom song featured artist fa jazz instrumental parasol pig retromgp cynplytholowazy cynp-zy meiqth maxie raphalge
BeatmapID:4181035
BeatmapSetID:1972518

[Difficulty]
HPDrainRate:5
CircleSize:10
OverallDifficulty:6
ApproachRate:10
SliderMultiplier:1.4
SliderTickRate:3

[Events]
//Background and Video events
0,0,"bob.png",0,0
//Break Periods
//Storyboard Layer 0 (Background)
//Storyboard Layer 1 (Fail)
//Storyboard Layer 2 (Pass)
//Storyboard Layer 3 (Foreground)
//Storyboard Layer 4 (Overlay)
//Storyboard Sound Samples

[TimingPoints]
1443,352.941176470588,7,1,0,80,1,0
6384,-83.3333333333333,7,1,0,90,0,1
13795,352.941176470588,9,1,0,90,1,1
13795,-83.3333333333333,9,1,0,90,0,1
16971,352.941176470588,4,1,0,80,1,0
16971,-90.9090909090909,4,1,0,80,0,0
18206,352.941176470588,4,1,0,80,1,0
18206,-90.9090909090909,4,1,0,80,0,0
19441,352.941176470588,4,1,0,80,1,0
19441,-90.9090909090909,4,1,0,80,0,0
20676,352.941176470588,4,1,0,80,1,0
20676,-90.9090909090909,4,1,0,80,0,0
21912,352.941176470588,4,1,0,90,1,1
21912,-83.3333333333333,4,1,0,90,0,1
27559,-90.9090909090909,4,1,0,80,0,0
28794,352.941176470588,4,1,0,80,1,0
28794,-90.9090909090909,4,1,0,80,0,0
30029,352.941176470588,4,1,0,80,1,0
30029,-90.9090909090909,4,1,0,80,0,0
31264,352.941176470588,4,1,0,80,1,0
31264,-90.9090909090909,4,1,0,80,0,0
32499,352.941176470588,4,1,0,90,1,1
32499,-83.3333333333333,4,1,0,90,0,1
38146,352.941176470588,3,1,0,80,1,0
38146,-83.3333333333333,3,1,0,80,0,0
38322,-90.9090909090909,3,1,0,80,0,0
42381,352.941176470588,4,1,0,80,1,0
42381,-90.9090909090909,4,1,0,80,0,0
45910,-100,4,1,0,80,0,0
46616,352.941176470588,7,1,0,80,1,0
51557,-90.9090909090909,7,1,0,80,0,0
54027,-100,7,1,0,80,0,0
56498,-90.9090909090909,7,1,0,80,0,0
58968,-100,7,1,0,80,0,0
61439,352.941176470588,4,1,0,80,1,0
61439,-90.9090909090909,4,1,0,80,0,0
68497,352.941176470588,7,1,0,80,1,0
68497,-90.9090909090909,7,1,0,80,0,0
88261,352.941176470588,4,1,0,80,1,0
88261,-83.3333333333333,4,1,0,80,0,0
91437,-100,4,1,0,80,0,0
93290,-83.3333333333333,4,1,0,80,0,0
94261,-100,4,1,0,80,0,0
96114,-83.3333333333333,4,1,0,80,0,0
97084,-100,4,1,0,80,0,0
98937,-83.3333333333333,4,1,0,80,0,0
99908,-100,4,1,0,80,0,0
101761,-90.9090909090909,4,1,0,80,0,0
102731,-100,4,1,0,80,0,0
105202,352.941176470588,3,1,0,80,1,0
107319,352.941176470588,4,1,0,80,1,0
110142,352.941176470588,3,1,0,80,1,0
110403,-98.7685992816829,3,1,0,80,0,0
110668,-97.5626612605971,3,1,0,80,0,0
110933,-96.385816377623,3,1,0,80,0,0
111197,-95.2413079656367,3,1,0,80,0,0
111462,-94.11947728687,3,1,0,80,0,0
111727,-93.0237666388437,3,1,0,80,0,0
111991,-91.9572675554784,3,1,0,80,0,0
112256,-90.9110424179976,3,1,0,80,0,0
112521,-89.8883559027041,3,1,0,80,0,0
112786,-88.8884224666275,3,1,0,80,0,0
113050,-87.9141409947687,3,1,0,80,0,0
113315,-86.9574144798981,3,1,0,80,0,0
113580,-86.0212869678258,3,1,0,80,0,0
113844,-85.1085209003216,3,1,0,80,0,0
114109,-84.2115728773116,3,1,0,80,0,0
114377,352.941176470588,4,1,0,80,1,0
114377,-83.3333333333333,4,1,0,80,0,0
114553,-66.6666666666667,4,1,0,80,0,0
114729,-100,4,1,0,80,0,0
117200,352.941176470588,7,1,0,80,1,0
119670,352.941176470588,7,1,0,80,1,8
119847,352.941176470588,7,1,0,90,1,1
119847,-83.3333333333333,7,1,0,90,0,1
129729,-83.3333333333333,7,1,0,80,0,0
129817,-76.9230769230769,7,1,0,80,0,0
132199,-83.3333333333333,7,1,0,90,0,1
139611,352.941176470588,6,1,0,80,1,1
139611,-83.3333333333333,6,1,0,90,0,1
140140,-90.9090909090909,6,1,0,90,0,1
142346,-83.3333333333333,6,1,0,90,0,1
142611,-83.3333333333333,6,1,0,80,0,0

[HitObjects]
256,192,1443,5,0,0:0:0:0:
256,192,1619,1,8,0:0:0:0:
256,192,1795,1,8,0:0:0:0:
256,192,1972,1,0,0:0:0:0:
256,192,2148,1,8,0:0:0:0:
256,192,2325,1,8,0:0:0:0:
256,192,2501,1,0,0:0:0:0:
256,192,2678,1,0,0:0:0:0:
256,192,2854,1,8,0:0:0:0:
256,192,3207,1,0,0:0:0:0:
256,192,3384,1,8,0:0:0:0:
256,192,3560,1,8,0:0:0:0:
256,192,3737,1,0,0:0:0:0:
256,192,3913,1,0,0:0:0:0:
256,192,4090,1,8,0:0:0:0:
256,192,4266,1,8,0:0:0:0:
256,192,4442,1,0,0:0:0:0:
256,192,4619,1,8,0:0:0:0:
256,192,4795,1,8,0:0:0:0:
256,192,4972,1,0,0:0:0:0:
256,192,5148,1,0,0:0:0:0:
256,192,5325,1,8,0:0:0:0:
256,192,5678,1,0,0:0:0:0:
256,192,5795,1,8,0:0:0:0:
256,192,5854,1,0,0:0:0:0:
256,192,6031,1,8,0:0:0:0:
256,192,6148,1,0,0:0:0:0:
256,192,6207,1,0,0:0:0:0:
256,192,6384,1,12,0:0:0:0:
256,192,6678,1,8,0:0:0:0:
256,192,6737,1,0,0:0:0:0:
256,192,6913,1,8,0:0:0:0:
256,192,7090,1,0,0:0:0:0:
256,192,7207,1,8,0:0:0:0:
256,192,7266,1,0,0:0:0:0:
256,192,7442,1,8,0:0:0:0:
256,192,7619,1,0,0:0:0:0:
256,192,7737,1,8,0:0:0:0:
256,192,7795,1,0,0:0:0:0:
256,192,7913,1,8,0:0:0:0:
256,192,7972,1,8,0:0:0:0:
256,192,8148,1,0,0:0:0:0:
256,192,8325,1,8,0:0:0:0:
256,192,8442,1,0,0:0:0:0:
256,192,8501,1,8,0:0:0:0:
256,192,8619,1,0,0:0:0:0:
256,192,8678,1,0,0:0:0:0:
256,192,8854,1,8,0:0:0:0:
256,192,9148,1,8,0:0:0:0:
256,192,9207,1,0,0:0:0:0:
256,192,9384,1,8,0:0:0:0:
256,192,9560,1,0,0:0:0:0:
256,192,9678,1,8,0:0:0:0:
256,192,9737,1,0,0:0:0:0:
256,192,9913,1,8,0:0:0:0:
256,192,10090,1,0,0:0:0:0:
256,192,10207,1,8,0:0:0:0:
256,192,10266,1,0,0:0:0:0:
256,192,10384,1,8,0:0:0:0:
256,192,10442,1,8,0:0:0:0:
256,192,10619,1,0,0:0:0:0:
256,192,10795,1,8,0:0:0:0:
256,192,10913,1,0,0:0:0:0:
256,192,10972,1,8,0:0:0:0:
256,192,11090,1,0,0:0:0:0:
256,192,11148,1,0,0:0:0:0:
256,192,11325,1,12,0:0:0:0:
256,192,11619,1,8,0:0:0:0:
256,192,11678,1,0,0:0:0:0:
256,192,11854,1,8,0:0:0:0:
256,192,12031,1,0,0:0:0:0:
256,192,12148,1,8,0:0:0:0:
256,192,12207,1,8,0:0:0:0:
256,192,12384,1,0,0:0:0:0:
256,192,12560,1,8,0:0:0:0:
256,192,12678,1,0,0:0:0:0:
256,192,12737,1,8,0:0:0:0:
256,192,12854,1,0,0:0:0:0:
256,192,12913,1,0,0:0:0:0:
256,192,13090,1,8,0:0:0:0:
256,192,13266,1,0,0:0:0:0:
256,192,13384,1,8,0:0:0:0:
256,192,13442,1,8,0:0:0:0:
256,192,13560,1,0,0:0:0:0:
256,192,13619,1,0,0:0:0:0:
256,192,13795,1,8,0:0:0:0:
256,192,14089,1,8,0:0:0:0:
256,192,14147,1,0,0:0:0:0:
256,192,14324,1,8,0:0:0:0:
256,192,14500,1,0,0:0:0:0:
256,192,14618,1,8,0:0:0:0:
256,192,14677,1,8,0:0:0:0:
256,192,14853,1,0,0:0:0:0:
256,192,15030,1,8,0:0:0:0:
256,192,15147,1,0,0:0:0:0:
256,192,15206,1,8,0:0:0:0:
256,192,15324,1,0,0:0:0:0:
256,192,15383,1,0,0:0:0:0:
256,192,15559,1,8,0:0:0:0:
256,192,15736,1,0,0:0:0:0:
256,192,15853,1,8,0:0:0:0:
256,192,15912,1,8,0:0:0:0:
256,192,16030,1,0,0:0:0:0:
256,192,16089,1,0,0:0:0:0:
256,192,16265,1,8,0:0:0:0:
256,192,16353,1,8,0:0:0:0:
256,192,16442,1,0,0:0:0:0:
256,192,16530,1,0,0:0:0:0:
256,192,16618,1,8,0:0:0:0:
256,192,16971,1,12,0:0:0:0:
256,192,17235,1,8,0:0:0:0:
256,192,17500,1,0,0:0:0:0:
256,192,17588,1,0,0:0:0:0:
256,192,17794,1,8,0:0:0:0:
256,192,18029,1,0,0:0:0:0:
256,192,18206,1,8,0:0:0:0:
256,192,18294,1,0,0:0:0:0:
256,192,18470,1,8,0:0:0:0:
256,192,18735,1,0,0:0:0:0:
256,192,19441,1,8,0:0:0:0:
256,192,19705,1,8,0:0:0:0:
256,192,19970,1,0,0:0:0:0:
256,192,20058,1,0,0:0:0:0:
256,192,20264,1,8,0:0:0:0:
256,192,20499,1,0,0:0:0:0:
256,192,20676,1,8,0:0:0:0:
256,192,20764,1,0,0:0:0:0:
256,192,20940,1,8,0:0:0:0:
256,192,21205,1,0,0:0:0:0:
256,192,21499,1,8,0:0:0:0:
256,192,21558,1,8,0:0:0:0:
256,192,21676,1,0,0:0:0:0:
256,192,21734,1,0,0:0:0:0:
256,192,21912,1,12,0:0:0:0:
256,192,22176,1,8,0:0:0:0:
256,192,22441,1,0,0:0:0:0:
256,192,22617,1,8,0:0:0:0:
256,192,22706,1,8,0:0:0:0:
256,192,22882,1,8,0:0:0:0:
256,192,23088,1,0,0:0:0:0:
256,192,23147,1,0,0:0:0:0:
256,192,23323,1,8,0:0:0:0:
256,192,23412,1,0,0:0:0:0:
256,192,23588,1,8,0:0:0:0:
256,192,23853,1,0,0:0:0:0:
256,192,24029,1,8,0:0:0:0:
256,192,24147,1,0,0:0:0:0:
256,192,24206,1,8,0:0:0:0:
256,192,24323,1,0,0:0:0:0:
256,192,24559,1,0,0:0:0:0:
256,192,24735,1,12,0:0:0:0:
256,192,25000,1,8,0:0:0:0:
256,192,25264,1,0,0:0:0:0:
256,192,25441,1,8,0:0:0:0:
256,192,25529,1,8,0:0:0:0:
256,192,25706,1,0,0:0:0:0:
256,192,25911,1,8,0:0:0:0:
256,192,25970,1,0,0:0:0:0:
256,192,26147,1,8,0:0:0:0:
256,192,26235,1,0,0:0:0:0:
256,192,26411,1,8,0:0:0:0:
256,192,26676,1,0,0:0:0:0:
256,192,26853,1,8,0:0:0:0:
256,192,26941,1,8,0:0:0:0:
256,192,27029,1,0,0:0:0:0:
256,192,27117,1,8,0:0:0:0:
256,192,27323,1,0,0:0:0:0:
256,192,27382,1,8,0:0:0:0:
256,192,27559,1,12,0:0:0:0:
256,192,27823,1,8,0:0:0:0:
256,192,28088,1,0,0:0:0:0:
256,192,28176,1,0,0:0:0:0:
256,192,28382,1,8,0:0:0:0:
256,192,28617,1,0,0:0:0:0:
256,192,28794,1,8,0:0:0:0:
256,192,29058,1,8,0:0:0:0:
256,192,29323,1,0,0:0:0:0:
256,192,29499,1,8,0:0:0:0:
256,192,29588,1,8,0:0:0:0:
256,192,29676,1,8,0:0:0:0:
256,192,29852,1,0,0:0:0:0:
256,192,30029,1,8,0:0:0:0:
256,192,30293,1,8,0:0:0:0:
256,192,30558,1,0,0:0:0:0:
256,192,30646,1,0,0:0:0:0:
256,192,30852,1,8,0:0:0:0:
256,192,31087,1,0,0:0:0:0:
256,192,31264,1,8,0:0:0:0:
256,192,31528,1,8,0:0:0:0:
256,192,31793,1,0,0:0:0:0:
256,192,32146,1,0,0:0:0:0:
256,192,32499,1,12,0:0:0:0:
256,192,32763,1,8,0:0:0:0:
256,192,33028,1,0,0:0:0:0:
256,192,33204,1,8,0:0:0:0:
256,192,33293,1,8,0:0:0:0:
256,192,33469,1,8,0:0:0:0:
256,192,33675,1,0,0:0:0:0:
256,192,33734,1,0,0:0:0:0:
256,192,33910,1,8,0:0:0:0:
256,192,33999,1,0,0:0:0:0:
256,192,34175,1,8,0:0:0:0:
256,192,34440,1,0,0:0:0:0:
256,192,34616,1,8,0:0:0:0:
256,192,34734,1,0,0:0:0:0:
256,192,34793,1,8,0:0:0:0:
256,192,34910,1,0,0:0:0:0:
256,192,35087,1,8,0:0:0:0:
256,192,35146,1,0,0:0:0:0:
256,192,35322,1,12,0:0:0:0:
256,192,35587,1,8,0:0:0:0:
256,192,35851,1,0,0:0:0:0:
256,192,36028,1,8,0:0:0:0:
256,192,36116,1,8,0:0:0:0:
256,192,36293,1,0,0:0:0:0:
256,192,36499,1,8,0:0:0:0:
256,192,36557,1,0,0:0:0:0:
256,192,36734,1,8,0:0:0:0:
256,192,36822,1,0,0:0:0:0:
256,192,36999,1,8,0:0:0:0:
256,192,37263,1,0,0:0:0:0:
256,192,37440,1,8,0:0:0:0:
256,192,37528,1,8,0:0:0:0:
256,192,37616,1,0,0:0:0:0:
256,192,37704,1,8,0:0:0:0:
256,192,37910,1,0,0:0:0:0:
256,192,37969,1,8,0:0:0:0:
256,192,38146,1,4,0:0:0:0:
256,192,38322,1,8,0:0:0:0:
256,192,38410,1,0,0:0:0:0:
256,192,38675,1,8,0:0:0:0:
256,192,38793,1,0,0:0:0:0:
256,192,38969,1,8,0:0:0:0:
256,192,39204,1,0,0:0:0:0:
256,192,39381,1,8,0:0:0:0:
256,192,39469,1,0,0:0:0:0:
256,192,39646,1,8,0:0:0:0:
256,192,39734,1,8,0:0:0:0:
256,192,39910,1,0,0:0:0:0:
256,192,39998,1,8,0:0:0:0:
256,192,40263,1,8,0:0:0:0:
256,192,40616,1,0,0:0:0:0:
256,192,40793,1,8,0:0:0:0:
256,192,40910,1,0,0:0:0:0:
256,192,41087,1,8,0:0:0:0:
256,192,41322,1,8,0:0:0:0:
256,192,41440,1,8,0:0:0:0:
256,192,41616,1,0,0:0:0:0:
256,192,41763,1,8,0:0:0:0:
256,192,41851,1,8,0:0:0:0:
256,192,41940,1,0,0:0:0:0:
256,192,42116,1,8,0:0:0:0:
256,192,42381,1,4,0:0:0:0:
256,192,42557,1,8,0:0:0:0:
256,192,42645,1,0,0:0:0:0:
256,192,42733,1,0,0:0:0:0:
256,192,42822,1,8,0:0:0:0:
256,192,42998,1,0,0:0:0:0:
256,192,43086,1,0,0:0:0:0:
256,192,43263,1,8,0:0:0:0:
256,192,43351,1,8,0:0:0:0:
256,192,43616,1,0,0:0:0:0:
256,192,43792,1,12,0:0:0:0:
256,192,43969,1,0,0:0:0:0:
256,192,44057,1,0,0:0:0:0:
256,192,44145,1,8,0:0:0:0:
256,192,44233,1,8,0:0:0:0:
256,192,44410,1,8,0:0:0:0:
256,192,44498,1,0,0:0:0:0:
256,192,44763,1,0,0:0:0:0:
256,192,45028,1,0,0:0:0:0:
256,192,45204,1,12,0:0:0:0:
256,192,45910,1,8,0:0:0:0:
256,192,46028,1,8,0:0:0:0:
256,192,46145,1,8,0:0:0:0:
256,192,46263,1,8,0:0:0:0:
256,192,46381,1,8,0:0:0:0:
256,192,46498,1,8,0:0:0:0:
256,192,46616,1,4,0:0:0:0:
256,192,46968,1,8,0:0:0:0:
256,192,47145,1,0,0:0:0:0:
256,192,47233,1,8,0:0:0:0:
256,192,47439,1,0,0:0:0:0:
256,192,47498,1,0,0:0:0:0:
256,192,47674,1,8,0:0:0:0:
256,192,47851,1,0,0:0:0:0:
256,192,48027,1,8,0:0:0:0:
256,192,48145,1,0,0:0:0:0:
256,192,48204,1,8,0:0:0:0:
256,192,48380,1,0,0:0:0:0:
256,192,48733,1,8,0:0:0:0:
256,192,49086,1,0,0:0:0:0:
256,192,49439,1,8,0:0:0:0:
256,192,49616,1,0,0:0:0:0:
256,192,49704,1,8,0:0:0:0:
256,192,49910,1,0,0:0:0:0:
256,192,49968,1,0,0:0:0:0:
256,192,50145,1,8,0:0:0:0:
256,192,50321,1,0,0:0:0:0:
256,192,50498,1,8,0:0:0:0:
256,192,50616,1,0,0:0:0:0:
256,192,50674,1,8,0:0:0:0:
256,192,50851,1,0,0:0:0:0:
256,192,51204,1,8,0:0:0:0:
256,192,51557,1,12,0:0:0:0:
256,192,51733,1,0,0:0:0:0:
256,192,51910,1,8,0:0:0:0:
256,192,52086,1,8,0:0:0:0:
256,192,52263,1,0,0:0:0:0:
256,192,52380,1,8,0:0:0:0:
256,192,52439,1,8,0:0:0:0:
256,192,52557,1,0,0:0:0:0:
256,192,52616,1,8,0:0:0:0:
256,192,52792,1,0,0:0:0:0:
256,192,52968,1,8,0:0:0:0:
256,192,53145,1,8,0:0:0:0:
256,192,53321,1,0,0:0:0:0:
256,192,53439,1,8,0:0:0:0:
256,192,53498,1,8,0:0:0:0:
256,192,53615,1,0,0:0:0:0:
256,192,53674,1,8,0:0:0:0:
256,192,54027,1,0,0:0:0:0:
256,192,54204,1,8,0:0:0:0:
256,192,54380,1,0,0:0:0:0:
256,192,54557,1,8,0:0:0:0:
256,192,54733,1,0,0:0:0:0:
256,192,54910,1,0,0:0:0:0:
256,192,55086,1,8,0:0:0:0:
256,192,55174,1,8,0:0:0:0:
256,192,55263,1,0,0:0:0:0:
256,192,55351,1,8,0:0:0:0:
256,192,55615,1,0,0:0:0:0:
256,192,55792,1,8,0:0:0:0:
256,192,55968,1,0,0:0:0:0:
256,192,56086,1,8,0:0:0:0:
256,192,56145,1,0,0:0:0:0:
256,192,56321,1,0,0:0:0:0:
256,192,56498,1,12,0:0:0:0:
256,192,56674,1,0,0:0:0:0:
256,192,56851,1,8,0:0:0:0:
256,192,57027,1,8,0:0:0:0:
256,192,57204,1,0,0:0:0:0:
256,192,57321,1,8,0:0:0:0:
256,192,57380,1,8,0:0:0:0:
256,192,57498,1,0,0:0:0:0:
256,192,57557,1,8,0:0:0:0:
256,192,57733,1,0,0:0:0:0:
256,192,57910,1,8,0:0:0:0:
256,192,58086,1,8,0:0:0:0:
256,192,58263,1,0,0:0:0:0:
256,192,58380,1,8,0:0:0:0:
256,192,58439,1,8,0:0:0:0:
256,192,58557,1,0,0:0:0:0:
256,192,58615,1,8,0:0:0:0:
256,192,58968,1,0,0:0:0:0:
256,192,59145,1,8,0:0:0:0:
256,192,59233,1,0,0:0:0:0:
256,192,59321,1,8,0:0:0:0:
256,192,59410,1,8,0:0:0:0:
256,192,59498,1,0,0:0:0:0:
256,192,59674,1,8,0:0:0:0:
256,192,59763,1,8,0:0:0:0:
256,192,59851,1,8,0:0:0:0:
256,192,60027,1,0,0:0:0:0:
256,192,60115,1,0,0:0:0:0:
256,192,60204,1,0,0:0:0:0:
256,192,60380,1,8,0:0:0:0:
256,192,60498,1,8,0:0:0:0:
256,192,60615,1,0,0:0:0:0:
256,192,60733,1,8,0:0:0:0:
256,192,60910,1,0,0:0:0:0:
256,192,61086,1,8,0:0:0:0:
256,192,61439,1,12,0:0:0:0:
256,192,61615,1,0,0:0:0:0:
256,192,61703,1,8,0:0:0:0:
256,192,61968,1,4,0:0:0:0:
256,192,62321,1,0,0:0:0:0:
256,192,62409,1,0,0:0:0:0:
256,192,62497,1,8,0:0:0:0:
256,192,62850,1,12,0:0:0:0:
256,192,63027,1,0,0:0:0:0:
256,192,63115,1,8,0:0:0:0:
256,192,63380,1,4,0:0:0:0:
256,192,63733,1,0,0:0:0:0:
256,192,63909,1,8,0:0:0:0:
256,192,64027,1,0,0:0:0:0:
256,192,64086,1,8,0:0:0:0:
256,192,64262,1,4,0:0:0:0:
256,192,64615,1,8,0:0:0:0:
256,192,64733,1,0,0:0:0:0:
256,192,64791,1,0,0:0:0:0:
256,192,64968,1,12,0:0:0:0:
256,192,65321,1,0,0:0:0:0:
256,192,65439,1,0,0:0:0:0:
256,192,65497,1,0,0:0:0:0:
256,192,65674,1,12,0:0:0:0:
256,192,65939,1,12,0:0:0:0:
256,192,66203,1,4,0:0:0:0:
256,192,66468,1,4,0:0:0:0:
256,192,66733,1,12,0:0:0:0:
256,192,67086,1,0,0:0:0:0:
256,192,67262,1,0,0:0:0:0:
256,192,67439,1,8,0:0:0:0:
256,192,67615,1,0,0:0:0:0:
256,192,67733,1,8,0:0:0:0:
256,192,67791,1,8,0:0:0:0:
256,192,67968,1,8,0:0:0:0:
256,192,68144,1,0,0:0:0:0:
256,192,68321,1,0,0:0:0:0:
256,192,68497,1,12,0:0:0:0:
256,192,68849,1,8,0:0:0:0:
256,192,69026,1,8,0:0:0:0:
256,192,69202,1,0,0:0:0:0:
256,192,69320,1,8,0:0:0:0:
256,192,69379,1,8,0:0:0:0:
256,192,69497,1,0,0:0:0:0:
256,192,69555,1,8,0:0:0:0:
256,192,69849,1,0,0:0:0:0:
256,192,70085,1,8,0:0:0:0:
256,192,70261,1,8,0:0:0:0:
256,192,70438,1,0,0:0:0:0:
256,192,70614,1,8,0:0:0:0:
256,192,70732,1,0,0:0:0:0:
256,192,70967,1,8,0:0:0:0:
256,192,71144,1,8,0:0:0:0:
256,192,71261,1,0,0:0:0:0:
256,192,71673,1,0,0:0:0:0:
256,192,71849,1,8,0:0:0:0:
256,192,71967,1,8,0:0:0:0:
256,192,72320,1,8,0:0:0:0:
256,192,72555,1,0,0:0:0:0:
256,192,72673,1,8,0:0:0:0:
256,192,73261,1,0,0:0:0:0:
256,192,73438,1,4,0:0:0:0:
256,192,73791,1,8,0:0:0:0:
256,192,73967,1,8,0:0:0:0:
256,192,74144,1,0,0:0:0:0:
256,192,74261,1,8,0:0:0:0:
256,192,74320,1,8,0:0:0:0:
256,192,74438,1,0,0:0:0:0:
256,192,74497,1,8,0:0:0:0:
256,192,74791,1,0,0:0:0:0:
256,192,75026,1,8,0:0:0:0:
256,192,75202,1,8,0:0:0:0:
256,192,75379,1,0,0:0:0:0:
256,192,75555,1,8,0:0:0:0:
256,192,75673,1,0,0:0:0:0:
256,192,75908,1,8,0:0:0:0:
256,192,76085,1,8,0:0:0:0:
256,192,76202,1,0,0:0:0:0:
256,192,76614,1,0,0:0:0:0:
256,192,76791,1,8,0:0:0:0:
256,192,76908,1,8,0:0:0:0:
256,192,77261,1,8,0:0:0:0:
256,192,77497,1,0,0:0:0:0:
256,192,77614,1,8,0:0:0:0:
256,192,78026,1,0,0:0:0:0:
256,192,78202,1,0,0:0:0:0:
256,192,78379,1,0,0:0:0:0:
256,192,78732,1,12,0:0:0:0:
256,192,78908,1,0,0:0:0:0:
256,192,78967,1,0,0:0:0:0:
256,192,79085,1,8,0:0:0:0:
256,192,79438,1,0,0:0:0:0:
256,192,79673,1,0,0:0:0:0:
256,192,79967,1,0,0:0:0:0:
256,192,80144,1,0,0:0:0:0:
256,192,80202,1,0,0:0:0:0:
256,192,80320,1,8,0:0:0:0:
256,192,80438,1,8,0:0:0:0:
256,192,80673,1,0,0:0:0:0:
256,192,80849,1,0,0:0:0:0:
256,192,80938,1,8,0:0:0:0:
256,192,81026,1,8,0:0:0:0:
256,192,81202,1,0,0:0:0:0:
256,192,81291,1,0,0:0:0:0:
256,192,81379,1,8,0:0:0:0:
256,192,81555,1,0,0:0:0:0:
256,192,81732,1,8,0:0:0:0:
256,192,81996,1,8,0:0:0:0:
256,192,82055,1,0,0:0:0:0:
256,192,82173,1,8,0:0:0:0:
256,192,82232,1,0,0:0:0:0:
256,192,82438,1,0,0:0:0:0:
256,192,82614,1,8,0:0:0:0:
256,192,82732,1,0,0:0:0:0:
256,192,82791,1,8,0:0:0:0:
256,192,82908,1,0,0:0:0:0:
256,192,83144,1,0,0:0:0:0:
256,192,83320,1,12,0:0:0:0:
256,192,83496,1,0,0:0:0:0:
256,192,83673,1,8,0:0:0:0:
256,192,83791,1,8,0:0:0:0:
256,192,83849,1,8,0:0:0:0:
256,192,83967,1,0,0:0:0:0:
256,192,84379,1,8,0:0:0:0:
256,192,84673,1,8,0:0:0:0:
256,192,85614,1,8,0:0:0:0:
256,192,85791,1,0,0:0:0:0:
256,192,86144,1,8,0:0:0:0:
256,192,86496,1,0,0:0:0:0:
256,192,86673,1,0,0:0:0:0:
256,192,86849,1,8,0:0:0:0:
256,192,86938,1,0,0:0:0:0:
256,192,87114,1,8,0:0:0:0:
256,192,87379,1,0,0:0:0:0:
256,192,87555,1,0,0:0:0:0:
256,192,87732,1,0,0:0:0:0:
256,192,87908,1,8,0:0:0:0:
256,192,88026,1,0,0:0:0:0:
256,192,88085,1,0,0:0:0:0:
256,192,88261,1,12,0:0:0:0:
256,192,88437,1,0,0:0:0:0:
256,192,88525,1,8,0:0:0:0:
256,192,88613,1,0,0:0:0:0:
256,192,88790,1,8,0:0:0:0:
256,192,88908,1,8,0:0:0:0:
256,192,89143,1,0,0:0:0:0:
256,192,89261,1,8,0:0:0:0:
256,192,89319,1,8,0:0:0:0:
256,192,89437,1,0,0:0:0:0:
256,192,89496,1,8,0:0:0:0:
256,192,89672,1,4,0:0:0:0:
256,192,89849,1,8,0:0:0:0:
256,192,89966,1,0,0:0:0:0:
256,192,90025,1,0,0:0:0:0:
256,192,90202,1,8,0:0:0:0:
256,192,90290,1,8,0:0:0:0:
256,192,90555,1,0,0:0:0:0:
256,192,90672,1,8,0:0:0:0:
256,192,90731,1,8,0:0:0:0:
256,192,90908,1,0,0:0:0:0:
256,192,91084,1,12,0:0:0:0:
256,192,91437,2,8,L|320:192,15,46.6666666666667
256,192,93353,1,4,0:0:0:0:
256,192,93643,1,4,0:0:0:0:
256,192,93908,1,12,0:0:0:0:
256,192,94261,2,8,L|320:192,18,46.6666666666667
256,192,96555,1,4,0:0:0:0:
256,192,96731,1,12,0:0:0:0:
256,192,97084,2,8,L|320:192,15,46.6666666666667
256,192,99000,1,4,0:0:0:0:
256,192,99290,1,4,0:0:0:0:
256,192,99555,1,12,0:0:0:0:
256,192,99908,2,8,L|320:192,15,46.6666666666667
256,192,102025,5,0,0:0:0:0:
256,192,102143,1,0,0:0:0:0:
256,192,102260,1,0,0:0:0:0:
256,192,102378,5,12,0:0:0:0:
256,192,103084,1,8,0:0:0:0:
256,192,103349,1,8,0:0:0:0:
256,192,103613,1,0,0:0:0:0:
256,192,103790,1,8,0:0:0:0:
256,192,104496,1,0,0:0:0:0:
256,192,104760,1,0,0:0:0:0:
256,192,105025,1,0,0:0:0:0:
256,192,105202,1,8,0:0:0:0:
256,192,105466,1,8,0:0:0:0:
256,192,105731,1,8,0:0:0:0:
256,192,105907,1,0,0:0:0:0:
256,192,106260,1,8,0:0:0:0:
256,192,106525,1,8,0:0:0:0:
256,192,106790,1,0,0:0:0:0:
256,192,106966,1,8,0:0:0:0:
256,192,107319,1,4,0:0:0:0:
256,192,107495,1,8,0:0:0:0:
256,192,107583,1,0,0:0:0:0:
256,192,107848,1,8,0:0:0:0:
256,192,108024,1,8,0:0:0:0:
256,192,108201,1,8,0:0:0:0:
256,192,108289,1,0,0:0:0:0:
256,192,108554,1,0,0:0:0:0:
256,192,108730,1,8,0:0:0:0:
256,192,108907,1,0,0:0:0:0:
256,192,108995,1,0,0:0:0:0:
256,192,109083,1,8,0:0:0:0:
256,192,109171,1,8,0:0:0:0:
256,192,109260,1,0,0:0:0:0:
256,192,109436,1,8,0:0:0:0:
256,192,109613,1,8,0:0:0:0:
256,192,109789,1,0,0:0:0:0:
256,192,110142,1,12,0:0:0:0:
256,192,110406,1,4,0:0:0:0:
256,192,110671,1,12,0:0:0:0:
256,192,110936,1,4,0:0:0:0:
256,192,111200,1,12,0:0:0:0:
256,192,111465,1,12,0:0:0:0:
256,192,111730,1,4,0:0:0:0:
256,192,111994,1,4,0:0:0:0:
256,192,112259,1,12,0:0:0:0:
256,192,112524,1,4,0:0:0:0:
256,192,112789,1,12,0:0:0:0:
256,192,113053,1,4,0:0:0:0:
256,192,113318,1,12,0:0:0:0:
256,192,113583,1,12,0:0:0:0:
256,192,113847,1,4,0:0:0:0:
256,192,114112,1,4,0:0:0:0:
256,192,114377,1,12,0:0:0:0:
256,192,114553,12,12,116847,0:0:0:0:
256,192,117200,5,0,0:0:0:0:
256,192,117376,1,8,0:0:0:0:
256,192,117552,1,8,0:0:0:0:
256,192,117729,1,0,0:0:0:0:
256,192,117905,1,8,0:0:0:0:
256,192,118082,1,8,0:0:0:0:
256,192,118258,1,0,0:0:0:0:
256,192,118435,1,0,0:0:0:0:
256,192,118611,1,8,0:0:0:0:
256,192,118788,1,8,0:0:0:0:
256,192,118964,1,0,0:0:0:0:
256,192,119317,1,0,0:0:0:0:
256,192,119376,1,0,0:0:0:0:
256,192,119494,1,8,0:0:0:0:
256,192,119847,5,12,0:0:0:0:
256,192,120141,1,8,0:0:0:0:
256,192,120199,1,0,0:0:0:0:
256,192,120376,1,8,0:0:0:0:
256,192,120552,1,0,0:0:0:0:
256,192,120670,1,8,0:0:0:0:
256,192,120729,1,0,0:0:0:0:
256,192,120905,1,8,0:0:0:0:
256,192,121082,1,0,0:0:0:0:
256,192,121199,1,8,0:0:0:0:
256,192,121258,1,0,0:0:0:0:
256,192,121376,1,8,0:0:0:0:
256,192,121435,1,8,0:0:0:0:
256,192,121611,1,0,0:0:0:0:
256,192,121788,1,8,0:0:0:0:
256,192,121905,1,0,0:0:0:0:
256,192,121964,1,8,0:0:0:0:
256,192,122082,1,0,0:0:0:0:
256,192,122141,1,0,0:0:0:0:
256,192,122317,1,8,0:0:0:0:
256,192,122611,1,8,0:0:0:0:
256,192,122670,1,0,0:0:0:0:
256,192,122847,1,8,0:0:0:0:
256,192,123023,1,0,0:0:0:0:
256,192,123141,1,8,0:0:0:0:
256,192,123199,1,0,0:0:0:0:
256,192,123376,1,8,0:0:0:0:
256,192,123552,1,0,0:0:0:0:
256,192,123670,1,8,0:0:0:0:
256,192,123729,1,0,0:0:0:0:
256,192,123847,1,8,0:0:0:0:
256,192,123905,1,8,0:0:0:0:
256,192,124082,1,0,0:0:0:0:
256,192,124258,1,8,0:0:0:0:
256,192,124376,1,0,0:0:0:0:
256,192,124435,1,8,0:0:0:0:
256,192,124552,1,0,0:0:0:0:
256,192,124611,1,0,0:0:0:0:
256,192,124788,1,12,0:0:0:0:
256,192,125082,1,8,0:0:0:0:
256,192,125141,1,0,0:0:0:0:
256,192,125317,1,8,0:0:0:0:
256,192,125494,1,0,0:0:0:0:
256,192,125611,1,8,0:0:0:0:
256,192,125670,1,8,0:0:0:0:
256,192,125847,1,0,0:0:0:0:
256,192,126023,1,8,0:0:0:0:
256,192,126141,1,0,0:0:0:0:
256,192,126199,1,8,0:0:0:0:
256,192,126317,1,0,0:0:0:0:
256,192,126376,1,0,0:0:0:0:
256,192,126552,1,8,0:0:0:0:
256,192,126729,1,0,0:0:0:0:
256,192,126847,1,8,0:0:0:0:
256,192,126905,1,8,0:0:0:0:
256,192,127023,1,0,0:0:0:0:
256,192,127082,1,0,0:0:0:0:
256,192,127258,1,8,0:0:0:0:
256,192,127552,1,8,0:0:0:0:
256,192,127611,1,0,0:0:0:0:
256,192,127788,1,8,0:0:0:0:
256,192,127964,1,0,0:0:0:0:
256,192,128082,1,8,0:0:0:0:
256,192,128141,1,8,0:0:0:0:
256,192,128317,1,0,0:0:0:0:
256,192,128494,1,8,0:0:0:0:
256,192,128611,1,0,0:0:0:0:
256,192,128670,1,8,0:0:0:0:
256,192,128788,1,0,0:0:0:0:
256,192,128847,1,0,0:0:0:0:
256,192,129023,1,8,0:0:0:0:
256,192,129199,1,0,0:0:0:0:
256,192,129317,1,8,0:0:0:0:
256,192,129376,1,8,0:0:0:0:
256,192,129494,1,0,0:0:0:0:
256,192,129552,1,0,0:0:0:0:
256,192,129905,1,0,0:0:0:0:
256,192,130082,1,12,0:0:0:0:
256,192,130611,1,12,0:0:0:0:
256,192,131141,1,12,0:0:0:0:
256,192,131670,1,12,0:0:0:0:
256,192,131847,1,4,0:0:0:0:
256,192,132199,1,12,0:0:0:0:
256,192,132494,1,8,0:0:0:0:
256,192,132552,1,0,0:0:0:0:
256,192,132729,1,8,0:0:0:0:
256,192,132905,1,0,0:0:0:0:
256,192,133023,1,8,0:0:0:0:
256,192,133082,1,0,0:0:0:0:
256,192,133258,1,8,0:0:0:0:
256,192,133435,1,0,0:0:0:0:
256,192,133552,1,8,0:0:0:0:
256,192,133611,1,0,0:0:0:0:
256,192,133729,1,8,0:0:0:0:
256,192,133788,1,8,0:0:0:0:
256,192,133964,1,0,0:0:0:0:
256,192,134141,1,8,0:0:0:0:
256,192,134258,1,0,0:0:0:0:
256,192,134317,1,8,0:0:0:0:
256,192,134435,1,0,0:0:0:0:
256,192,134494,1,0,0:0:0:0:
256,192,134670,1,12,0:0:0:0:
256,192,134964,1,8,0:0:0:0:
256,192,135023,1,0,0:0:0:0:
256,192,135199,1,8,0:0:0:0:
256,192,135376,1,0,0:0:0:0:
256,192,135494,1,8,0:0:0:0:
256,192,135552,1,8,0:0:0:0:
256,192,135729,1,0,0:0:0:0:
256,192,135905,1,8,0:0:0:0:
256,192,136023,1,0,0:0:0:0:
256,192,136082,1,8,0:0:0:0:
256,192,136199,1,0,0:0:0:0:
256,192,136258,1,0,0:0:0:0:
256,192,136435,1,8,0:0:0:0:
256,192,136611,1,0,0:0:0:0:
256,192,136729,1,8,0:0:0:0:
256,192,136788,1,8,0:0:0:0:
256,192,136905,1,0,0:0:0:0:
256,192,136964,1,0,0:0:0:0:
256,192,137141,1,8,0:0:0:0:
256,192,137435,1,8,0:0:0:0:
256,192,137494,1,0,0:0:0:0:
256,192,137670,1,8,0:0:0:0:
256,192,137847,1,0,0:0:0:0:
256,192,137964,1,8,0:0:0:0:
256,192,138023,1,8,0:0:0:0:
256,192,138199,1,0,0:0:0:0:
256,192,138376,1,8,0:0:0:0:
256,192,138494,1,0,0:0:0:0:
256,192,138552,1,8,0:0:0:0:
256,192,138670,1,0,0:0:0:0:
256,192,138729,1,0,0:0:0:0:
256,192,138905,1,8,0:0:0:0:
256,192,139082,1,0,0:0:0:0:
256,192,139199,1,8,0:0:0:0:
256,192,139258,1,8,0:0:0:0:
256,192,139376,1,0,0:0:0:0:
256,192,139435,1,0,0:0:0:0:
256,192,139611,1,8,0:0:0:0:
256,192,139699,1,8,0:0:0:0:
256,192,139787,1,0,0:0:0:0:
256,192,139875,1,0,0:0:0:0:
256,192,139963,1,8,0:0:0:0:
256,192,140316,1,0,0:0:0:0:
256,192,140434,1,8,0:0:0:0:
256,192,140493,1,0,0:0:0:0:
256,192,140611,1,12,0:0:0:0:
256,192,140846,1,0,0:0:0:0:
256,192,141022,1,0,0:0:0:0:
256,192,141140,1,12,0:0:0:0:
256,192,141316,1,0,0:0:0:0:
256,192,141375,1,8,0:0:0:0:
256,192,141493,1,0,0:0:0:0:
256,192,141552,1,0,0:0:0:0:
256,192,141728,1,8,0:0:0:0:
256,192,141905,1,8,0:0:0:0:
256,192,142081,1,0,0:0:0:0:
256,192,142199,1,0,0:0:0:0:
256,192,142258,1,0,0:0:0:0:
256,192,142375,1,12,0:0:0:0:
256,192,142611,1,12,0:0:0:0:
