osu file format v14

[General]
AudioFilename: shounenDoKo150BPMDoKo160BPMDoKo170BPMDoKo180BPM.mp3
AudioLeadIn: 0
PreviewTime: 81916
Countdown: 1
SampleSet: None
StackLeniency: 0.7
Mode: 0
LetterboxInBreaks: 1
WidescreenStoryboard: 1

[Editor]
DistanceSpacing: 1
BeatDivisor: 12
GridSize: 4
TimelineZoom: 2.1

[Metadata]
Title:Shounen wa Sora wo Tadoru Prog Piano Remix
TitleUnicode:少年は空を辿る Prog Piano Remix
Artist:Toromaru
ArtistUnicode:とろまる
Creator:DoKito
Version:DoKo180BPM
Source:
Tags:
BeatmapID:2163981
BeatmapSetID:1035001

[Difficulty]
HPDrainRate:6
CircleSize:5
OverallDifficulty:9.5
ApproachRate:9.8
SliderMultiplier:1.9
SliderTickRate:1

[Events]
//Background and Video events
0,0,"27795119_p0.jpg",0,0
//Break Periods
//Storyboard Layer 0 (Background)
//Storyboard Layer 1 (Fail)
//Storyboard Layer 2 (Pass)
//Storyboard Layer 3 (Foreground)
//Storyboard Layer 4 (Overlay)
//Storyboard Sound Samples

[TimingPoints]
1104,333.3333,4,1,1,70,1,0
1266,-62.5,4,1,1,70,0,0
8746,-50,4,1,1,70,0,0
9884,-500,4,1,1,70,0,0
12811,-100,4,1,1,70,0,0
18989,-100,4,1,1,70,0,1
21591,-100,7,1,1,70,0,0
46959,-66.66666,7,1,1,70,0,0
48098,-50,7,1,1,70,0,0
49235,-100,7,1,1,70,0,0
49275,-50,7,2,1,5,0,0
49886,-50,7,2,1,15,0,0
50048,-50,7,2,1,25,0,0
50210,-50,7,2,1,35,0,0
50373,-50,7,2,1,45,0,0
50537,-100,7,1,1,55,0,0
50862,-100,7,1,1,65,0,0
51185,-100,7,1,1,75,0,0
51512,-100,7,1,1,85,0,0
51836,-100,7,2,1,70,0,0
56390,-263.1579,7,2,1,70,0,0
57039,-100,7,2,1,70,0,0
62240,-38.46154,4,1,1,70,0,1
67448,-100,4,1,1,64,0,1
77959,-200,4,1,1,64,0,0

[HitObjects]
115,127,453,6,0,P|89:128|64:137,5,31.66667
111,194,779,1,0,0:0:0:0:
118,224,832,1,0,0:0:0:0:
117,256,887,1,0,0:0:0:0:
106,286,940,1,0,0:0:0:0:
88,311,994,1,0,0:0:0:0:
63,331,1049,1,0,0:0:0:0:
34,343,1103,5,0,0:0:0:0:
26,270,1184,1,0,0:0:0:0:
18,196,1266,2,0,B|63:181|99:196|99:196|148:214|197:197,1,152
291,348,1511,2,0,B|246:333|210:348|210:348|161:366|112:349,1,152
25,231,1753,5,0,0:0:0:0:
56,161,1834,1,0,0:0:0:0:
127,188,1917,2,0,B|205:200|205:200|279:176,1,152
448,286,2160,2,0,B|370:274|370:274|296:298,1,152
134,372,2404,5,0,0:0:0:0:
65,337,2486,1,0,0:0:0:0:
115,280,2567,2,0,P|178:229|177:157,1,152
320,61,2810,2,0,P|375:109|448:98,1,152
494,215,3055,5,0,0:0:0:0:
471,287,3136,1,0,0:0:0:0:
401,257,3218,2,0,B|364:243|364:243|316:282|252:260,1,152
17,201,3461,2,0,B|54:215|54:215|102:176|166:198,1,152
372,134,3706,5,0,0:0:0:0:
443,109,3787,1,0,0:0:0:0:
380,65,3867,2,0,B|240:42|240:42|228:47|239:55,1,152
30,174,4111,2,0,B|170:151|170:151|182:156|171:164,1,152
394,242,4355,5,0,0:0:0:0:
469,231,4438,1,0,0:0:0:0:
441,301,4518,1,0,0:0:0:0:
421,182,4599,2,0,P|426:162|439:148,2,38
441,317,4762,1,0,0:0:0:0:
420,166,4844,2,0,L|546:206,1,114
511,222,5006,5,0,0:0:0:0:
194,149,5086,1,0,0:0:0:0:
178,148,5250,5,0,0:0:0:0:
178,148,5331,1,0,0:0:0:0:
194,149,5494,5,0,0:0:0:0:
462,113,5575,1,0,0:0:0:0:
477,113,5737,5,0,0:0:0:0:
477,113,5818,1,0,0:0:0:0:
462,113,5901,5,0,0:0:0:0:
314,327,5982,1,0,0:0:0:0:
308,341,6145,5,0,0:0:0:0:
308,341,6225,1,0,0:0:0:0:
314,327,6388,5,0,0:0:0:0:
63,253,6469,1,0,0:0:0:0:
48,249,6551,5,0,0:0:0:0:
48,249,6633,1,0,0:0:0:0:
63,253,6714,5,0,0:0:0:0:
350,206,6794,1,0,0:0:0:0:
365,205,6957,5,0,0:0:0:0:
365,205,7039,1,0,0:0:0:0:
350,206,7201,5,0,0:0:0:0:
55,150,7282,1,0,0:0:0:0:
39,149,7445,5,0,0:0:0:0:
39,149,7526,1,0,0:0:0:0:
66,83,7608,6,0,P|127:92|150:49,1,114
212,9,7770,2,0,L|225:126,1,114
235,196,7932,1,0,0:0:0:0:
235,196,8013,2,0,L|247:82,1,114
321,95,8177,2,0,P|369:120|428:111,1,114
383,36,8340,1,0,0:0:0:0:
383,36,8421,2,0,B|376:95|376:95|383:151,1,114
412,215,8583,5,0,0:0:0:0:
323,235,8664,1,0,0:0:0:0:
210,259,8746,6,0,P|170:236|160:141,1,142.5
240,112,8909,2,0,P|280:135|290:230,1,142.5
278,311,9071,1,0,0:0:0:0:
278,311,9152,2,0,L|419:348,1,142.5
468,285,9316,2,0,P|426:241|483:211,1,142.5
460,137,9478,1,0,0:0:0:0:
460,137,9560,2,0,P|390:167|359:224,1,142.5
283,205,9721,5,0,0:0:0:0:
189,190,9802,1,0,0:0:0:0:
228,242,9884,6,0,P|217:307|148:344,1,147.25
120,333,11185,5,0,0:0:0:0:
91,295,11267,1,0,0:0:0:0:
102,248,11347,1,0,0:0:0:0:
114,202,11428,1,0,0:0:0:0:
88,161,11510,1,0,0:0:0:0:
54,127,11592,1,0,0:0:0:0:
79,87,11673,1,0,0:0:0:0:
125,75,11755,1,0,0:0:0:0:
153,112,11836,1,0,0:0:0:0:
193,136,11916,1,0,0:0:0:0:
238,121,11998,1,0,0:0:0:0:
258,163,12079,1,0,0:0:0:0:
238,206,12161,1,0,0:0:0:0:
273,237,12243,1,0,0:0:0:0:
299,276,12323,1,0,0:0:0:0:
297,323,12404,1,0,0:0:0:0:
342,334,12486,1,0,0:0:0:0:
379,304,12567,1,0,0:0:0:0:
374,256,12648,1,0,0:0:0:0:
419,242,12730,1,0,0:0:0:0:
461,263,12811,6,0,B|478:276|478:276|487:306,3,47.5
445,178,13135,2,0,B|469:191|469:191|492:198,3,47.5
389,132,13462,5,0,0:0:0:0:
341,127,13543,1,0,0:0:0:0:
293,122,13623,1,0,0:0:0:0:
245,118,13706,1,0,0:0:0:0:
197,114,13786,1,0,0:0:0:0:
245,118,13868,1,0,0:0:0:0:
293,122,13950,1,0,0:0:0:0:
341,127,14031,1,0,0:0:0:0:
388,132,14112,5,0,0:0:0:0:
431,193,14193,1,0,0:0:0:0:
371,239,14274,1,0,0:0:0:0:
416,299,14355,1,0,0:0:0:0:
362,352,14438,1,0,0:0:0:0:
362,352,14600,5,0,0:0:0:0:
312,293,14682,1,0,0:0:0:0:
326,218,14762,1,0,0:0:0:0:
254,244,14843,1,0,0:0:0:0:
272,170,14924,1,0,0:0:0:0:
272,170,15088,5,0,0:0:0:0:
299,99,15170,1,0,0:0:0:0:
224,114,15250,1,0,0:0:0:0:
201,186,15330,1,0,0:0:0:0:
249,244,15413,1,0,0:0:0:0:
249,244,15575,5,0,0:0:0:0:
290,307,15657,1,0,0:0:0:0:
324,239,15738,1,0,0:0:0:0:
364,303,15820,1,0,0:0:0:0:
400,236,15901,1,0,0:0:0:0:
400,236,16062,5,0,0:0:0:0:
472,214,16145,1,0,0:0:0:0:
430,150,16226,1,0,0:0:0:0:
356,169,16307,1,0,0:0:0:0:
380,96,16389,1,0,0:0:0:0:
380,96,16550,5,0,0:0:0:0:
304,90,16632,1,0,0:0:0:0:
242,134,16714,1,0,0:0:0:0:
309,168,16795,1,0,0:0:0:0:
247,212,16877,1,0,0:0:0:0:
247,212,17038,5,0,0:0:0:0:
184,254,17120,1,0,0:0:0:0:
116,219,17201,1,0,0:0:0:0:
123,295,17283,1,0,0:0:0:0:
195,327,17365,1,0,0:0:0:0:
195,327,17527,5,0,0:0:0:0:
269,340,17608,1,0,0:0:0:0:
243,267,17689,1,0,0:0:0:0:
166,256,17770,1,0,0:0:0:0:
120,319,17852,1,0,0:0:0:0:
120,319,18015,5,0,0:0:0:0:
88,246,18097,1,0,0:0:0:0:
135,184,18176,1,0,0:0:0:0:
214,196,18257,1,0,0:0:0:0:
166,259,18340,1,0,0:0:0:0:
166,259,18502,5,0,0:0:0:0:
162,183,18584,1,0,0:0:0:0:
203,119,18665,1,0,0:0:0:0:
239,185,18746,1,0,0:0:0:0:
230,261,18828,2,0,P|253:301|289:317,1,71.25
324,328,18990,5,0,0:0:0:0:
54,251,19153,1,0,0:0:0:0:
299,146,19396,5,0,0:0:0:0:
36,43,19560,1,0,0:0:0:0:
334,8,19722,1,0,0:0:0:0:
436,353,19965,5,0,0:0:0:0:
78,303,20129,5,0,0:0:0:0:
267,248,20210,1,0,0:0:0:0:
63,187,20292,1,0,0:0:0:0:
255,25,20453,5,0,0:0:0:0:
463,353,20697,5,0,0:0:0:0:
137,325,20860,1,0,0:0:0:0:
416,65,21103,5,0,0:0:0:0:
416,65,21267,1,0,0:0:0:0:
416,65,21429,1,0,0:0:0:0:
416,65,21511,1,0,0:0:0:0:
378,140,21591,5,0,0:0:0:0:
350,178,21672,1,0,0:0:0:0:
308,200,21755,1,0,0:0:0:0:
260,203,21836,1,0,0:0:0:0:
216,185,21917,1,0,0:0:0:0:
183,150,21999,1,0,0:0:0:0:
139,130,22080,1,0,0:0:0:0:
91,129,22161,1,0,0:0:0:0:
91,129,22323,5,0,0:0:0:0:
60,176,22405,1,0,0:0:0:0:
63,232,22487,1,0,0:0:0:0:
102,273,22568,1,0,0:0:0:0:
156,288,22649,1,0,0:0:0:0:
212,278,22730,1,0,0:0:0:0:
257,243,22811,1,0,0:0:0:0:
257,243,22974,5,0,0:0:0:0:
202,204,23056,1,0,0:0:0:0:
187,139,23137,1,0,0:0:0:0:
214,78,23219,1,0,0:0:0:0:
281,77,23298,1,0,0:0:0:0:
329,122,23380,1,0,0:0:0:0:
343,186,23462,1,0,0:0:0:0:
369,246,23544,1,0,0:0:0:0:
430,271,23624,1,0,0:0:0:0:
491,244,23706,1,0,0:0:0:0:
509,180,23787,1,0,0:0:0:0:
476,121,23868,5,0,0:0:0:0:
429,112,23950,1,0,0:0:0:0:
395,145,24030,1,0,0:0:0:0:
401,191,24112,1,0,0:0:0:0:
437,221,24194,1,0,0:0:0:0:
453,265,24276,1,0,0:0:0:0:
445,311,24356,1,0,0:0:0:0:
406,339,24437,1,0,0:0:0:0:
406,339,24599,5,0,0:0:0:0:
349,331,24682,1,0,0:0:0:0:
305,293,24763,1,0,0:0:0:0:
287,238,24844,1,0,0:0:0:0:
252,192,24926,1,0,0:0:0:0:
200,166,25006,1,0,0:0:0:0:
143,166,25088,1,0,0:0:0:0:
143,166,25251,5,0,0:0:0:0:
133,231,25332,1,0,0:0:0:0:
167,287,25414,1,0,0:0:0:0:
229,310,25494,1,0,0:0:0:0:
294,293,25575,1,0,0:0:0:0:
339,244,25657,1,0,0:0:0:0:
398,215,25738,1,0,0:0:0:0:
461,235,25819,1,0,0:0:0:0:
462,239,25901,1,0,0:0:0:0:
463,243,25983,1,0,0:0:0:0:
464,247,26064,1,0,0:0:0:0:
472,313,26145,5,0,0:0:0:0:
412,360,26225,1,0,0:0:0:0:
348,318,26306,1,0,0:0:0:0:
273,303,26390,1,0,0:0:0:0:
207,341,26471,1,0,0:0:0:0:
140,303,26551,1,0,0:0:0:0:
136,227,26633,1,0,0:0:0:0:
90,165,26713,1,0,0:0:0:0:
90,165,26958,1,0,0:0:0:0:
90,165,27121,1,0,0:0:0:0:
90,165,27283,5,0,0:0:0:0:
132,216,27364,1,0,0:0:0:0:
198,209,27445,1,0,0:0:0:0:
238,261,27527,1,0,0:0:0:0:
303,270,27609,1,0,0:0:0:0:
350,224,27690,1,0,0:0:0:0:
345,157,27771,1,0,0:0:0:0:
385,103,27852,1,0,0:0:0:0:
385,103,28097,1,0,0:0:0:0:
385,103,28259,1,0,0:0:0:0:
385,103,28420,5,0,0:0:0:0:
413,170,28502,1,0,0:0:0:0:
371,230,28584,1,0,0:0:0:0:
303,199,28666,1,0,0:0:0:0:
231,216,28746,1,0,0:0:0:0:
185,273,28828,1,0,0:0:0:0:
118,301,28910,1,0,0:0:0:0:
64,273,28990,1,0,0:0:0:0:
64,273,29234,1,0,0:0:0:0:
64,273,29398,1,0,0:0:0:0:
64,273,29559,5,0,0:0:0:0:
43,209,29640,1,0,0:0:0:0:
92,164,29722,1,0,0:0:0:0:
155,186,29805,1,0,0:0:0:0:
210,149,29885,1,0,0:0:0:0:
210,82,29966,1,0,0:0:0:0:
241,24,30048,1,0,0:0:0:0:
312,36,30128,1,0,0:0:0:0:
312,36,30373,1,0,0:0:0:0:
312,36,30536,5,0,0:0:0:0:
369,69,30617,1,0,0:0:0:0:
346,131,30697,1,0,0:0:0:0:
394,176,30779,1,0,0:0:0:0:
382,241,30860,1,0,0:0:0:0:
382,241,31024,1,0,0:0:0:0:
71,306,31186,1,0,0:0:0:0:
71,306,31347,1,0,0:0:0:0:
435,350,31512,1,0,0:0:0:0:
435,350,31673,1,0,0:0:0:0:
157,72,31836,5,0,0:0:0:0:
136,142,31917,1,0,0:0:0:0:
214,127,31999,1,0,0:0:0:0:
74,84,32080,1,0,0:0:0:0:
189,212,32161,1,0,0:0:0:0:
189,212,32325,1,0,0:0:0:0:
459,179,32486,1,0,0:0:0:0:
459,179,32812,5,0,0:0:0:0:
413,282,32974,1,0,0:0:0:0:
360,291,33055,1,0,0:0:0:0:
270,107,33219,1,0,0:0:0:0:
323,116,33300,1,0,0:0:0:0:
285,177,33381,1,0,0:0:0:0:
232,186,33463,1,0,0:0:0:0:
29,266,33624,5,0,0:0:0:0:
82,275,33706,1,0,0:0:0:0:
254,365,33868,1,0,0:0:0:0:
307,356,33950,1,0,0:0:0:0:
487,248,34112,5,0,0:0:0:0:
487,248,34194,1,0,0:0:0:0:
506,151,34356,1,0,0:0:0:0:
506,151,34439,1,0,0:0:0:0:
416,184,34600,1,0,0:0:0:0:
416,184,34681,1,0,0:0:0:0:
207,204,34804,5,0,0:0:0:0:
207,204,34844,1,0,0:0:0:0:
254,154,34966,1,0,0:0:0:0:
254,154,35007,1,0,0:0:0:0:
187,138,35128,1,0,0:0:0:0:
187,138,35170,1,0,0:0:0:0:
387,49,35332,5,0,0:0:0:0:
325,59,35413,1,0,0:0:0:0:
396,47,35576,1,0,0:0:0:0:
315,60,35658,1,0,0:0:0:0:
408,45,35819,1,0,0:0:0:0:
303,62,35901,1,0,0:0:0:0:
470,23,36064,5,0,0:0:0:0:
239,54,36183,1,0,0:0:0:0:
418,194,36305,5,0,0:0:0:0:
356,208,36389,2,0,L|283:225,1,71.25
262,227,36551,5,0,0:0:0:0:
214,224,36634,1,0,0:0:0:0:
166,221,36715,1,0,0:0:0:0:
118,218,36795,1,0,0:0:0:0:
70,215,36877,1,0,0:0:0:0:
116,207,36958,1,0,0:0:0:0:
162,199,37039,1,0,0:0:0:0:
208,192,37121,1,0,0:0:0:0:
208,192,37283,5,0,0:0:0:0:
167,151,37366,1,0,0:0:0:0:
127,110,37447,1,0,0:0:0:0:
86,69,37527,1,0,0:0:0:0:
140,86,37608,1,0,0:0:0:0:
194,103,37689,1,0,0:0:0:0:
248,120,37772,1,0,0:0:0:0:
248,120,37934,5,0,0:0:0:0:
314,126,38015,1,0,0:0:0:0:
380,132,38096,1,0,0:0:0:0:
445,139,38178,1,0,0:0:0:0:
379,149,38259,1,0,0:0:0:0:
312,159,38341,1,0,0:0:0:0:
246,169,38422,1,0,0:0:0:0:
180,180,38503,1,0,0:0:0:0:
245,188,38585,1,0,0:0:0:0:
310,196,38665,5,0,0:0:0:0:
317,197,38788,1,0,0:0:0:0:
324,198,38910,5,0,0:0:0:0:
328,198,38990,1,0,0:0:0:0:
332,198,39073,1,0,0:0:0:0:
397,205,39154,5,0,0:0:0:0:
378,248,39234,1,0,0:0:0:0:
359,291,39316,1,0,0:0:0:0:
341,335,39396,1,0,0:0:0:0:
323,379,39479,1,0,0:0:0:0:
314,332,39561,1,0,0:0:0:0:
305,285,39642,1,0,0:0:0:0:
296,238,39722,1,0,0:0:0:0:
296,238,39885,5,0,0:0:0:0:
351,225,39966,1,0,0:0:0:0:
407,213,40049,1,0,0:0:0:0:
462,201,40129,1,0,0:0:0:0:
405,193,40210,1,0,0:0:0:0:
348,185,40292,1,0,0:0:0:0:
291,177,40373,1,0,0:0:0:0:
291,177,40535,5,0,0:0:0:0:
226,194,40617,1,0,0:0:0:0:
162,211,40698,1,0,0:0:0:0:
98,229,40781,1,0,0:0:0:0:
155,196,40861,1,0,0:0:0:0:
212,163,40941,1,0,0:0:0:0:
269,130,41023,1,0,0:0:0:0:
326,97,41104,1,0,0:0:0:0:
261,115,41186,1,0,0:0:0:0:
197,133,41268,5,0,0:0:0:0:
190,135,41389,1,0,0:0:0:0:
183,137,41511,5,0,0:0:0:0:
178,138,41592,1,0,0:0:0:0:
173,139,41673,1,0,0:0:0:0:
173,139,43056,5,0,0:0:0:0:
150,180,43137,1,0,0:0:0:0:
171,222,43218,1,0,0:0:0:0:
218,222,43300,1,0,0:0:0:0:
233,266,43381,1,0,0:0:0:0:
201,302,43463,1,0,0:0:0:0:
223,343,43544,1,0,0:0:0:0:
268,356,43625,1,0,0:0:0:0:
304,325,43708,1,0,0:0:0:0:
350,332,43787,1,0,0:0:0:0:
389,357,43868,5,0,0:0:0:0:
393,351,43991,1,0,0:0:0:0:
397,345,44113,5,0,0:0:0:0:
399,341,44195,1,0,0:0:0:0:
401,337,44276,1,0,0:0:0:0:
428,277,44356,5,0,0:0:0:0:
435,230,44438,1,0,0:0:0:0:
442,183,44519,1,0,0:0:0:0:
449,135,44601,1,0,0:0:0:0:
457,88,44683,1,0,0:0:0:0:
434,129,44764,1,0,0:0:0:0:
411,170,44844,1,0,0:0:0:0:
388,211,44926,1,0,0:0:0:0:
388,211,45088,5,0,0:0:0:0:
330,217,45171,1,0,0:0:0:0:
273,224,45251,1,0,0:0:0:0:
216,231,45332,1,0,0:0:0:0:
269,210,45415,1,0,0:0:0:0:
322,190,45495,1,0,0:0:0:0:
375,175,45576,1,0,0:0:0:0:
375,175,45739,5,0,0:0:0:0:
347,235,45821,1,0,0:0:0:0:
319,295,45903,1,0,0:0:0:0:
292,355,45983,1,0,0:0:0:0:
300,289,46063,1,0,0:0:0:0:
308,223,46145,1,0,0:0:0:0:
316,157,46227,1,0,0:0:0:0:
325,90,46308,1,0,0:0:0:0:
297,150,46390,1,0,0:0:0:0:
269,210,46471,5,0,0:0:0:0:
265,216,46593,1,0,0:0:0:0:
262,222,46714,5,0,0:0:0:0:
260,226,46795,1,0,0:0:0:0:
258,230,46878,1,0,0:0:0:0:
230,290,46959,6,0,L|120:305,1,106.875
81,308,47122,2,0,L|191:293,1,106.875
227,279,47283,1,0,0:0:0:0:
308,251,47365,2,0,P|367:235|409:201,1,106.875
403,163,47528,2,0,P|372:216|366:269,1,106.875
377,302,47691,1,0,0:0:0:0:
454,337,47771,2,0,P|466:296|457:263,1,71.25
401,206,47934,5,0,0:0:0:0:
302,183,48016,1,0,0:0:0:0:
190,207,48098,6,0,B|108:217|108:217|41:209,1,142.5
26,136,48259,2,0,B|108:146|108:146|175:138,1,142.5
243,126,48422,1,0,0:0:0:0:
368,41,48503,2,0,P|401:82|497:83,1,142.5
463,163,48666,2,0,P|391:153|335:111,1,142.5
280,60,48830,1,0,0:0:0:0:
269,135,48909,1,0,0:0:0:0:
258,210,48990,1,0,0:0:0:0:
248,285,49072,5,0,0:0:0:0:
379,240,49154,1,0,0:0:0:0:
132,137,49235,6,0,L|92:131,23,31.66667
162,200,50537,5,0,0:0:0:0:
160,212,50590,1,0,0:0:0:0:
162,224,50645,1,0,0:0:0:0:
156,235,50698,1,0,0:0:0:0:
158,253,50753,1,0,0:0:0:0:
148,269,50806,1,0,0:0:0:0:
159,284,50862,1,0,0:0:0:0:
139,299,50916,1,0,0:0:0:0:
154,319,50970,1,0,0:0:0:0:
140,340,51025,1,0,0:0:0:0:
163,361,51077,1,0,0:0:0:0:
194,366,51132,1,0,0:0:0:0:
219,347,51185,1,0,0:0:0:0:
257,347,51241,1,0,0:0:0:0:
282,319,51295,1,0,0:0:0:0:
319,323,51349,1,0,0:0:0:0:
356,347,51404,1,0,0:0:0:0:
399,340,51457,1,0,0:0:0:0:
417,299,51512,1,0,0:0:0:0:
381,263,51565,1,0,0:0:0:0:
361,215,51620,1,0,0:0:0:0:
388,172,51674,1,0,0:0:0:0:
442,156,51729,1,0,0:0:0:0:
484,194,51783,1,0,0:0:0:0:
478,250,51836,5,0,0:0:0:0:
440,255,52000,1,0,0:0:0:0:
402,261,52162,1,0,0:0:0:0:
364,267,52324,1,0,0:0:0:0:
326,266,52487,1,0,0:0:0:0:
287,265,52650,1,0,0:0:0:0:
221,220,52813,2,0,L|190:228,1,23.75
295,183,52975,2,0,L|326:191,1,23.75
222,136,53138,6,0,L|191:144,1,23.75
299,97,53300,1,0,0:0:0:0:
336,91,53463,1,0,0:0:0:0:
373,85,53625,1,0,0:0:0:0:
448,121,53788,6,0,L|485:129,1,23.75
382,166,53952,1,0,0:0:0:0:
376,203,54112,1,0,0:0:0:0:
370,240,54277,1,0,0:0:0:0:
395,310,54439,6,0,L|419:329,1,23.75
323,299,54600,1,0,0:0:0:0:
285,302,54763,1,0,0:0:0:0:
247,305,54927,1,0,0:0:0:0:
209,308,55089,1,0,0:0:0:0:
171,311,55252,1,0,0:0:0:0:
103,278,55415,6,0,L|66:274,1,23.75
165,232,55577,1,0,0:0:0:0:
104,185,55739,6,0,L|67:181,1,23.75
173,147,55902,1,0,0:0:0:0:
210,143,56065,1,0,0:0:0:0:
247,139,56227,1,0,0:0:0:0:
312,176,56390,6,0,L|339:180,5,24.06667
247,217,57039,5,0,0:0:0:0:
236,253,57122,1,0,0:0:0:0:
242,290,57204,1,0,0:0:0:0:
217,319,57284,1,0,0:0:0:0:
180,330,57366,1,0,0:0:0:0:
144,315,57446,1,0,0:0:0:0:
110,333,57527,1,0,0:0:0:0:
18,241,57691,5,0,0:0:0:0:
54,228,57772,1,0,0:0:0:0:
86,247,57854,1,0,0:0:0:0:
214,204,58016,5,0,0:0:0:0:
214,204,58097,1,0,0:0:0:0:
262,256,58178,1,0,0:0:0:0:
262,256,58260,1,0,0:0:0:0:
321,213,58342,1,0,0:0:0:0:
357,204,58422,1,0,0:0:0:0:
393,214,58504,1,0,0:0:0:0:
503,132,58666,5,0,0:0:0:0:
472,109,58747,1,0,0:0:0:0:
434,115,58829,1,0,0:0:0:0:
317,36,58992,5,0,0:0:0:0:
279,44,59074,1,0,0:0:0:0:
258,75,59153,1,0,0:0:0:0:
299,267,59317,5,0,0:0:0:0:
318,234,59399,1,0,0:0:0:0:
310,196,59479,1,0,0:0:0:0:
169,106,59642,5,0,0:0:0:0:
160,133,59723,1,0,0:0:0:0:
162,161,59805,1,0,0:0:0:0:
266,244,59967,5,0,0:0:0:0:
271,216,60049,1,0,0:0:0:0:
259,189,60130,1,0,0:0:0:0:
180,140,60292,5,0,0:0:0:0:
177,158,60373,1,0,0:0:0:0:
178,176,60454,1,0,0:0:0:0:
251,152,60618,5,0,0:0:0:0:
253,133,60699,1,0,0:0:0:0:
250,114,60781,1,0,0:0:0:0:
210,203,60942,5,0,0:0:0:0:
297,190,61051,1,0,0:0:0:0:
225,142,61160,1,0,0:0:0:0:
261,249,61269,1,0,0:0:0:0:
290,123,61376,1,0,0:0:0:0:
165,255,61486,1,0,0:0:0:0:
374,169,61593,1,0,0:0:0:0:
187,112,61701,1,0,0:0:0:0:
331,299,61810,1,0,0:0:0:0:
309,86,61919,1,0,0:0:0:0:
239,341,62027,1,0,0:0:0:0:
238,46,62135,1,0,0:0:0:0:
150,288,62244,6,0,B|114:366|114:366|111:348|101:330,1,123.5
70,264,62353,2,0,L|23:146,1,123.5
83,102,62460,2,0,L|128:216,1,123.5
179,275,62568,2,0,P|243:281|309:253,1,123.5
301,186,62678,2,0,P|243:165|182:171,1,123.5
119,210,62785,1,0,0:0:0:0:
111,241,62840,1,0,0:0:0:0:
103,273,62894,6,0,B|198:302|198:302|223:295,1,123.5
254,357,63002,2,0,L|377:323,1,123.5
414,242,63112,2,0,L|294:274,1,123.5
238,227,63219,2,0,B|203:163|203:163|192:138|196:109,1,123.5
243,48,63328,2,0,P|312:39|360:64,1,123.5
409,117,63436,1,0,0:0:0:0:
438,131,63490,1,0,0:0:0:0:
471,132,63545,6,0,L|489:258,1,123.5
398,317,63653,2,0,L|415:194,1,123.5
352,146,63762,2,0,P|317:90|259:69,1,123.5
185,112,63869,2,0,P|129:136|98:188,1,123.5
148,268,63978,1,0,0:0:0:0:
176,279,64033,1,0,0:0:0:0:
210,277,64087,2,0,P|244:251|257:215,1,82.33333
180,191,64196,6,0,L|151:319,1,123.5
69,373,64303,2,0,L|41:252,1,123.5
45,159,64413,2,0,P|77:86|126:69,1,123.5
213,36,64521,2,0,L|345:50,1,123.5
422,81,64628,1,0,0:0:0:0:
428,113,64683,1,0,0:0:0:0:
433,145,64736,2,0,L|446:229,1,82.33333
453,325,64845,6,0,L|431:181,1,123.5
359,148,64954,2,0,P|303:127|230:144,1,123.5
163,202,65062,2,0,P|102:212|45:191,1,123.5
75,95,65171,2,0,L|108:218,1,123.5
159,128,65280,2,0,L|191:8,1,123.5
265,26,65387,1,0,0:0:0:0:
296,36,65441,1,0,0:0:0:0:
328,37,65495,6,0,P|379:57|366:117,1,123.5
272,134,65604,2,0,P|250:184|301:217,1,123.5
411,213,65712,2,0,P|432:263|381:296,1,123.5
293,321,65821,2,0,L|166:350,1,123.5
48,297,65929,2,0,L|168:269,1,123.5
243,204,66038,1,0,0:0:0:0:
250,172,66092,1,0,0:0:0:0:
257,140,66146,6,0,B|327:109|327:109|379:114,1,123.5
460,227,66255,2,0,B|396:184|396:184|344:180,1,123.5
255,290,66363,2,0,B|321:251|321:251|373:251,1,123.5
445,327,66472,2,0,P|476:272|459:209,1,123.5
389,140,66580,1,0,0:0:0:0:
358,128,66634,1,0,0:0:0:0:
325,131,66689,1,0,0:0:0:0:
300,152,66743,1,0,0:0:0:0:
290,183,66796,6,0,L|276:317,1,123.5
276,323,66905,2,0,L|288:200,1,123.5
290,183,67014,2,0,L|276:317,1,123.5
276,323,67122,2,0,L|288:200,1,123.5
290,183,67230,2,0,L|276:317,1,123.5
276,323,67338,2,0,L|288:200,1,123.5
261,116,67448,5,0,0:0:0:0:
194,62,67528,1,0,0:0:0:0:
108,58,67610,1,0,0:0:0:0:
30,94,67690,5,0,0:0:0:0:
69,158,67772,1,0,0:0:0:0:
143,170,67854,1,0,0:0:0:0:
211,136,67935,5,0,0:0:0:0:
151,105,68016,1,0,0:0:0:0:
89,129,68098,1,0,0:0:0:0:
62,189,68180,5,0,0:0:0:0:
112,214,68260,1,0,0:0:0:0:
167,201,68341,1,0,0:0:0:0:
205,158,68422,5,0,0:0:0:0:
158,146,68504,1,0,0:0:0:0:
113,161,68586,1,0,0:0:0:0:
83,197,68667,1,0,0:0:0:0:
72,243,68748,5,0,0:0:0:0:
106,258,68829,1,0,0:0:0:0:
143,262,68910,1,0,0:0:0:0:
180,258,68992,1,0,0:0:0:0:
252,299,69074,5,0,0:0:0:0:
283,308,69155,1,0,0:0:0:0:
315,313,69236,1,0,0:0:0:0:
348,309,69318,1,0,0:0:0:0:
424,280,69398,5,0,0:0:0:0:
433,253,69479,1,0,0:0:0:0:
436,224,69561,1,0,0:0:0:0:
431,195,69643,1,0,0:0:0:0:
400,125,69723,5,0,0:0:0:0:
393,102,69805,1,0,0:0:0:0:
391,78,69887,1,0,0:0:0:0:
397,55,69967,1,0,0:0:0:0:
471,22,70049,5,0,0:0:0:0:
478,107,70129,1,0,0:0:0:0:
441,183,70210,1,0,0:0:0:0:
366,223,70293,5,0,0:0:0:0:
340,151,70374,1,0,0:0:0:0:
346,75,70455,1,0,0:0:0:0:
395,16,70536,5,0,0:0:0:0:
414,79,70617,1,0,0:0:0:0:
384,138,70699,1,0,0:0:0:0:
322,163,70781,5,0,0:0:0:0:
304,108,70861,1,0,0:0:0:0:
314,52,70942,1,0,0:0:0:0:
351,9,71024,5,0,0:0:0:0:
372,51,71106,1,0,0:0:0:0:
376,98,71187,1,0,0:0:0:0:
371,145,71268,1,0,0:0:0:0:
343,183,71349,5,0,0:0:0:0:
305,189,71430,1,0,0:0:0:0:
268,180,71512,1,0,0:0:0:0:
242,151,71593,1,0,0:0:0:0:
187,221,71674,5,0,0:0:0:0:
156,206,71756,1,0,0:0:0:0:
134,181,71837,1,0,0:0:0:0:
124,149,71918,1,0,0:0:0:0:
44,193,72001,5,0,0:0:0:0:
40,221,72082,1,0,0:0:0:0:
36,249,72163,1,0,0:0:0:0:
38,277,72244,1,0,0:0:0:0:
109,339,72324,5,0,0:0:0:0:
130,349,72406,1,0,0:0:0:0:
153,352,72489,1,0,0:0:0:0:
176,347,72570,1,0,0:0:0:0:
261,287,72650,5,0,0:0:0:0:
338,251,72732,1,0,0:0:0:0:
422,263,72813,1,0,0:0:0:0:
439,179,72894,5,0,0:0:0:0:
365,161,72976,1,0,0:0:0:0:
290,180,73057,1,0,0:0:0:0:
290,104,73138,5,0,0:0:0:0:
353,84,73220,1,0,0:0:0:0:
418,97,73302,1,0,0:0:0:0:
400,32,73382,5,0,0:0:0:0:
343,22,73463,1,0,0:0:0:0:
289,40,73544,1,0,0:0:0:0:
234,23,73626,5,0,0:0:0:0:
186,28,73709,1,0,0:0:0:0:
149,58,73789,1,0,0:0:0:0:
135,103,73870,1,0,0:0:0:0:
140,150,73951,5,0,0:0:0:0:
172,169,74032,1,0,0:0:0:0:
207,181,74114,1,0,0:0:0:0:
245,185,74196,1,0,0:0:0:0:
272,270,74277,5,0,0:0:0:0:
304,276,74358,1,0,0:0:0:0:
336,281,74440,1,0,0:0:0:0:
368,286,74520,1,0,0:0:0:0:
333,365,74601,5,0,0:0:0:0:
304,370,74683,1,0,0:0:0:0:
276,374,74764,1,0,0:0:0:0:
247,379,74845,1,0,0:0:0:0:
159,340,74928,5,0,0:0:0:0:
135,335,75009,1,0,0:0:0:0:
111,334,75089,1,0,0:0:0:0:
87,335,75171,1,0,0:0:0:0:
20,261,75251,5,0,0:0:0:0:
63,186,75334,1,0,0:0:0:0:
148,184,75416,1,0,0:0:0:0:
210,242,75497,5,0,0:0:0:0:
170,176,75577,1,0,0:0:0:0:
197,105,75658,1,0,0:0:0:0:
255,56,75740,5,0,0:0:0:0:
195,86,75821,1,0,0:0:0:0:
128,90,75904,1,0,0:0:0:0:
65,68,75984,5,0,0:0:0:0:
109,103,76065,1,0,0:0:0:0:
138,151,76147,1,0,0:0:0:0:
153,205,76228,5,0,0:0:0:0:
186,171,76309,1,0,0:0:0:0:
231,156,76390,1,0,0:0:0:0:
278,151,76472,1,0,0:0:0:0:
323,163,76553,6,0,L|370:177,1,47.5
512,269,76716,2,0,L|465:283,1,47.5
277,176,76878,2,0,L|324:190,1,47.5
466,282,77041,2,0,L|419:296,1,47.5
230,348,77204,5,0,0:0:0:0:
145,357,77285,1,0,0:0:0:0:
68,319,77366,1,0,0:0:0:0:
33,241,77447,1,0,0:0:0:0:
55,158,77528,5,0,0:0:0:0:
148,137,77611,1,0,0:0:0:0:
240,116,77692,1,0,0:0:0:0:
332,95,77772,1,0,0:0:0:0:
424,74,77854,1,0,0:0:0:0:
