osu file format v14

[General]
AudioFilename: shounen.mp3
AudioLeadIn: 0
PreviewTime: 81916
Countdown: 1
SampleSet: Normal
StackLeniency: 0.7
Mode: 0
LetterboxInBreaks: 1
WidescreenStoryboard: 1

[Editor]
Bookmarks: 31240
DistanceSpacing: 1
BeatDivisor: 12
GridSize: 4
TimelineZoom: 2.1

[Metadata]
Title:Shounen wa Sora wo Tadoru Prog Piano Remix
TitleUnicode:少年は空を辿る Prog Piano Remix
Artist:Toromaru
ArtistUnicode:とろまる
Creator:DoKito
Version:DoKo
Source:
Tags:
BeatmapID:2163977
BeatmapSetID:1035001

[Difficulty]
HPDrainRate:6
CircleSize:5
OverallDifficulty:9.5
ApproachRate:8
SliderMultiplier:1.9
SliderTickRate:1

[Events]
//Background and Video events
0,0,"27795119_p0.jpg",0,0
//Break Periods
//Storyboard Layer 0 (Background)
//Storyboard Layer 1 (Fail)
//Storyboard Layer 2 (Pass)
//Storyboard Layer 3 (Foreground)
//Storyboard Layer 4 (Overlay)
//Storyboard Sound Samples

[TimingPoints]
1456.68957896314,428.571428571429,4,1,1,70,1,0
1670,-62.5,4,1,1,70,0,0
11528,-50,4,1,1,70,0,0
13028,-500,4,1,1,70,0,0
16885,-100,4,1,1,70,0,0
25027,-100,4,1,1,70,0,1
28455,-100,7,1,1,70,0,0
61885,-66.6666666666667,7,1,1,70,0,0
63385,-50,7,1,1,70,0,0
64885,-100,7,1,1,70,0,0
64938,-50,7,2,1,5,0,0
65742,-50,7,2,1,15,0,0
65956,-50,7,2,1,25,0,0
66170,-50,7,2,1,35,0,0
66385,-50,7,2,1,45,0,0
66599,-100,7,1,1,55,0,0
67028,-100,7,1,1,65,0,0
67456,-100,7,1,1,75,0,0
67885,-100,7,1,1,85,0,0
68313,-100,7,2,1,70,0,0
74313,-263.157894736842,7,2,1,70,0,0
75170,-100,7,2,1,70,0,0
82023,-38.4615384615385,4,1,1,70,0,1
88885,-100,4,1,1,64,0,1
102738,-200,4,1,1,64,0,0

[HitObjects]
115,127,599,6,0,P|89:128|64:137,5,31.6666666666667
111,194,1028,1,0,0:0:0:0:
118,224,1099,1,0,0:0:0:0:
117,256,1170,1,0,0:0:0:0:
106,286,1242,1,0,0:0:0:0:
88,311,1313,1,0,0:0:0:0:
63,331,1385,1,0,0:0:0:0:
34,343,1456,5,0,0:0:0:0:
26,270,1563,1,0,0:0:0:0:
18,196,1670,2,0,B|63:181|99:196|99:196|148:214|197:197,1,152
291,348,1992,2,0,B|246:333|210:348|210:348|161:366|112:349,1,152
25,231,2313,5,0,0:0:0:0:
56,161,2420,1,0,0:0:0:0:
127,188,2528,2,0,B|205:200|205:200|279:176,1,152
448,286,2849,2,0,B|370:274|370:274|296:298,1,152
134,372,3170,5,0,0:0:0:0:
65,337,3278,1,0,0:0:0:0:
115,280,3385,2,0,P|178:229|177:157,1,152
320,61,3706,2,0,P|375:109|448:98,1,152
494,215,4028,5,0,0:0:0:0:
471,287,4135,1,0,0:0:0:0:
401,257,4242,2,0,B|364:243|364:243|316:282|252:260,1,152
17,201,4563,2,0,B|54:215|54:215|102:176|166:198,1,152
372,134,4885,5,0,0:0:0:0:
443,109,4992,1,0,0:0:0:0:
380,65,5099,2,0,B|240:42|240:42|228:47|239:55,1,152
30,174,5420,2,0,B|170:151|170:151|182:156|171:164,1,152
394,242,5742,5,0,0:0:0:0:
469,231,5849,1,0,0:0:0:0:
441,301,5956,1,0,0:0:0:0:
421,182,6063,2,0,P|426:162|439:148,2,38
441,317,6278,1,0,0:0:0:0:
420,166,6385,2,0,L|546:206,1,114
511,222,6599,5,0,0:0:0:0:
194,149,6706,1,0,0:0:0:0:
178,148,6920,5,0,0:0:0:0:
178,148,7028,1,0,0:0:0:0:
194,149,7242,5,0,0:0:0:0:
462,113,7349,1,0,0:0:0:0:
477,113,7563,5,0,0:0:0:0:
477,113,7670,1,0,0:0:0:0:
462,113,7778,5,0,0:0:0:0:
314,327,7885,1,0,0:0:0:0:
308,341,8099,5,0,0:0:0:0:
308,341,8206,1,0,0:0:0:0:
314,327,8420,5,0,0:0:0:0:
63,253,8528,1,0,0:0:0:0:
48,249,8635,5,0,0:0:0:0:
48,249,8742,1,0,0:0:0:0:
63,253,8849,5,0,0:0:0:0:
350,206,8956,1,0,0:0:0:0:
365,205,9170,5,0,0:0:0:0:
365,205,9278,1,0,0:0:0:0:
350,206,9492,5,0,0:0:0:0:
55,150,9599,1,0,0:0:0:0:
39,149,9813,5,0,0:0:0:0:
39,149,9920,1,0,0:0:0:0:
66,83,10028,6,0,P|127:92|150:49,1,114
212,9,10242,2,0,L|225:126,1,114
235,196,10456,1,0,0:0:0:0:
235,196,10563,2,0,L|247:82,1,114
321,95,10778,2,0,P|369:120|428:111,1,114
383,36,10992,1,0,0:0:0:0:
383,36,11099,2,0,B|376:95|376:95|383:151,1,114
412,215,11313,5,0,0:0:0:0:
323,235,11420,1,0,0:0:0:0:
210,259,11528,6,0,P|170:236|160:141,1,142.5
240,112,11742,2,0,P|280:135|290:230,1,142.5
278,311,11956,1,0,0:0:0:0:
278,311,12063,2,0,L|419:348,1,142.5
468,285,12278,2,0,P|426:241|483:211,1,142.5
460,137,12492,1,0,0:0:0:0:
460,137,12599,2,0,P|390:167|359:224,1,142.5
283,205,12813,5,0,0:0:0:0:
189,190,12920,1,0,0:0:0:0:
228,242,13028,6,0,P|217:307|148:344,1,147.25
120,333,14742,5,0,0:0:0:0:
91,295,14849,1,0,0:0:0:0:
102,248,14956,1,0,0:0:0:0:
114,202,15063,1,0,0:0:0:0:
88,161,15170,1,0,0:0:0:0:
54,127,15278,1,0,0:0:0:0:
79,87,15385,1,0,0:0:0:0:
125,75,15492,1,0,0:0:0:0:
153,112,15599,1,0,0:0:0:0:
193,136,15706,1,0,0:0:0:0:
238,121,15813,1,0,0:0:0:0:
258,163,15920,1,0,0:0:0:0:
238,206,16028,1,0,0:0:0:0:
273,237,16135,1,0,0:0:0:0:
299,276,16242,1,0,0:0:0:0:
297,323,16349,1,0,0:0:0:0:
342,334,16456,1,0,0:0:0:0:
379,304,16563,1,0,0:0:0:0:
374,256,16670,1,0,0:0:0:0:
419,242,16778,1,0,0:0:0:0:
461,263,16885,6,0,B|478:276|478:276|487:306,3,47.5
445,178,17313,2,0,B|469:191|469:191|492:198,3,47.5
389,132,17742,5,0,0:0:0:0:
341,127,17849,1,0,0:0:0:0:
293,122,17956,1,0,0:0:0:0:
245,118,18063,1,0,0:0:0:0:
197,114,18170,1,0,0:0:0:0:
245,118,18278,1,0,0:0:0:0:
293,122,18385,1,0,0:0:0:0:
341,127,18492,1,0,0:0:0:0:
388,132,18599,5,0,0:0:0:0:
431,193,18706,1,0,0:0:0:0:
371,239,18813,1,0,0:0:0:0:
416,299,18920,1,0,0:0:0:0:
362,352,19028,1,0,0:0:0:0:
362,352,19242,5,0,0:0:0:0:
312,293,19349,1,0,0:0:0:0:
326,218,19456,1,0,0:0:0:0:
254,244,19563,1,0,0:0:0:0:
272,170,19670,1,0,0:0:0:0:
272,170,19885,5,0,0:0:0:0:
299,99,19992,1,0,0:0:0:0:
224,114,20099,1,0,0:0:0:0:
201,186,20206,1,0,0:0:0:0:
249,244,20313,1,0,0:0:0:0:
249,244,20528,5,0,0:0:0:0:
290,307,20635,1,0,0:0:0:0:
324,239,20742,1,0,0:0:0:0:
364,303,20849,1,0,0:0:0:0:
400,236,20956,1,0,0:0:0:0:
400,236,21170,5,0,0:0:0:0:
472,214,21278,1,0,0:0:0:0:
430,150,21385,1,0,0:0:0:0:
356,169,21492,1,0,0:0:0:0:
380,96,21599,1,0,0:0:0:0:
380,96,21813,5,0,0:0:0:0:
304,90,21920,1,0,0:0:0:0:
242,134,22028,1,0,0:0:0:0:
309,168,22135,1,0,0:0:0:0:
247,212,22242,1,0,0:0:0:0:
247,212,22456,5,0,0:0:0:0:
184,254,22563,1,0,0:0:0:0:
116,219,22670,1,0,0:0:0:0:
123,295,22778,1,0,0:0:0:0:
195,327,22885,1,0,0:0:0:0:
195,327,23099,5,0,0:0:0:0:
269,340,23206,1,0,0:0:0:0:
243,267,23313,1,0,0:0:0:0:
166,256,23420,1,0,0:0:0:0:
120,319,23528,1,0,0:0:0:0:
120,319,23742,5,0,0:0:0:0:
88,246,23849,1,0,0:0:0:0:
135,184,23956,1,0,0:0:0:0:
214,196,24063,1,0,0:0:0:0:
166,259,24170,1,0,0:0:0:0:
166,259,24385,5,0,0:0:0:0:
162,183,24492,1,0,0:0:0:0:
203,119,24599,1,0,0:0:0:0:
239,185,24706,1,0,0:0:0:0:
230,261,24813,2,0,P|253:301|289:317,1,71.25
324,328,25028,5,0,0:0:0:0:
54,251,25242,1,0,0:0:0:0:
299,146,25563,5,0,0:0:0:0:
36,43,25778,1,0,0:0:0:0:
334,8,25992,1,0,0:0:0:0:
436,353,26313,5,0,0:0:0:0:
78,303,26528,5,0,0:0:0:0:
267,248,26635,1,0,0:0:0:0:
63,187,26742,1,0,0:0:0:0:
255,25,26956,5,0,0:0:0:0:
463,353,27278,5,0,0:0:0:0:
137,325,27492,1,0,0:0:0:0:
416,65,27813,5,0,0:0:0:0:
416,65,28028,1,0,0:0:0:0:
416,65,28242,1,0,0:0:0:0:
416,65,28349,1,0,0:0:0:0:
378,140,28456,5,0,0:0:0:0:
350,178,28563,1,0,0:0:0:0:
308,200,28670,1,0,0:0:0:0:
260,203,28778,1,0,0:0:0:0:
216,185,28885,1,0,0:0:0:0:
183,150,28992,1,0,0:0:0:0:
139,130,29099,1,0,0:0:0:0:
91,129,29206,1,0,0:0:0:0:
91,129,29420,5,0,0:0:0:0:
60,176,29528,1,0,0:0:0:0:
63,232,29635,1,0,0:0:0:0:
102,273,29742,1,0,0:0:0:0:
156,288,29849,1,0,0:0:0:0:
212,278,29956,1,0,0:0:0:0:
257,243,30063,1,0,0:0:0:0:
257,243,30278,5,0,0:0:0:0:
202,204,30385,1,0,0:0:0:0:
187,139,30492,1,0,0:0:0:0:
214,78,30599,1,0,0:0:0:0:
281,77,30706,1,0,0:0:0:0:
329,122,30813,1,0,0:0:0:0:
343,186,30920,1,0,0:0:0:0:
369,246,31028,1,0,0:0:0:0:
430,271,31135,1,0,0:0:0:0:
491,244,31242,1,0,0:0:0:0:
509,180,31349,1,0,0:0:0:0:
476,121,31456,5,0,0:0:0:0:
429,112,31563,1,0,0:0:0:0:
395,145,31670,1,0,0:0:0:0:
401,191,31778,1,0,0:0:0:0:
437,221,31885,1,0,0:0:0:0:
453,265,31992,1,0,0:0:0:0:
445,311,32099,1,0,0:0:0:0:
406,339,32206,1,0,0:0:0:0:
406,339,32420,5,0,0:0:0:0:
349,331,32528,1,0,0:0:0:0:
305,293,32635,1,0,0:0:0:0:
287,238,32742,1,0,0:0:0:0:
252,192,32849,1,0,0:0:0:0:
200,166,32956,1,0,0:0:0:0:
143,166,33063,1,0,0:0:0:0:
143,166,33278,5,0,0:0:0:0:
133,231,33385,1,0,0:0:0:0:
167,287,33492,1,0,0:0:0:0:
229,310,33599,1,0,0:0:0:0:
294,293,33706,1,0,0:0:0:0:
339,244,33813,1,0,0:0:0:0:
398,215,33920,1,0,0:0:0:0:
461,235,34028,1,0,0:0:0:0:
462,239,34135,1,0,0:0:0:0:
463,243,34242,1,0,0:0:0:0:
464,247,34349,1,0,0:0:0:0:
472,313,34456,5,0,0:0:0:0:
412,360,34563,1,0,0:0:0:0:
348,318,34670,1,0,0:0:0:0:
273,303,34778,1,0,0:0:0:0:
207,341,34885,1,0,0:0:0:0:
140,303,34992,1,0,0:0:0:0:
136,227,35099,1,0,0:0:0:0:
90,165,35206,1,0,0:0:0:0:
90,165,35528,1,0,0:0:0:0:
90,165,35742,1,0,0:0:0:0:
90,165,35956,5,0,0:0:0:0:
132,216,36063,1,0,0:0:0:0:
198,209,36170,1,0,0:0:0:0:
238,261,36278,1,0,0:0:0:0:
303,270,36385,1,0,0:0:0:0:
350,224,36492,1,0,0:0:0:0:
345,157,36599,1,0,0:0:0:0:
385,103,36706,1,0,0:0:0:0:
385,103,37028,1,0,0:0:0:0:
385,103,37242,1,0,0:0:0:0:
385,103,37456,5,0,0:0:0:0:
413,170,37563,1,0,0:0:0:0:
371,230,37670,1,0,0:0:0:0:
303,199,37778,1,0,0:0:0:0:
231,216,37885,1,0,0:0:0:0:
185,273,37992,1,0,0:0:0:0:
118,301,38099,1,0,0:0:0:0:
64,273,38206,1,0,0:0:0:0:
64,273,38528,1,0,0:0:0:0:
64,273,38742,1,0,0:0:0:0:
64,273,38956,5,0,0:0:0:0:
43,209,39063,1,0,0:0:0:0:
92,164,39170,1,0,0:0:0:0:
155,186,39278,1,0,0:0:0:0:
210,149,39385,1,0,0:0:0:0:
210,82,39492,1,0,0:0:0:0:
241,24,39599,1,0,0:0:0:0:
312,36,39706,1,0,0:0:0:0:
312,36,40028,1,0,0:0:0:0:
312,36,40242,5,0,0:0:0:0:
369,69,40349,1,0,0:0:0:0:
346,131,40456,1,0,0:0:0:0:
394,176,40563,1,0,0:0:0:0:
382,241,40670,1,0,0:0:0:0:
382,241,40885,1,0,0:0:0:0:
71,306,41099,1,0,0:0:0:0:
71,306,41313,1,0,0:0:0:0:
435,350,41528,1,0,0:0:0:0:
435,350,41742,1,0,0:0:0:0:
157,72,41956,5,0,0:0:0:0:
136,142,42063,1,0,0:0:0:0:
214,127,42170,1,0,0:0:0:0:
74,84,42278,1,0,0:0:0:0:
189,212,42385,1,0,0:0:0:0:
189,212,42599,1,0,0:0:0:0:
459,179,42813,1,0,0:0:0:0:
459,179,43242,5,0,0:0:0:0:
413,282,43456,1,0,0:0:0:0:
360,291,43563,1,0,0:0:0:0:
270,107,43778,1,0,0:0:0:0:
323,116,43885,1,0,0:0:0:0:
285,177,43992,1,0,0:0:0:0:
232,186,44099,1,0,0:0:0:0:
29,266,44313,5,0,0:0:0:0:
82,275,44420,1,0,0:0:0:0:
254,365,44635,1,0,0:0:0:0:
307,356,44742,1,0,0:0:0:0:
487,248,44956,5,0,0:0:0:0:
487,248,45063,1,0,0:0:0:0:
506,151,45278,1,0,0:0:0:0:
506,151,45385,1,0,0:0:0:0:
416,184,45599,1,0,0:0:0:0:
416,184,45706,1,0,0:0:0:0:
207,204,45867,5,0,0:0:0:0:
207,204,45920,1,0,0:0:0:0:
254,154,46081,1,0,0:0:0:0:
254,154,46135,1,0,0:0:0:0:
187,138,46295,1,0,0:0:0:0:
187,138,46349,1,0,0:0:0:0:
387,49,46563,5,0,0:0:0:0:
325,59,46670,1,0,0:0:0:0:
396,47,46885,1,0,0:0:0:0:
315,60,46992,1,0,0:0:0:0:
408,45,47206,1,0,0:0:0:0:
303,62,47313,1,0,0:0:0:0:
470,23,47528,5,0,0:0:0:0:
239,54,47685,1,0,0:0:0:0:
418,194,47846,5,0,0:0:0:0:
356,208,47956,2,0,L|283:225,1,71.25
262,227,48170,5,0,0:0:0:0:
214,224,48278,1,0,0:0:0:0:
166,221,48385,1,0,0:0:0:0:
118,218,48492,1,0,0:0:0:0:
70,215,48599,1,0,0:0:0:0:
116,207,48706,1,0,0:0:0:0:
162,199,48813,1,0,0:0:0:0:
208,192,48920,1,0,0:0:0:0:
208,192,49135,5,0,0:0:0:0:
167,151,49242,1,0,0:0:0:0:
127,110,49349,1,0,0:0:0:0:
86,69,49456,1,0,0:0:0:0:
140,86,49563,1,0,0:0:0:0:
194,103,49670,1,0,0:0:0:0:
248,120,49778,1,0,0:0:0:0:
248,120,49992,5,0,0:0:0:0:
314,126,50099,1,0,0:0:0:0:
380,132,50206,1,0,0:0:0:0:
445,139,50313,1,0,0:0:0:0:
379,149,50420,1,0,0:0:0:0:
312,159,50528,1,0,0:0:0:0:
246,169,50635,1,0,0:0:0:0:
180,180,50742,1,0,0:0:0:0:
245,188,50849,1,0,0:0:0:0:
310,196,50956,5,0,0:0:0:0:
317,197,51117,1,0,0:0:0:0:
324,198,51278,5,0,0:0:0:0:
328,198,51385,1,0,0:0:0:0:
332,198,51492,1,0,0:0:0:0:
397,205,51599,5,0,0:0:0:0:
378,248,51706,1,0,0:0:0:0:
359,291,51813,1,0,0:0:0:0:
341,335,51920,1,0,0:0:0:0:
323,379,52028,1,0,0:0:0:0:
314,332,52135,1,0,0:0:0:0:
305,285,52242,1,0,0:0:0:0:
296,238,52349,1,0,0:0:0:0:
296,238,52563,5,0,0:0:0:0:
351,225,52670,1,0,0:0:0:0:
407,213,52778,1,0,0:0:0:0:
462,201,52885,1,0,0:0:0:0:
405,193,52992,1,0,0:0:0:0:
348,185,53099,1,0,0:0:0:0:
291,177,53206,1,0,0:0:0:0:
291,177,53420,5,0,0:0:0:0:
226,194,53528,1,0,0:0:0:0:
162,211,53635,1,0,0:0:0:0:
98,229,53742,1,0,0:0:0:0:
155,196,53849,1,0,0:0:0:0:
212,163,53956,1,0,0:0:0:0:
269,130,54063,1,0,0:0:0:0:
326,97,54170,1,0,0:0:0:0:
261,115,54278,1,0,0:0:0:0:
197,133,54385,5,0,0:0:0:0:
190,135,54545,1,0,0:0:0:0:
183,137,54706,5,0,0:0:0:0:
178,138,54813,1,0,0:0:0:0:
173,139,54920,1,0,0:0:0:0:
173,139,56742,5,0,0:0:0:0:
150,180,56849,1,0,0:0:0:0:
171,222,56956,1,0,0:0:0:0:
218,222,57063,1,0,0:0:0:0:
233,266,57170,1,0,0:0:0:0:
201,302,57278,1,0,0:0:0:0:
223,343,57385,1,0,0:0:0:0:
268,356,57492,1,0,0:0:0:0:
304,325,57599,1,0,0:0:0:0:
350,332,57706,1,0,0:0:0:0:
389,357,57813,5,0,0:0:0:0:
393,351,57974,1,0,0:0:0:0:
397,345,58135,5,0,0:0:0:0:
399,341,58242,1,0,0:0:0:0:
401,337,58349,1,0,0:0:0:0:
428,277,58456,5,0,0:0:0:0:
435,230,58563,1,0,0:0:0:0:
442,183,58670,1,0,0:0:0:0:
449,135,58778,1,0,0:0:0:0:
457,88,58885,1,0,0:0:0:0:
434,129,58992,1,0,0:0:0:0:
411,170,59099,1,0,0:0:0:0:
388,211,59206,1,0,0:0:0:0:
388,211,59420,5,0,0:0:0:0:
330,217,59528,1,0,0:0:0:0:
273,224,59635,1,0,0:0:0:0:
216,231,59742,1,0,0:0:0:0:
269,210,59849,1,0,0:0:0:0:
322,190,59956,1,0,0:0:0:0:
375,175,60063,1,0,0:0:0:0:
375,175,60278,5,0,0:0:0:0:
347,235,60385,1,0,0:0:0:0:
319,295,60492,1,0,0:0:0:0:
292,355,60599,1,0,0:0:0:0:
300,289,60706,1,0,0:0:0:0:
308,223,60813,1,0,0:0:0:0:
316,157,60920,1,0,0:0:0:0:
325,90,61028,1,0,0:0:0:0:
297,150,61135,1,0,0:0:0:0:
269,210,61242,5,0,0:0:0:0:
265,216,61403,1,0,0:0:0:0:
262,222,61563,5,0,0:0:0:0:
260,226,61670,1,0,0:0:0:0:
258,230,61778,1,0,0:0:0:0:
230,290,61885,6,0,L|120:305,1,106.875004076958
81,308,62099,2,0,L|191:293,1,106.875004076958
227,279,62313,1,0,0:0:0:0:
308,251,62420,2,0,P|367:235|409:201,1,106.875004076958
403,163,62635,2,0,P|372:216|366:269,1,106.875004076958
377,302,62849,1,0,0:0:0:0:
454,337,62956,2,0,P|466:296|457:263,1,71.2500027179719
401,206,63170,5,0,0:0:0:0:
302,183,63278,1,0,0:0:0:0:
190,207,63385,6,0,B|108:217|108:217|41:209,1,142.5
26,136,63599,2,0,B|108:146|108:146|175:138,1,142.5
243,126,63813,1,0,0:0:0:0:
368,41,63920,2,0,P|401:82|497:83,1,142.5
463,163,64135,2,0,P|391:153|335:111,1,142.5
280,60,64349,1,0,0:0:0:0:
269,135,64456,1,0,0:0:0:0:
258,210,64563,1,0,0:0:0:0:
248,285,64670,5,0,0:0:0:0:
379,240,64778,1,0,0:0:0:0:
132,137,64885,6,0,L|92:131,23,31.6666666666667
162,200,66599,5,0,0:0:0:0:
160,212,66670,1,0,0:0:0:0:
162,224,66742,1,0,0:0:0:0:
156,235,66813,1,0,0:0:0:0:
158,253,66885,1,0,0:0:0:0:
148,269,66956,1,0,0:0:0:0:
159,284,67028,1,0,0:0:0:0:
139,299,67099,1,0,0:0:0:0:
154,319,67170,1,0,0:0:0:0:
140,340,67242,1,0,0:0:0:0:
163,361,67313,1,0,0:0:0:0:
194,366,67385,1,0,0:0:0:0:
219,347,67456,1,0,0:0:0:0:
257,347,67528,1,0,0:0:0:0:
282,319,67599,1,0,0:0:0:0:
319,323,67670,1,0,0:0:0:0:
356,347,67742,1,0,0:0:0:0:
399,340,67813,1,0,0:0:0:0:
417,299,67885,1,0,0:0:0:0:
381,263,67956,1,0,0:0:0:0:
361,215,68028,1,0,0:0:0:0:
388,172,68099,1,0,0:0:0:0:
442,156,68170,1,0,0:0:0:0:
484,194,68242,1,0,0:0:0:0:
478,250,68313,5,0,0:0:0:0:
440,255,68528,1,0,0:0:0:0:
402,261,68742,1,0,0:0:0:0:
364,267,68956,1,0,0:0:0:0:
326,266,69170,1,0,0:0:0:0:
287,265,69385,1,0,0:0:0:0:
221,220,69599,2,0,L|190:228,1,23.75
295,183,69813,2,0,L|326:191,1,23.75
222,136,70028,6,0,L|191:144,1,23.75
299,97,70242,1,0,0:0:0:0:
336,91,70456,1,0,0:0:0:0:
373,85,70670,1,0,0:0:0:0:
448,121,70885,6,0,L|485:129,1,23.75
382,166,71099,1,0,0:0:0:0:
376,203,71313,1,0,0:0:0:0:
370,240,71528,1,0,0:0:0:0:
395,310,71742,6,0,L|419:329,1,23.75
323,299,71956,1,0,0:0:0:0:
285,302,72170,1,0,0:0:0:0:
247,305,72385,1,0,0:0:0:0:
209,308,72599,1,0,0:0:0:0:
171,311,72814,1,0,0:0:0:0:
103,278,73028,6,0,L|66:274,1,23.75
165,232,73242,1,0,0:0:0:0:
104,185,73456,6,0,L|67:181,1,23.75
173,147,73670,1,0,0:0:0:0:
210,143,73885,1,0,0:0:0:0:
247,139,74099,1,0,0:0:0:0:
312,176,74313,6,0,L|339:180,5,24.0666663728841
247,217,75170,5,0,0:0:0:0:
236,253,75278,1,0,0:0:0:0:
242,290,75385,1,0,0:0:0:0:
217,319,75492,1,0,0:0:0:0:
180,330,75599,1,0,0:0:0:0:
144,315,75706,1,0,0:0:0:0:
110,333,75813,1,0,0:0:0:0:
18,241,76028,5,0,0:0:0:0:
54,228,76135,1,0,0:0:0:0:
86,247,76242,1,0,0:0:0:0:
214,204,76456,5,0,0:0:0:0:
214,204,76563,1,0,0:0:0:0:
262,256,76670,1,0,0:0:0:0:
262,256,76778,1,0,0:0:0:0:
321,213,76885,1,0,0:0:0:0:
357,204,76992,1,0,0:0:0:0:
393,214,77099,1,0,0:0:0:0:
503,132,77313,5,0,0:0:0:0:
472,109,77420,1,0,0:0:0:0:
434,115,77528,1,0,0:0:0:0:
317,36,77742,5,0,0:0:0:0:
279,44,77849,1,0,0:0:0:0:
258,75,77956,1,0,0:0:0:0:
299,267,78170,5,0,0:0:0:0:
318,234,78278,1,0,0:0:0:0:
310,196,78385,1,0,0:0:0:0:
169,106,78599,5,0,0:0:0:0:
160,133,78706,1,0,0:0:0:0:
162,161,78813,1,0,0:0:0:0:
266,244,79028,5,0,0:0:0:0:
271,216,79135,1,0,0:0:0:0:
259,189,79242,1,0,0:0:0:0:
180,140,79456,5,0,0:0:0:0:
177,158,79563,1,0,0:0:0:0:
178,176,79670,1,0,0:0:0:0:
251,152,79885,5,0,0:0:0:0:
253,133,79992,1,0,0:0:0:0:
250,114,80099,1,0,0:0:0:0:
210,203,80313,5,0,0:0:0:0:
297,190,80456,1,0,0:0:0:0:
225,142,80599,1,0,0:0:0:0:
261,249,80742,1,0,0:0:0:0:
290,123,80885,1,0,0:0:0:0:
165,255,81028,1,0,0:0:0:0:
374,169,81170,1,0,0:0:0:0:
187,112,81313,1,0,0:0:0:0:
331,299,81456,1,0,0:0:0:0:
309,86,81599,1,0,0:0:0:0:
239,341,81742,1,0,0:0:0:0:
238,46,81885,1,0,0:0:0:0:
150,288,82028,6,0,B|114:366|114:366|111:348|101:330,1,123.499994346619
70,264,82170,2,0,L|23:146,1,123.499994346619
83,102,82313,2,0,L|128:216,1,123.499994346619
179,275,82456,2,0,P|243:281|309:253,1,123.499994346619
301,186,82599,2,0,P|243:165|182:171,1,123.499994346619
119,210,82742,1,0,0:0:0:0:
111,241,82813,1,0,0:0:0:0:
103,273,82885,6,0,B|198:302|198:302|223:295,1,123.499994346619
254,357,83028,2,0,L|377:323,1,123.499994346619
414,242,83170,2,0,L|294:274,1,123.499994346619
238,227,83313,2,0,B|203:163|203:163|192:138|196:109,1,123.499994346619
243,48,83456,2,0,P|312:39|360:64,1,123.499994346619
409,117,83599,1,0,0:0:0:0:
438,131,83670,1,0,0:0:0:0:
471,132,83742,6,0,L|489:258,1,123.499994346619
398,317,83885,2,0,L|415:194,1,123.499994346619
352,146,84028,2,0,P|317:90|259:69,1,123.499994346619
185,112,84170,2,0,P|129:136|98:188,1,123.499994346619
148,268,84313,1,0,0:0:0:0:
176,279,84385,1,0,0:0:0:0:
210,277,84456,2,0,P|244:251|257:215,1,82.3333295644126
180,191,84599,6,0,L|151:319,1,123.499994346619
69,373,84742,2,0,L|41:252,1,123.499994346619
45,159,84885,2,0,P|77:86|126:69,1,123.499994346619
213,36,85028,2,0,L|345:50,1,123.499994346619
422,81,85170,1,0,0:0:0:0:
428,113,85242,1,0,0:0:0:0:
433,145,85313,2,0,L|446:229,1,82.3333295644126
453,325,85456,6,0,L|431:181,1,123.499994346619
359,148,85599,2,0,P|303:127|230:144,1,123.499994346619
163,202,85742,2,0,P|102:212|45:191,1,123.499994346619
75,95,85885,2,0,L|108:218,1,123.499994346619
159,128,86028,2,0,L|191:8,1,123.499994346619
265,26,86170,1,0,0:0:0:0:
296,36,86242,1,0,0:0:0:0:
328,37,86313,6,0,P|379:57|366:117,1,123.499994346619
272,134,86456,2,0,P|250:184|301:217,1,123.499994346619
411,213,86599,2,0,P|432:263|381:296,1,123.499994346619
293,321,86742,2,0,L|166:350,1,123.499994346619
48,297,86885,2,0,L|168:269,1,123.499994346619
243,204,87028,1,0,0:0:0:0:
250,172,87099,1,0,0:0:0:0:
257,140,87170,6,0,B|327:109|327:109|379:114,1,123.499994346619
460,227,87313,2,0,B|396:184|396:184|344:180,1,123.499994346619
255,290,87456,2,0,B|321:251|321:251|373:251,1,123.499994346619
445,327,87599,2,0,P|476:272|459:209,1,123.499994346619
389,140,87742,1,0,0:0:0:0:
358,128,87813,1,0,0:0:0:0:
325,131,87885,1,0,0:0:0:0:
300,152,87956,1,0,0:0:0:0:
290,183,88028,6,0,L|276:317,1,123.499994346619
276,323,88170,2,0,L|288:200,1,123.499994346619
290,183,88313,2,0,L|276:317,1,123.499994346619
276,323,88455,2,0,L|288:200,1,123.499994346619
290,183,88599,2,0,L|276:317,1,123.499994346619
276,323,88741,2,0,L|288:200,1,123.499994346619
261,116,88885,5,0,0:0:0:0:
194,62,88992,1,0,0:0:0:0:
108,58,89099,1,0,0:0:0:0:
30,94,89206,5,0,0:0:0:0:
69,158,89313,1,0,0:0:0:0:
143,170,89420,1,0,0:0:0:0:
211,136,89528,5,0,0:0:0:0:
151,105,89635,1,0,0:0:0:0:
89,129,89742,1,0,0:0:0:0:
62,189,89849,5,0,0:0:0:0:
112,214,89956,1,0,0:0:0:0:
167,201,90063,1,0,0:0:0:0:
205,158,90170,5,0,0:0:0:0:
158,146,90278,1,0,0:0:0:0:
113,161,90385,1,0,0:0:0:0:
83,197,90492,1,0,0:0:0:0:
72,243,90599,5,0,0:0:0:0:
106,258,90706,1,0,0:0:0:0:
143,262,90813,1,0,0:0:0:0:
180,258,90920,1,0,0:0:0:0:
252,299,91028,5,0,0:0:0:0:
283,308,91135,1,0,0:0:0:0:
315,313,91242,1,0,0:0:0:0:
348,309,91349,1,0,0:0:0:0:
424,280,91456,5,0,0:0:0:0:
433,253,91563,1,0,0:0:0:0:
436,224,91670,1,0,0:0:0:0:
431,195,91778,1,0,0:0:0:0:
400,125,91885,5,0,0:0:0:0:
393,102,91992,1,0,0:0:0:0:
391,78,92099,1,0,0:0:0:0:
397,55,92206,1,0,0:0:0:0:
471,22,92313,5,0,0:0:0:0:
478,107,92420,1,0,0:0:0:0:
441,183,92527,1,0,0:0:0:0:
366,223,92634,5,0,0:0:0:0:
340,151,92741,1,0,0:0:0:0:
346,75,92848,1,0,0:0:0:0:
395,16,92956,5,0,0:0:0:0:
414,79,93063,1,0,0:0:0:0:
384,138,93170,1,0,0:0:0:0:
322,163,93277,5,0,0:0:0:0:
304,108,93384,1,0,0:0:0:0:
314,52,93491,1,0,0:0:0:0:
351,9,93598,5,0,0:0:0:0:
372,51,93706,1,0,0:0:0:0:
376,98,93813,1,0,0:0:0:0:
371,145,93920,1,0,0:0:0:0:
343,183,94027,5,0,0:0:0:0:
305,189,94134,1,0,0:0:0:0:
268,180,94241,1,0,0:0:0:0:
242,151,94348,1,0,0:0:0:0:
187,221,94456,5,0,0:0:0:0:
156,206,94563,1,0,0:0:0:0:
134,181,94670,1,0,0:0:0:0:
124,149,94777,1,0,0:0:0:0:
44,193,94885,5,0,0:0:0:0:
40,221,94992,1,0,0:0:0:0:
36,249,95099,1,0,0:0:0:0:
38,277,95206,1,0,0:0:0:0:
109,339,95313,5,0,0:0:0:0:
130,349,95420,1,0,0:0:0:0:
153,352,95528,1,0,0:0:0:0:
176,347,95635,1,0,0:0:0:0:
261,287,95742,5,0,0:0:0:0:
338,251,95849,1,0,0:0:0:0:
422,263,95956,1,0,0:0:0:0:
439,179,96063,5,0,0:0:0:0:
365,161,96170,1,0,0:0:0:0:
290,180,96278,1,0,0:0:0:0:
290,104,96385,5,0,0:0:0:0:
353,84,96492,1,0,0:0:0:0:
418,97,96599,1,0,0:0:0:0:
400,32,96706,5,0,0:0:0:0:
343,22,96813,1,0,0:0:0:0:
289,40,96920,1,0,0:0:0:0:
234,23,97028,5,0,0:0:0:0:
186,28,97135,1,0,0:0:0:0:
149,58,97242,1,0,0:0:0:0:
135,103,97349,1,0,0:0:0:0:
140,150,97456,5,0,0:0:0:0:
172,169,97563,1,0,0:0:0:0:
207,181,97670,1,0,0:0:0:0:
245,185,97778,1,0,0:0:0:0:
272,270,97885,5,0,0:0:0:0:
304,276,97992,1,0,0:0:0:0:
336,281,98099,1,0,0:0:0:0:
368,286,98206,1,0,0:0:0:0:
333,365,98313,5,0,0:0:0:0:
304,370,98420,1,0,0:0:0:0:
276,374,98527,1,0,0:0:0:0:
247,379,98634,1,0,0:0:0:0:
159,340,98742,5,0,0:0:0:0:
135,335,98849,1,0,0:0:0:0:
111,334,98956,1,0,0:0:0:0:
87,335,99063,1,0,0:0:0:0:
20,261,99170,5,0,0:0:0:0:
63,186,99278,1,0,0:0:0:0:
148,184,99385,1,0,0:0:0:0:
210,242,99492,5,0,0:0:0:0:
170,176,99599,1,0,0:0:0:0:
197,105,99706,1,0,0:0:0:0:
255,56,99813,5,0,0:0:0:0:
195,86,99920,1,0,0:0:0:0:
128,90,100028,1,0,0:0:0:0:
65,68,100135,5,0,0:0:0:0:
109,103,100242,1,0,0:0:0:0:
138,151,100349,1,0,0:0:0:0:
153,205,100456,5,0,0:0:0:0:
186,171,100563,1,0,0:0:0:0:
231,156,100670,1,0,0:0:0:0:
278,151,100778,1,0,0:0:0:0:
323,163,100885,6,0,L|370:177,1,47.5
512,269,101099,2,0,L|465:283,1,47.5
277,176,101313,2,0,L|324:190,1,47.5
466,282,101527,2,0,L|419:296,1,47.5
230,348,101742,5,0,0:0:0:0:
145,357,101849,1,0,0:0:0:0:
68,319,101956,1,0,0:0:0:0:
33,241,102063,1,0,0:0:0:0:
55,158,102170,5,0,0:0:0:0:
148,137,102278,1,0,0:0:0:0:
240,116,102385,1,0,0:0:0:0:
332,95,102492,1,0,0:0:0:0:
424,74,102599,1,0,0:0:0:0:
