osu file format v14

[General]
AudioFilename: audio.mp3
AudioLeadIn: 0
PreviewTime: 81921
Countdown: 0
SampleSet: None
StackLeniency: 0.7
Mode: 0
LetterboxInBreaks: 0
WidescreenStoryboard: 0

[Editor]
Bookmarks: 88881
DistanceSpacing: 1
BeatDivisor: 4
GridSize: 32
TimelineZoom: 3.399998

[Metadata]
Title:Shounen wa Sora o Tadoru Prog Piano Remix
TitleUnicode:少年は空を辿る Prog Piano Remix
Artist:Toromaru
ArtistUnicode:とろまる
Creator:walaowey
Version:Ultimate
Source:SOUND VOLTEX II -infinite infection-
Tags:
BeatmapID:1447383
BeatmapSetID:683886

[Difficulty]
HPDrainRate:6
CircleSize:4
OverallDifficulty:8
ApproachRate:9.5
SliderMultiplier:2.79999990463257
SliderTickRate:1

[Events]
//Background and Video events
0,0,"vocaloid_hatsune_miku_piano_sky_butterfly_104074_1366x768.jpg",0,0
//Break Periods
//Storyboard Layer 0 (Background)
//Storyboard Layer 1 (Fail)
//Storyboard Layer 2 (Pass)
//Storyboard Layer 3 (Foreground)
//Storyboard Sound Samples

[TimingPoints]
-257,428.571428571429,4,2,1,60,1,0
600,-100,4,2,1,50,0,0
1457,-100,4,2,1,60,0,0
6599,-100,4,2,1,70,0,1
10028,-100,4,2,1,60,0,0
11528,428.571428571429,4,2,1,60,1,0
13028,428.571428571429,4,2,1,60,1,0
13028,-200,4,2,1,50,0,0
14742,428.571428571429,7,2,1,60,1,0
18599,428.571428571429,7,2,1,70,1,0
23313,428.571428571429,4,2,1,70,1,0
25027,-133.333333333333,4,2,1,60,0,0
25455,-133.333333333333,4,2,1,20,0,0
25563,-133.333333333333,4,2,1,60,0,0
26205,-133.333333333333,4,2,1,20,0,0
26313,-133.333333333333,4,2,1,60,0,0
27170,-133.333333333333,4,2,1,20,0,0
27277,-133.333333333333,4,2,1,60,0,0
27705,-133.333333333333,4,2,1,20,0,0
27813,-133.333333333333,4,2,1,60,0,0
28455,428.571428571429,7,2,1,50,1,0
34455,428.571428571429,4,2,1,60,1,0
35955,428.571428571429,4,2,1,60,1,0
37455,428.571428571429,4,2,1,60,1,0
38955,428.571428571429,4,2,1,60,1,0
40669,-100,4,2,1,70,0,0
43240,428.571428571429,4,2,1,60,1,0
43240,-133.333333333333,4,2,1,50,0,0
46454,428.571428571429,4,2,1,50,1,0
47525,428.571428571429,4,2,1,60,1,0
48167,428.571428571429,4,2,1,70,1,1
55024,-133.333333333333,4,2,1,50,0,0
56738,-100,4,2,1,70,0,1
61881,-100,4,2,1,60,0,1
63381,428.571428571429,4,2,1,60,1,1
64881,428.571428571429,4,2,1,60,1,1
64881,-200,4,2,1,50,0,1
66595,-133.333333333333,4,2,1,60,0,1
68309,-166.666666666667,4,2,1,40,0,0
75166,-125,4,2,1,50,0,0
82023,-100,4,2,1,80,0,1
102595,-166.666666666667,4,2,1,40,0,0

[Colours]
Combo1 : 34,255,34
Combo2 : 255,53,53
Combo3 : 255,17,159
Combo4 : 255,143,89

[HitObjects]
303,59,599,6,0,L|297:13,7,34.9999988079071
382,97,1028,6,0,L|422:75,1,34.9999988079071,8|0,0:3|0:0,0:0:0:0:
375,185,1135,2,0,L|408:215,1,34.9999988079071,8|0,0:3|0:0,0:0:0:0:
289,201,1242,2,0,L|271:242,1,34.9999988079071,4|0,0:3|0:0,0:0:0:0:
245,124,1349,2,0,L|199:122,1,34.9999988079071,4|0,0:3|0:0,0:0:0:0:
219,37,1457,6,0,L|127:32,1,69.9999976158143,4|0,0:0|0:0,0:0:0:0:
65,83,1671,2,0,L|123:121,1,69.9999976158143
166,201,1885,1,8,0:0:0:0:
124,275,1992,2,0,P|73:237|-3:252,1,139.999995231629
52,320,2314,5,2,0:0:0:0:
124,361,2421,1,0,0:0:0:0:
196,319,2528,1,0,0:0:0:0:
196,235,2635,1,0,0:0:0:0:
271,197,2742,1,8,0:0:0:0:
343,238,2849,2,0,P|415:243|473:190,1,139.999995231629
376,89,3171,6,0,L|298:66,1,69.9999976158143,2|0,0:0|0:0,0:0:0:0:
229,95,3385,2,0,L|145:70,1,69.9999976158143
87,113,3599,1,8,0:0:0:0:
128,186,3707,2,0,P|132:266|88:332,1,139.999995231629
174,362,4028,5,2,0:0:0:0:
215,289,4135,1,0,0:0:0:0:
294,261,4242,1,0,0:0:0:0:
376,273,4349,1,0,0:0:0:0:
449,315,4457,1,8,0:0:0:0:
510,257,4564,1,0,0:0:0:0:
476,180,4671,2,0,L|461:94,1,69.9999976158143
307,109,4885,6,0,L|374:170,1,69.9999976158143,2|0,0:0|0:0,0:0:0:0:
389,78,5099,2,0,L|322:17,1,69.9999976158143
253,42,5314,1,8,0:0:0:0:
215,117,5421,2,0,P|214:193|231:273,1,139.999995231629
295,301,5742,5,2,0:0:0:0:
370,263,5849,1,0,0:0:0:0:
372,178,5957,1,0,0:0:0:0:
414,105,6064,1,0,0:0:0:0:
486,148,6171,1,8,0:0:0:0:
446,221,6278,1,0,0:0:0:0:
372,178,6385,2,0,P|331:184|303:205,1,69.9999976158143,2|0,0:0|0:0,0:0:0:0:
191,335,6599,5,4,0:0:0:0:
147,180,6707,1,0,0:0:0:0:
147,180,6921,6,0,L|170:262,1,69.9999976158143
170,261,7242,5,4,0:0:0:0:
291,122,7349,1,0,0:0:0:0:
291,122,7564,6,0,L|231:188,1,69.9999976158143
106,54,7778,1,4,0:0:0:0:
310,29,7885,1,0,0:0:0:0:
310,29,8099,6,0,L|385:79,1,69.9999976158143
379,77,8421,5,4,0:0:0:0:
387,250,8528,1,0,0:0:0:0:
306,227,8635,2,0,L|230:262,1,69.9999976158143
125,360,8849,1,4,0:0:0:0:
85,206,8957,1,0,0:0:0:0:
85,206,9171,6,0,L|107:295,1,69.9999976158143
106,287,9492,5,4,0:0:0:0:
5,168,9599,1,0,0:0:0:0:
5,168,9814,5,2,0:0:0:0:
71,116,9921,1,2,0:0:0:0:
198,141,10028,6,0,L|280:120,1,69.9999976158143,6|0,0:0|0:0,0:0:0:0:
335,175,10242,2,0,L|416:154,1,69.9999976158143
471,206,10457,1,8,0:0:0:0:
443,285,10564,2,0,P|381:283|313:352,1,139.999995231629
245,363,10885,5,2,0:0:0:0:
253,279,10992,2,0,P|225:245|185:232,1,69.9999976158143
120,257,11207,1,0,0:0:0:0:
114,339,11314,2,0,P|148:334|178:316,1,69.9999976158143,8|0,0:0|0:0,0:0:0:0:
140,176,11528,6,0,L|89:99,1,69.9999976158143,6|0,0:0|0:0,0:0:0:0:
104,33,11742,2,0,L|174:68,1,69.9999976158143
240,106,11957,1,8,0:0:0:0:
305,54,12064,2,0,P|270:106|296:187,1,139.999995231629
351,124,12385,5,2,0:0:0:0:
425,163,12492,1,0,0:0:0:0:
411,245,12599,1,2,0:0:0:0:
326,252,12707,1,0,0:0:0:0:
209,217,12813,1,8,0:0:0:0:
286,177,12920,1,10,0:0:0:0:
248,295,13028,6,0,P|195:318|150:333,2,104.999996423721,4|0|0,0:0|0:0|0:0,0:0:0:0:
342,334,13885,2,0,L|381:353,1,34.9999988079071,2|0,0:0|0:0,0:0:0:0:
371,318,14099,2,0,L|412:339,1,34.9999988079071
406,302,14313,2,0,L|446:323,1,34.9999988079071,2|0,0:0|0:0,0:0:0:0:
442,287,14528,2,0,L|484:310,1,34.9999988079071
469,158,14742,5,4,0:0:0:0:
445,122,14849,1,0,0:0:0:0:
406,106,14956,1,0,0:0:0:0:
364,107,15063,1,2,0:0:0:0:
327,127,15170,1,8,0:0:0:0:
288,144,15277,1,0,0:0:0:0:
246,149,15384,1,2,0:0:0:0:
206,134,15492,1,0,0:0:0:0:
175,104,15599,1,2,0:0:0:0:
170,62,15706,1,0,0:0:0:0:
184,22,15813,2,0,L|279:-2,1,69.9999976158143,8|0,0:0|0:0,0:0:0:0:
327,127,16027,5,0,0:0:0:0:
324,182,16134,1,0,0:0:0:0:
287,225,16242,1,2,0:0:0:0:
231,232,16349,1,2,0:0:0:0:
180,207,16456,1,2,0:0:0:0:
158,155,16563,1,0,0:0:0:0:
112,121,16670,1,8,0:0:0:0:
56,127,16777,1,0,0:0:0:0:
22,204,16884,5,4,0:0:0:0:
29,259,16992,1,0,0:0:0:0:
54,308,17099,1,0,0:0:0:0:
106,328,17206,1,0,0:0:0:0:
161,330,17313,2,0,P|201:326|255:339,1,69.9999976158143,8|0,0:0|0:0,0:0:0:0:
311,354,17527,2,0,P|312:309|285:266,1,69.9999976158143
237,176,17742,5,2,0:0:0:0:
237,106,17849,1,0,0:0:0:0:
299,74,17956,1,0,0:0:0:0:
360,107,18063,1,2,0:0:0:0:
360,177,18170,1,8,0:0:0:0:
298,210,18277,1,0,0:0:0:0:
237,176,18384,2,0,L|169:192,1,69.9999976158143,2|2,0:0|0:0,0:0:0:0:
70,283,18599,5,4,0:0:0:0:
103,344,18706,1,0,0:0:0:0:
169,366,18813,1,0,0:0:0:0:
238,358,18920,1,0,0:0:0:0:
295,317,19027,1,8,0:0:0:0:
75,267,19241,5,0,0:0:0:0:
108,328,19348,1,0,0:0:0:0:
174,350,19455,1,2,0:0:0:0:
243,342,19562,1,0,0:0:0:0:
300,301,19669,1,0,0:0:0:0:
83,249,19884,5,8,0:0:0:0:
116,310,19991,1,0,0:0:0:0:
182,332,20098,1,0,0:0:0:0:
251,324,20205,1,0,0:0:0:0:
308,283,20312,1,2,0:0:0:0:
92,230,20527,5,0,0:0:0:0:
125,291,20634,1,0,0:0:0:0:
191,313,20741,1,8,0:0:0:0:
260,305,20848,1,0,0:0:0:0:
317,264,20956,2,0,L|361:188,1,69.9999976158143
233,28,21170,5,2,0:0:0:0:
172,87,21278,1,0,0:0:0:0:
208,162,21385,1,0,0:0:0:0:
291,154,21492,1,0,0:0:0:0:
305,71,21599,1,8,0:0:0:0:
89,93,21813,5,0,0:0:0:0:
72,176,21921,1,0,0:0:0:0:
144,217,22028,1,2,0:0:0:0:
208,162,22135,1,0,0:0:0:0:
171,86,22242,1,0,0:0:0:0:
8,228,22456,5,8,0:0:0:0:
39,304,22564,1,0,0:0:0:0:
122,299,22671,1,0,0:0:0:0:
144,217,22778,1,0,0:0:0:0:
72,176,22885,1,2,0:0:0:0:
190,348,23099,5,0,0:0:0:0:
257,295,23207,1,0,0:0:0:0:
232,215,23314,1,8,0:0:0:0:
144,217,23421,1,0,0:0:0:0:
122,299,23528,1,0,0:0:0:0:
371,213,23741,5,2,0:0:0:0:
298,166,23849,1,0,0:0:0:0:
232,215,23956,1,0,0:0:0:0:
257,295,24063,1,0,0:0:0:0:
344,293,24170,1,8,0:0:0:0:
298,96,24384,6,0,L|297:195,1,69.9999976158143
232,215,24599,1,2,0:0:0:0:
155,180,24706,1,2,0:0:0:0:
222,130,24813,1,2,0:0:0:0:
28,322,25027,5,4,0:0:0:0:
47,57,25241,2,0,L|144:98,1,105.000000429154,8|0,0:0|0:0,0:0:0:0:
222,130,25563,1,8,0:0:0:0:
205,344,25777,1,8,0:0:0:0:
384,179,25991,2,0,P|394:115|376:55,1,105.000000429154,8|0,0:0|0:0,0:0:0:0:
323,19,26313,1,8,0:0:0:0:
155,180,26527,1,2,0:0:0:0:
231,216,26634,1,2,0:0:0:0:
222,130,26741,5,4,0:0:0:0:
115,347,26955,2,0,L|247:309,1,105.000000429154,8|0,0:0|0:0,0:0:0:0:
295,290,27277,1,8,0:0:0:0:
322,100,27491,2,0,L|190:138,1,105.000000429154,8|0,0:0|0:0,0:0:0:0:
142,157,27813,1,8,0:0:0:0:
345,217,28027,1,10,0:0:0:0:
394,149,28134,1,2,0:0:0:0:
322,100,28241,1,10,0:0:0:0:
273,168,28348,1,2,0:0:0:0:
295,290,28455,5,4,0:0:0:0:
347,307,28562,1,0,0:0:0:0:
400,290,28669,1,2,0:0:0:0:
431,243,28776,1,0,0:0:0:0:
434,187,28883,1,8,0:0:0:0:
394,149,28990,1,0,0:0:0:0:
337,141,29097,2,0,L|261:172,1,69.9999976158143,0|2,0:0|0:0,0:0:0:0:
143,184,29312,5,2,0:0:0:0:
90,163,29419,1,0,0:0:0:0:
82,108,29526,1,8,0:0:0:0:
125,73,29633,1,0,0:0:0:0:
177,93,29740,1,0,0:0:0:0:
186,148,29847,1,0,0:0:0:0:
143,184,29955,2,0,L|91:168,1,34.9999988079071,2|2,0:0|0:0,0:0:0:0:
151,229,30062,2,0,L|99:237,1,34.9999988079071,2|2,0:0|0:0,0:0:0:0:
202,277,30169,1,2,0:0:0:0:
271,270,30276,1,0,0:0:0:0:
317,217,30383,1,0,0:0:0:0:
315,147,30490,1,0,0:0:0:0:
341,82,30597,5,8,0:0:0:0:
405,54,30705,1,0,0:0:0:0:
472,73,30812,1,0,0:0:0:0:
502,135,30919,1,2,0:0:0:0:
507,204,31026,2,0,P|503:240|495:277,1,69.9999976158143,2|0,0:0|0:0,0:0:0:0:
432,328,31240,1,8,0:0:0:0:
349,330,31347,1,8,0:0:0:0:
281,278,31455,5,4,0:0:0:0:
227,260,31562,1,0,0:0:0:0:
171,266,31669,1,2,0:0:0:0:
123,296,31776,1,0,0:0:0:0:
67,304,31883,1,8,0:0:0:0:
27,264,31990,1,0,0:0:0:0:
17,208,32097,2,0,P|29:172|56:137,1,69.9999976158143,0|2,0:0|0:0,0:0:0:0:
187,77,32312,5,2,0:0:0:0:
242,84,32419,1,0,0:0:0:0:
282,122,32526,1,8,0:0:0:0:
290,177,32633,1,0,0:0:0:0:
271,229,32740,1,0,0:0:0:0:
220,252,32847,1,0,0:0:0:0:
164,244,32955,2,0,L|134:272,1,34.9999988079071,2|2,0:0|0:0,0:0:0:0:
123,207,33062,2,0,L|125:158,1,34.9999988079071,2|2,0:0|0:0,0:0:0:0:
52,215,33169,1,2,0:0:0:0:
11,271,33276,1,0,0:0:0:0:
33,337,33383,1,2,0:0:0:0:
98,360,33490,1,0,0:0:0:0:
167,365,33597,5,8,0:0:0:0:
227,328,33705,1,0,0:0:0:0:
285,289,33812,1,0,0:0:0:0:
354,289,33919,1,2,0:0:0:0:
420,309,34026,2,0,P|443:341|460:373,1,69.9999976158143,2|0,0:0|0:0,0:0:0:0:
512,288,34240,1,8,0:0:0:0:
501,205,34347,1,8,0:0:0:0:
449,137,34455,5,4,0:0:0:0:
380,123,34562,1,0,0:0:0:0:
314,147,34669,1,0,0:0:0:0:
244,148,34776,1,0,0:0:0:0:
217,83,34883,1,8,0:0:0:0:
269,36,34990,1,0,0:0:0:0:
327,74,35097,1,0,0:0:0:0:
244,148,35205,6,0,P|217:91|126:77,1,139.999995231629,8|0,0:0|0:0,0:0:0:0:
100,222,35526,2,0,P|114:258|143:298,1,69.9999976158143,8|0,0:0|0:0,0:0:0:0:
273,305,35740,2,0,P|259:269|230:229,1,69.9999976158143,8|0,0:0|0:0,0:0:0:0:
287,80,35955,5,2,0:0:0:0:
356,83,36062,1,0,0:0:0:0:
403,133,36169,1,0,0:0:0:0:
409,202,36276,1,0,0:0:0:0:
373,262,36383,1,8,0:0:0:0:
304,273,36490,1,0,0:0:0:0:
241,242,36597,1,0,0:0:0:0:
205,140,36705,6,0,P|134:144|70:206,1,139.999995231629,8|0,0:0|0:0,0:0:0:0:
126,322,37026,2,0,P|161:340|218:343,1,69.9999976158143,8|0,0:0|0:0,0:0:0:0:
304,273,37240,2,0,P|336:261|371:261,1,69.9999976158143,8|0,0:0|0:0,0:0:0:0:
512,279,37455,5,4,0:0:0:0:
494,346,37562,1,0,0:0:0:0:
424,351,37669,1,0,0:0:0:0:
396,286,37776,1,0,0:0:0:0:
451,243,37883,1,8,0:0:0:0:
432,175,37990,1,0,0:0:0:0:
362,176,38097,1,0,0:0:0:0:
304,273,38205,6,0,P|232:301|166:298,1,139.999995231629,8|0,0:0|0:0,0:0:0:0:
120,233,38526,1,8,0:0:0:0:
108,178,38633,1,0,0:0:0:0:
170,122,38740,1,8,0:0:0:0:
158,67,38847,1,0,0:0:0:0:
222,13,38955,5,2,0:0:0:0:
291,22,39062,1,0,0:0:0:0:
348,62,39169,1,0,0:0:0:0:
357,131,39276,1,0,0:0:0:0:
310,182,39383,1,8,0:0:0:0:
322,250,39490,1,0,0:0:0:0:
382,284,39597,1,0,0:0:0:0:
441,173,39705,6,0,P|374:157|310:182,1,139.999995231629,8|0,0:0|0:0,0:0:0:0:
257,303,40026,2,0,L|256:337,2,34.9999988079071,8|0|0,0:0|0:0|0:0,0:0:0:0:
178,205,40240,1,8,0:0:0:0:
97,177,40347,1,0,0:0:0:0:
47,245,40455,1,0,0:0:0:0:
96,312,40562,1,0,0:0:0:0:
175,285,40669,5,6,0:0:0:0:
43,85,40883,1,0,0:0:0:0:
284,171,41097,1,8,0:0:0:0:
47,245,41312,1,0,0:0:0:0:
194,45,41526,5,8,0:0:0:0:
329,257,41740,1,0,0:0:0:0:
92,168,41955,1,8,0:0:0:0:
337,114,42169,2,0,P|380:120|422:151,1,69.9999976158143,2|0,0:0|0:0,0:0:0:0:
177,286,42383,5,8,0:0:0:0:
303,13,42597,1,0,0:0:0:0:
273,353,42812,1,8,0:0:0:0:
273,353,43240,5,6,0:0:0:0:
228,202,43454,1,0,0:0:0:0:
202,209,43561,1,0,0:0:0:0:
143,112,43775,1,0,0:0:0:0:
169,105,43882,1,0,0:0:0:0:
194,98,43990,1,0,0:0:0:0:
219,91,44097,1,0,0:0:0:0:
323,136,44311,1,0,0:0:0:0:
332,160,44418,1,0,0:0:0:0:
347,199,44525,5,0,0:0:0:0:
305,195,44632,1,0,0:0:0:0:
266,212,44740,1,0,0:0:0:0:
243,247,44847,1,0,0:0:0:0:
251,298,44954,5,0,0:0:0:0:
202,278,45061,1,0,0:0:0:0:
149,282,45168,1,0,0:0:0:0:
109,316,45275,1,0,0:0:0:0:
94,366,45382,6,0,L|152:382,2,35.0000001430512,2|2|2,0:0|0:0|0:0,0:0:0:0:
24,286,45597,2,0,L|27:341,2,35.0000001430512,2|2|2,0:0|0:0|0:0,0:0:0:0:
82,197,45811,2,0,L|39:214,2,35.0000001430512,2|2|2,0:0|0:0|0:0,0:0:0:0:
185,223,46025,2,0,L|154:190,2,35.0000001430512,2|2|2,0:0|0:0|0:0,0:0:0:0:
192,329,46240,2,0,L|217:277,2,35.0000001430512,2|2|2,0:0|0:0|0:0,0:0:0:0:
276,346,46454,5,8,0:0:0:0:
308,332,46561,1,0,0:0:0:0:
339,317,46668,1,0,0:0:0:0:
388,194,46882,1,0,0:0:0:0:
357,209,46989,1,0,0:0:0:0:
229,166,47204,1,0,0:0:0:0:
260,151,47311,1,0,0:0:0:0:
315,32,47525,6,8,B|396:18|396:18|388:39,2,104.999996423721,12|8|8,0:0|0:0|0:0,0:0:0:0:
243,69,47953,1,8,0:0:0:0:
255,292,48167,5,4,0:0:0:0:
199,292,48274,1,0,0:0:0:0:
151,263,48381,1,0,0:0:0:0:
149,207,48488,1,0,0:0:0:0:
185,164,48595,1,8,0:0:0:0:
240,157,48702,1,0,0:0:0:0:
286,188,48809,1,0,0:0:0:0:
291,244,48917,2,0,P|330:254|385:240,1,69.9999976158143,0|2,0:0|0:0,0:0:0:0:
478,190,49131,5,0,0:0:0:0:
468,134,49238,1,0,0:0:0:0:
436,87,49345,1,0,0:0:0:0:
385,63,49452,1,8,0:0:0:0:
329,65,49559,1,0,0:0:0:0:
277,89,49667,1,0,0:0:0:0:
242,133,49774,2,0,P|210:144|172:144,1,69.9999976158143,0|2,0:0|0:0,0:0:0:0:
41,112,49988,5,0,0:0:0:0:
37,181,50095,1,0,0:0:0:0:
68,243,50202,1,0,0:0:0:0:
126,282,50309,1,8,0:0:0:0:
196,284,50417,1,0,0:0:0:0:
258,253,50524,1,0,0:0:0:0:
311,208,50631,1,0,0:0:0:0:
380,208,50738,5,2,0:0:0:0:
424,261,50845,1,0,0:0:0:0:
436,343,50952,2,8,P|384:365|331:361,2,104.999996423721
500,284,51381,1,10,0:0:0:0:
486,206,51488,1,2,0:0:0:0:
417,161,51595,5,4,0:0:0:0:
361,161,51702,1,0,0:0:0:0:
312,188,51809,1,0,0:0:0:0:
255,188,51917,1,0,0:0:0:0:
217,146,52024,1,8,0:0:0:0:
233,92,52131,1,0,0:0:0:0:
286,75,52238,1,0,0:0:0:0:
339,94,52345,2,0,L|364:170,1,69.9999976158143,0|2,0:0|0:0,0:0:0:0:
322,299,52559,5,0,0:0:0:0:
267,283,52667,1,0,0:0:0:0:
213,300,52774,1,0,0:0:0:0:
179,344,52881,1,8,0:0:0:0:
123,347,52988,1,0,0:0:0:0:
78,313,53095,1,0,0:0:0:0:
71,257,53202,2,0,L|115:194,1,69.9999976158143,0|2,0:0|0:0,0:0:0:0:
211,100,53417,5,0,0:0:0:0:
279,111,53524,1,0,0:0:0:0:
234,164,53631,1,0,0:0:0:0:
165,151,53738,1,8,0:0:0:0:
144,84,53845,1,0,0:0:0:0:
191,33,53952,1,0,0:0:0:0:
259,46,54059,1,0,0:0:0:0:
279,111,54167,5,2,0:0:0:0:
234,164,54274,1,0,0:0:0:0:
314,189,54381,2,8,L|438:152,2,104.999996423721
252,244,54809,1,8,0:0:0:0:
172,221,54917,6,0,P|135:228|105:243,1,69.9999976158143,2|0,0:0|0:0,0:0:0:0:
73,305,55131,1,0,0:0:0:0:
126,355,55238,2,0,L|194:377,1,52.5000002145768
222,313,55452,2,0,L|283:333,1,52.5000002145768
330,280,55667,2,0,L|398:302,1,52.5000002145768
426,238,55881,2,0,L|487:258,1,52.5000002145768
413,159,56095,6,0,L|464:110,1,52.5000002145768
374,88,56309,2,0,L|312:70,1,52.5000002145768
332,156,56524,2,0,L|347:218,1,52.5000002145768
263,287,56738,5,6,0:0:0:0:
194,298,56845,1,0,0:0:0:0:
140,253,56952,1,0,0:0:0:0:
145,183,57059,1,0,0:0:0:0:
193,132,57166,1,8,0:0:0:0:
176,63,57274,1,0,0:0:0:0:
109,41,57381,1,0,0:0:0:0:
62,92,57488,1,0,0:0:0:0:
79,161,57595,5,2,0:0:0:0:
145,183,57702,1,0,0:0:0:0:
219,134,57809,2,8,L|323:73,2,104.999996423721
220,224,58238,1,10,0:0:0:0:
298,251,58345,1,2,0:0:0:0:
367,204,58452,5,4,0:0:0:0:
422,207,58559,1,0,0:0:0:0:
468,238,58666,1,0,0:0:0:0:
486,291,58774,1,0,0:0:0:0:
458,339,58881,1,8,0:0:0:0:
406,361,58988,1,0,0:0:0:0:
351,348,59095,1,0,0:0:0:0:
313,306,59202,2,0,P|282:304|239:312,1,69.9999976158143,0|2,0:0|0:0,0:0:0:0:
125,366,59416,5,0,0:0:0:0:
105,313,59524,1,0,0:0:0:0:
117,258,59631,1,0,0:0:0:0:
155,217,59738,1,8,0:0:0:0:
193,176,59845,1,0,0:0:0:0:
195,120,59952,1,0,0:0:0:0:
162,74,60059,2,0,P|125:55|84:50,1,69.9999976158143,0|2,0:0|0:0,0:0:0:0:
7,158,60274,5,0,0:0:0:0:
25,225,60381,1,0,0:0:0:0:
91,245,60488,1,0,0:0:0:0:
155,217,60595,1,8,0:0:0:0:
215,252,60702,1,0,0:0:0:0:
215,321,60809,1,0,0:0:0:0:
155,356,60916,1,0,0:0:0:0:
151,288,61024,5,2,0:0:0:0:
215,252,61131,1,0,0:0:0:0:
294,288,61238,2,8,L|422:298,2,104.999996423721
281,205,61666,1,10,0:0:0:0:
349,152,61774,1,2,0:0:0:0:
421,187,61881,6,0,L|491:220,1,69.9999976158143,6|0,0:0|0:0,0:0:0:0:
483,132,62095,2,0,L|419:102,1,69.9999976158143
349,152,62310,1,8,0:0:0:0:
301,80,62417,2,0,P|316:146|281:205,1,139.999995231629
198,219,62738,5,2,0:0:0:0:
141,156,62845,2,0,L|155:78,1,69.9999976158143
70,102,63060,1,0,0:0:0:0:
23,171,63167,2,0,P|30:210|61:249,1,69.9999976158143,8|0,0:0|0:0,0:0:0:0:
137,325,63381,6,0,P|171:309|217:311,1,69.9999976158143,6|0,0:0|0:0,0:0:0:0:
270,358,63595,2,0,P|304:356|336:341,1,69.9999976158143
367,262,63810,1,8,0:0:0:0:
283,274,63917,2,0,P|232:219|218:129,1,139.999995231629
206,73,64238,5,2,0:0:0:0:
288,59,64345,1,0,0:0:0:0:
298,141,64452,1,0,0:0:0:0:
216,157,64560,1,0,0:0:0:0:
288,59,64666,1,8,0:0:0:0:
382,127,64773,1,10,0:0:0:0:
308,229,64881,6,0,L|204:282,2,104.999996423721,4|0|0,0:0|0:0|0:0,0:0:0:0:
216,157,65738,2,0,L|180:142,1,34.9999988079071
187,175,65952,2,0,L|143:158,1,34.9999988079071
161,193,66166,2,0,L|121:178,1,34.9999988079071
137,212,66381,2,0,L|93:194,1,34.9999988079071
91,303,66595,6,0,L|95:353,5,35.0000001430512,8|0|0|0|0|0,0:0|0:0|0:0|0:0|0:0|0:0,0:0:0:0:
191,303,67023,2,0,L|225:345,5,35.0000001430512,2|0|0|0|0|0,0:0|0:0|0:0|0:0|0:0|0:0,0:0:0:0:
263,236,67452,6,0,L|318:241,1,35.0000001430512,10|2,0:0|0:0,0:0:0:0:
220,166,67595,2,0,L|185:162,1,35.0000001430512,2|2,0:0|0:0,0:0:0:0:
279,108,67738,2,0,L|333:112,1,35.0000001430512,0|2,0:0|0:0,0:0:0:0:
365,179,67881,2,0,L|414:182,1,35.0000001430512,2|2,0:0|0:0,0:0:0:0:
297,239,68023,2,0,L|262:236,1,35.0000001430512,2|2,0:0|0:0,0:0:0:0:
358,307,68166,2,0,L|404:311,1,35.0000001430512,2|2,0:0|0:0,0:0:0:0:
290,367,68309,5,4,0:0:0:0:
290,367,68738,2,0,L|195:362,2,83.9999945755007
414,253,69595,1,0,0:0:0:0:
395,171,69809,1,0,0:0:0:0:
292,231,70023,6,0,P|247:239|200:231,1,83.9999945755007
156,168,70452,1,0,0:0:0:0:
244,24,70881,1,0,0:0:0:0:
345,157,71309,2,0,L|390:249,1,83.9999945755007
347,340,71738,5,0,0:0:0:0:
196,266,72166,2,0,P|152:273|115:295,1,83.9999945755007
57,350,72595,1,0,0:0:0:0:
77,183,73023,2,0,L|128:97,1,83.9999945755007
217,66,73452,6,0,P|260:70|315:57,2,83.9999945755007
222,234,74309,2,0,P|265:230|320:243,2,83.9999945755007
163,294,74952,1,0,0:0:0:0:
257,353,75166,6,0,L|379:288,1,111.999996185303,4|0,0:0|0:0,0:0:0:0:
428,254,75488,1,0,0:0:0:0:
428,254,75595,2,0,P|422:191|386:148,1,111.999996185303
229,65,76023,1,0,0:0:0:0:
229,65,76131,1,0,0:0:0:0:
229,65,76238,2,0,L|199:130,1,55.9999980926514
130,255,76452,1,0,0:0:0:0:
110,96,76666,1,0,0:0:0:0:
218,209,76881,6,0,L|332:220,1,111.999996185303
413,228,77202,1,0,0:0:0:0:
413,228,77309,2,0,P|361:258|334:329,1,111.999996185303
382,143,77738,1,0,0:0:0:0:
372,137,77845,1,0,0:0:0:0:
362,131,77952,1,0,0:0:0:0:
352,124,78059,1,0,0:0:0:0:
341,118,78166,2,0,P|283:92|206:80,1,111.999996185303
173,247,78595,6,0,P|180:192|160:132,1,111.999996185303
156,54,78916,1,0,0:0:0:0:
156,54,79023,2,0,L|66:162,1,111.999996185303
80,316,79452,1,0,0:0:0:0:
80,316,79559,1,0,0:0:0:0:
80,316,79666,2,0,L|140:369,1,55.9999980926514
284,278,79881,2,0,P|231:294|206:343,1,111.999996185303
403,259,80309,6,0,L|469:187,2,74.6666641235352,10|2|2,0:0|0:0|0:0,0:0:0:0:
335,213,80738,2,0,L|270:155,2,74.6666641235352,10|2|2,0:0|0:0|0:0,0:0:0:0:
284,278,81166,2,0,L|230:339,2,74.6666641235352,10|2|2,0:0|0:0|0:0,0:0:0:0:
352,326,81595,2,0,L|416:382,2,74.6666641235352,10|2|2,0:0|0:0|0:0,0:0:0:0:
253,202,82023,5,4,0:0:0:0:
403,259,82166,1,0,0:0:0:0:
266,361,82309,1,0,0:0:0:0:
442,337,82452,1,8,0:0:0:0:
284,278,82595,2,0,L|229:284,1,46.6666650772095
416,172,82738,2,0,L|474:166,1,46.6666650772095
303,131,82881,5,2,0:0:0:0:
366,290,83023,1,0,0:0:0:0:
253,202,83166,1,0,0:0:0:0:
315,355,83309,1,8,0:0:0:0:
338,208,83452,2,0,L|384:171,1,46.6666650772095
199,265,83595,2,0,L|144:257,1,46.6666650772095
303,131,83738,5,2,0:0:0:0:
130,104,83881,1,0,0:0:0:0:
253,202,84023,1,0,0:0:0:0:
21,249,84166,1,8,0:0:0:0:
166,185,84309,2,0,L|208:147,1,46.6666650772095
45,91,84452,2,0,L|67:49,1,46.6666650772095
114,257,84595,5,2,0:0:0:0:
217,118,84738,1,0,0:0:0:0:
76,176,84881,1,0,0:0:0:0:
190,36,85023,1,8,0:0:0:0:
253,202,85166,2,0,L|276:255,1,46.6666650772095
369,61,85309,2,0,L|349:11,1,46.6666650772095
166,185,85452,5,6,0:0:0:0:
341,218,85595,1,0,0:0:0:0:
196,269,85738,1,0,0:0:0:0:
217,118,85881,1,8,0:0:0:0:
285,282,86023,2,0,L|307:332,1,46.6666650772095
106,252,86166,2,0,L|62:292,1,46.6666650772095
253,202,86309,5,2,0:0:0:0:
77,167,86452,1,0,0:0:0:0:
217,118,86595,1,0,0:0:0:0:
196,269,86738,1,8,0:0:0:0:
134,100,86881,2,0,L|114:34,1,46.6666650772095
306,127,87023,2,0,L|361:94,1,46.6666650772095
230,347,87166,5,2,0:0:0:0:
253,202,87309,1,0,0:0:0:0:
363,289,87452,1,0,0:0:0:0:
196,269,87595,1,8,0:0:0:0:
334,208,87738,2,0,L|377:181,1,46.6666650772095
164,186,87881,2,0,L|124:211,1,46.6666650772095
270,43,88023,5,2,0:0:0:0:
281,282,88166,1,2,0:0:0:0:
134,100,88309,1,2,0:0:0:0:
306,127,88452,1,8,0:0:0:0:
314,122,88523,1,2,0:0:0:0:
322,118,88595,1,2,0:0:0:0:
330,114,88666,1,2,0:0:0:0:
338,110,88738,1,2,0:0:0:0:
346,106,88809,1,2,0:0:0:0:
367,95,88881,5,4,0:0:0:0:
436,95,88988,1,0,0:0:0:0:
480,149,89095,1,0,0:0:0:0:
470,218,89202,1,0,0:0:0:0:
408,250,89309,1,8,0:0:0:0:
340,230,89416,1,0,0:0:0:0:
270,232,89523,1,0,0:0:0:0:
211,271,89631,1,0,0:0:0:0:
201,340,89738,5,2,0:0:0:0:
256,382,89845,1,0,0:0:0:0:
325,377,89952,2,0,L|360:285,1,69.9999976158143
301,162,90166,1,8,0:0:0:0:
239,128,90273,1,0,0:0:0:0:
168,130,90381,1,0,0:0:0:0:
109,168,90488,1,0,0:0:0:0:
94,236,90595,5,2,0:0:0:0:
102,305,90702,1,0,0:0:0:0:
142,361,90809,2,0,P|181:358|222:364,1,69.9999976158143
318,311,91023,1,8,0:0:0:0:
387,296,91131,1,0,0:0:0:0:
458,300,91238,1,0,0:0:0:0:
455,230,91345,1,0,0:0:0:0:
415,172,91452,5,2,0:0:0:0:
355,135,91559,1,0,0:0:0:0:
285,134,91666,2,0,P|252:144|216:149,1,69.9999976158143
55,201,91881,1,8,0:0:0:0:
49,145,91988,1,0,0:0:0:0:
66,91,92095,2,0,L|132:31,1,69.9999976158143
262,37,92309,5,6,0:0:0:0:
322,73,92416,1,0,0:0:0:0:
355,135,92523,1,0,0:0:0:0:
321,196,92630,1,0,0:0:0:0:
284,255,92737,1,8,0:0:0:0:
291,324,92844,1,0,0:0:0:0:
350,361,92951,1,0,0:0:0:0:
420,354,93059,1,0,0:0:0:0:
464,300,93166,5,2,0:0:0:0:
456,230,93273,1,0,0:0:0:0:
397,192,93380,2,0,L|370:274,1,69.9999976158143
219,299,93594,1,8,0:0:0:0:
152,276,93701,1,0,0:0:0:0:
118,214,93809,1,0,0:0:0:0:
120,144,93916,1,0,0:0:0:0:
163,89,94023,5,2,0:0:0:0:
231,76,94130,1,0,0:0:0:0:
299,89,94237,2,0,L|367:159,1,69.9999976158143
328,270,94451,1,8,0:0:0:0:
337,339,94559,1,0,0:0:0:0:
406,347,94666,1,0,0:0:0:0:
441,286,94773,1,0,0:0:0:0:
390,238,94880,5,2,0:0:0:0:
328,270,94987,1,0,0:0:0:0:
261,248,95094,2,0,L|192:263,1,69.9999976158143
66,196,95309,1,8,0:0:0:0:
70,140,95416,1,0,0:0:0:0:
76,84,95523,2,0,P|95:50|136:21,1,69.9999976158143
265,70,95738,5,6,0:0:0:0:
323,107,95845,1,0,0:0:0:0:
392,107,95952,1,0,0:0:0:0:
454,76,96059,1,0,0:0:0:0:
421,14,96166,1,8,0:0:0:0:
358,45,96273,1,0,0:0:0:0:
392,107,96380,1,0,0:0:0:0:
394,177,96488,1,0,0:0:0:0:
364,240,96595,5,2,0:0:0:0:
309,284,96702,1,0,0:0:0:0:
239,285,96809,2,0,L|168:268,1,69.9999976158143
39,226,97023,1,8,0:0:0:0:
27,153,97130,1,0,0:0:0:0:
78,104,97238,1,0,0:0:0:0:
147,98,97345,1,0,0:0:0:0:
203,140,97452,5,2,0:0:0:0:
210,210,97559,1,0,0:0:0:0:
170,268,97666,2,0,L|190:342,1,69.9999976158143
343,341,97880,1,8,0:0:0:0:
400,299,97988,1,0,0:0:0:0:
405,229,98095,1,0,0:0:0:0:
361,174,98202,1,0,0:0:0:0:
307,128,98309,5,2,0:0:0:0:
315,58,98416,1,0,0:0:0:0:
374,20,98523,2,0,L|473:17,1,69.9999976158143
489,155,98738,1,8,0:0:0:0:
447,192,98845,1,0,0:0:0:0:
405,229,98952,2,0,L|338:247,1,69.9999976158143
183,259,99166,5,6,0:0:0:0:
148,198,99273,1,0,0:0:0:0:
195,147,99380,1,0,0:0:0:0:
259,173,99487,1,0,0:0:0:0:
251,242,99594,1,8,0:0:0:0:
183,259,99701,1,0,0:0:0:0:
175,328,99808,1,0,0:0:0:0:
239,355,99916,1,0,0:0:0:0:
285,302,100023,5,2,0:0:0:0:
251,242,100130,1,0,0:0:0:0:
259,173,100238,2,0,L|324:133,1,69.9999976158143
460,132,100451,1,8,0:0:0:0:
485,197,100558,1,0,0:0:0:0:
473,266,100666,1,0,0:0:0:0:
420,311,100773,1,0,0:0:0:0:
351,324,100880,5,2,0:0:0:0:
285,302,100987,1,0,0:0:0:0:
216,285,101095,1,2,0:0:0:0:
148,302,101202,1,0,0:0:0:0:
90,340,101308,1,8,0:0:0:0:
20,328,101416,1,0,0:0:0:0:
2,260,101523,1,2,0:0:0:0:
43,203,101630,1,0,0:0:0:0:
112,205,101737,5,2,0:0:0:0:
171,156,101844,1,2,0:0:0:0:
164,72,101952,1,2,0:0:0:0:
82,32,102059,1,2,0:0:0:0:
14,102,102166,1,10,0:0:0:0:
43,203,102273,1,2,0:0:0:0:
152,230,102381,1,2,0:0:0:0:
251,164,102488,1,2,0:0:0:0:
222,26,102595,5,4,0:0:0:0:
222,26,103024,2,0,L|332:34,2,83.9999945755007
248,192,103881,1,0,0:0:0:0:
329,174,104095,1,0,0:0:0:0:
225,107,104309,6,0,P|188:128|164:166,1,83.9999945755007
188,246,104738,2,0,P|225:225|249:187,1,83.9999945755007
106,225,105166,2,0,L|119:330,1,83.9999945755007
198,330,105595,2,0,P|243:336|283:333,1,83.9999945755007
389,290,106024,5,0,0:0:0:0:
443,131,106452,2,0,L|359:122,1,83.9999945755007
277,141,106881,1,0,0:0:0:0:
331,205,107095,1,0,0:0:0:0:
298,57,107309,2,0,P|251:57|216:77,1,83.9999945755007
211,203,107738,6,0,L|222:300,2,83.9999945755007
155,136,108381,1,0,0:0:0:0:
96,255,108595,2,0,L|106:355,2,83.9999945755007
72,174,109238,1,0,0:0:0:0:
12,233,109452,5,0,0:0:0:0:
96,255,109666,1,0,0:0:0:0:
156,195,109881,2,0,P|158:156|135:111,2,83.9999945755007
271,317,110738,1,0,0:0:0:0:
271,233,110952,1,0,0:0:0:0:
409,255,111166,6,0,P|458:252|503:208,1,83.9999945755007
427,173,111595,2,0,P|378:176|333:220,1,83.9999945755007
310,350,112023,2,0,P|331:306|316:245,1,83.9999945755007
266,216,112452,2,0,L|178:183,1,83.9999945755007
78,138,112881,5,0,0:0:0:0:
234,76,113309,2,0,L|350:76,1,83.9999945755007
393,113,113738,1,0,0:0:0:0:
323,160,113952,1,0,0:0:0:0:
389,27,114166,2,0,P|445:44|471:77,1,83.9999945755007
442,183,114595,6,0,L|424:276,2,83.9999945755007
393,113,115238,1,0,0:0:0:0:
325,211,115452,2,0,L|308:299,2,83.9999945755007
276,141,116095,1,0,0:0:0:0:
