osu file format v14

[General]
AudioFilename: audio.mp3
AudioLeadIn: 0
PreviewTime: 81916
Countdown: 0
SampleSet: Soft
StackLeniency: 0.7
Mode: 3
LetterboxInBreaks: 0
SpecialStyle: 0
WidescreenStoryboard: 0

[Editor]
DistanceSpacing: 0.5
BeatDivisor: 4
GridSize: 4
TimelineZoom: 1.4

[Metadata]
Title:Shounen wa Sora o Tadoru Prog Piano Remix
TitleUnicode:少年は空を辿る Prog Piano Remix
Artist:Toromaru
ArtistUnicode:とろまる
Creator:jakads
Version:INFINITE
Source:SOUND VOLTEX II -infinite infection-
Tags:Wonki Fresh Chicken Lass
BeatmapID:973284
BeatmapSetID:453912

[Difficulty]
HPDrainRate:8.5
CircleSize:7
OverallDifficulty:8.5
ApproachRate:5
SliderMultiplier:1.4
SliderTickRate:1

[Events]
//Background and Video events
0,0,"dress_piano_forest_anime_anime_girls_Wallpaper HD_1366x768_www.paperhi.com.jpg",0,0
//Break Periods
//Storyboard Layer 0 (Background)
//Storyboard Layer 1 (Fail)
//Storyboard Layer 2 (Pass)
//Storyboard Layer 3 (Foreground)
//Storyboard Sound Samples

[TimingPoints]
1456.68957896314,428.571428571429,4,2,1,30,1,0
6599,-100,4,2,1,30,0,1
6706,-66.6666666666667,4,2,1,30,0,1
6813,-200,4,2,1,30,0,1
6920,-100,4,2,1,30,0,1
7028,-66.6666666666667,4,2,1,30,0,1
7135,-200,4,2,1,30,0,1
7242,-100,4,2,1,30,0,1
7349,-66.6666666666667,4,2,1,30,0,1
7456,-200,4,2,1,30,0,1
7563,-100,4,2,1,30,0,1
7885,-66.6666666666667,4,2,1,30,0,1
7992,-200,4,2,1,30,0,1
8099,-100,4,2,1,30,0,1
8206,-66.6666666666667,4,2,1,30,0,1
8313,-200,4,2,1,30,0,1
8420,-100,4,2,1,30,0,1
8956,-66.6666666666667,4,2,1,30,0,1
9063,-200,4,2,1,30,0,1
9170,-100,4,2,1,30,0,1
9278,-66.6666666666667,4,2,1,30,0,1
9385,-200,4,2,1,30,0,1
9492,-100,4,2,1,30,0,1
9599,-66.6666666666667,4,2,1,30,0,1
9706,-200,4,2,1,30,0,1
9813,-100,4,2,1,30,0,1
10028,-100,4,2,1,30,0,0
11528,428.571428571429,4,2,1,30,1,0
13028,428.571428571429,4,2,1,30,1,0
13028,-117.647058823529,4,2,1,30,0,0
14742,428.571428571429,7,2,1,30,1,0
18599,428.571428571429,7,2,1,30,1,0
23313,428.571428571429,4,2,1,30,1,0
25027,-66.6666666666667,4,2,1,30,0,0
25134,-200,4,2,1,30,0,0
25241,-50,4,2,1,30,0,0
25348,-200,4,2,1,30,0,0
25563,-66.6666666666667,4,2,1,30,0,0
25670,-200,4,2,1,30,0,0
25777,-66.6666666666667,4,2,1,30,0,0
25884,-200,4,2,1,30,0,0
25991,-50,4,2,1,30,0,0
26098,-200,4,2,1,30,0,0
26313,-66.6666666666667,4,2,1,30,0,0
26420,-200,4,2,1,30,0,0
26527,-66.6666666666667,4,2,1,30,0,0
26580,-200,4,2,1,30,0,0
26634,-66.6666666666667,4,2,1,30,0,0
26688,-200,4,2,1,30,0,0
26741,-66.6666666666667,4,2,1,30,0,0
26848,-200,4,2,1,30,0,0
26955,-50,4,2,1,30,0,0
27063,-200,4,2,1,30,0,0
27277,-66.6666666666667,4,2,1,30,0,0
27384,-200,4,2,1,30,0,0
27491,-50,4,2,1,30,0,0
27598,-200,4,2,1,30,0,0
27813,-66.6666666666667,4,2,1,30,0,0
27920,-200,4,2,1,30,0,0
28027,-66.6666666666667,4,2,1,30,0,0
28134,-200,4,2,1,30,0,0
28241,-66.6666666666667,4,2,1,30,0,0
28295,-200,4,2,1,30,0,0
28348,-66.6666666666667,4,2,1,30,0,0
28402,-200,4,2,1,30,0,0
28455,428.571428571429,7,2,1,30,1,0
34455,428.571428571429,4,2,1,30,1,0
35205,-50,4,2,1,30,0,0
35312,-200,4,2,1,30,0,0
35526,-66.6666666666667,4,2,1,30,0,0
35633,-200,4,2,1,30,0,0
35740,-66.6666666666667,4,2,1,30,0,0
35847,-200,4,2,1,30,0,0
35955,428.571428571429,4,2,1,30,1,0
36705,-50,4,2,1,30,0,0
36812,-200,4,2,1,30,0,0
37026,-66.6666666666667,4,2,1,30,0,0
37133,-200,4,2,1,30,0,0
37240,-66.6666666666667,4,2,1,30,0,0
37347,-200,4,2,1,30,0,0
37455,428.571428571429,4,2,1,30,1,0
38205,-50,4,2,1,30,0,0
38312,-200,4,2,1,30,0,0
38526,-100,4,2,1,30,0,0
38955,428.571428571429,4,2,1,30,1,0
39705,-50,4,2,1,30,0,0
39812,-200,4,2,1,30,0,0
40026,-100,4,2,1,30,0,0
40669,-66.6666666666667,4,2,1,30,0,0
40776,-200,4,2,1,30,0,0
40883,-66.6666666666667,4,2,1,30,0,0
40990,-200,4,2,1,30,0,0
41097,-66.6666666666667,4,2,1,30,0,0
41205,-200,4,2,1,30,0,0
41312,-66.6666666666667,4,2,1,30,0,0
41419,-200,4,2,1,30,0,0
41526,-66.6666666666667,4,2,1,30,0,0
41633,-200,4,2,1,30,0,0
41740,-66.6666666666667,4,2,1,30,0,0
41847,-200,4,2,1,30,0,0
41955,-66.6666666666667,4,2,1,30,0,0
42008,-200,4,2,1,30,0,0
42062,-66.6666666666667,4,2,1,30,0,0
42115,-200,4,2,1,30,0,0
42169,-66.6666666666667,4,2,1,30,0,0
42222,-200,4,2,1,30,0,0
42276,-66.6666666666667,4,2,1,30,0,0
42330,-200,4,2,1,30,0,0
42383,-66.6666666666667,4,2,1,30,0,0
42490,-200,4,2,1,30,0,0
42597,-66.6666666666667,4,2,1,30,0,0
42705,-200,4,2,1,30,0,0
42812,-66.6666666666667,4,2,1,30,0,0
42865,-200,4,2,1,30,0,0
42919,-66.6666666666667,4,2,1,30,0,0
42972,-200,4,2,1,30,0,0
43026,-66.6666666666667,4,2,1,30,0,0
43133,-200,4,2,1,30,0,0
43240,428.571428571429,4,2,1,30,1,0
43240,-111.111111111111,4,2,1,30,0,0
46454,428.571428571429,4,2,1,30,1,0
46454,-111.111111111111,4,2,1,30,0,0
47525,428.571428571429,4,2,1,30,1,0
47525,-50,4,2,1,30,0,0
47578,-200,4,2,1,30,0,0
47685,-50,4,2,1,30,0,0
47739,-200,4,2,1,30,0,0
47846,-66.6666666666667,4,2,1,30,0,0
47900,-200,4,2,1,30,0,0
47953,-66.6666666666667,4,2,1,30,0,0
48060,-200,4,2,1,30,0,0
48167,428.571428571429,4,2,1,30,1,1
50952,-50,4,2,1,30,0,1
51006,-200,4,2,1,30,0,1
51113,-50,4,2,1,30,0,1
51167,-200,4,2,1,30,0,1
51274,-66.6666666666667,4,2,1,30,0,1
51327,-200,4,2,1,30,0,1
51381,-66.6666666666667,4,2,1,30,0,1
51434,-200,4,2,1,30,0,1
51488,-66.6666666666667,4,2,1,30,0,1
51542,-200,4,2,1,30,0,1
51595,-100,4,2,1,30,0,1
54381,-50,4,2,1,30,0,1
54434,-200,4,2,1,30,0,1
54542,-50,4,2,1,30,0,1
54595,-200,4,2,1,30,0,1
54702,-66.6666666666667,4,2,1,30,0,1
54756,-200,4,2,1,30,0,1
54809,-66.6666666666667,4,2,1,30,0,1
54863,-200,4,2,1,30,0,1
54917,-66.6666666666667,4,2,1,30,0,1
54970,-200,4,2,1,30,0,1
55024,-117.647058823529,4,2,1,30,0,0
56738,-100,4,2,1,30,0,1
57809,-50,4,2,1,30,0,1
57863,-200,4,2,1,30,0,1
57970,-50,4,2,1,30,0,1
58024,-200,4,2,1,30,0,1
58131,-66.6666666666667,4,2,1,30,0,1
58184,-200,4,2,1,30,0,1
58238,-66.6666666666667,4,2,1,30,0,1
58292,-200,4,2,1,30,0,1
58345,-66.6666666666667,4,2,1,30,0,1
58399,-200,4,2,1,30,0,1
58452,-100,4,2,1,30,0,1
61238,-50,4,2,1,30,0,1
61292,-200,4,2,1,30,0,1
61399,-50,4,2,1,30,0,1
61452,-200,4,2,1,30,0,1
61559,-66.6666666666667,4,2,1,30,0,1
61613,-200,4,2,1,30,0,1
61667,-66.6666666666667,4,2,1,30,0,1
61720,-200,4,2,1,30,0,1
61774,-66.6666666666667,4,2,1,30,0,1
61827,-200,4,2,1,30,0,1
61881,-100,4,2,1,30,0,1
63381,428.571428571429,4,2,1,30,1,1
64881,428.571428571429,4,2,1,30,1,1
64881,-117.647058823529,4,2,1,30,0,1
66595,-111.111111111111,4,2,1,30,0,1
67023,-106.382978723404,4,2,1,30,0,1
67452,-103.092783505155,4,2,1,30,0,1
67881,-100,4,2,1,30,0,1
68309,-133.333333333333,4,2,1,30,0,0
75166,-111.111111111111,4,2,1,30,0,0
80309,-100,4,2,1,30,0,0
82023,-100,4,2,1,30,0,1
102595,-133.333333333333,4,2,1,30,0,0

[HitObjects]
36,192,599,5,0,0:0:0:0:
109,192,653,1,0,0:0:0:0:
182,192,706,1,0,0:0:0:0:
256,192,760,1,0,0:0:0:0:
109,192,813,1,0,0:0:0:0:
182,192,867,1,0,0:0:0:0:
256,192,920,1,0,0:0:0:0:
329,192,974,1,0,0:0:0:0:
475,192,1028,1,0,0:0:0:0:
36,192,1028,1,0,0:0:0:0:
402,192,1081,1,0,0:0:0:0:
329,192,1135,1,0,0:0:0:0:
109,192,1135,1,0,0:0:0:0:
256,192,1188,1,0,0:0:0:0:
475,192,1242,1,0,0:0:0:0:
182,192,1242,1,0,0:0:0:0:
402,192,1295,1,0,0:0:0:0:
329,192,1349,1,0,0:0:0:0:
36,192,1349,1,0,0:0:0:0:
256,192,1403,1,0,0:0:0:0:
182,192,1456,1,6,0:0:0:0:
109,192,1456,1,0,0:0:0:0:
475,192,1456,1,0,0:0:0:0:
402,192,1563,1,0,0:0:0:0:
36,192,1670,1,0,0:0:0:0:
329,192,1670,1,0,0:0:0:0:
182,192,1778,1,0,0:0:0:0:
36,192,1885,1,10,0:0:0:0:
475,192,1885,1,0,0:0:0:0:
256,192,1885,1,0,0:0:0:0:
329,192,1992,1,0,0:0:0:0:
109,192,1992,1,0,0:0:0:0:
182,192,2099,1,0,0:0:0:0:
402,192,2206,1,0,0:0:0:0:
256,192,2313,1,2,0:0:0:0:
109,192,2313,1,0,0:0:0:0:
475,192,2313,1,0,0:0:0:0:
36,192,2420,1,0,0:0:0:0:
182,192,2528,1,0,0:0:0:0:
402,192,2528,1,0,0:0:0:0:
329,192,2635,1,0,0:0:0:0:
256,192,2742,1,10,0:0:0:0:
109,192,2742,1,0,0:0:0:0:
36,192,2742,1,0,0:0:0:0:
475,192,2849,1,0,0:0:0:0:
402,192,2849,1,0,0:0:0:0:
109,192,2956,1,0,0:0:0:0:
329,192,3063,1,0,0:0:0:0:
36,192,3170,1,2,0:0:0:0:
182,192,3170,1,0,0:0:0:0:
402,192,3170,1,0,0:0:0:0:
475,192,3278,1,0,0:0:0:0:
256,192,3385,1,0,0:0:0:0:
329,192,3385,1,0,0:0:0:0:
109,192,3492,1,0,0:0:0:0:
182,192,3599,1,10,0:0:0:0:
329,192,3599,1,0,0:0:0:0:
475,192,3599,1,0,0:0:0:0:
256,192,3706,1,0,0:0:0:0:
36,192,3706,1,0,0:0:0:0:
402,192,3813,1,0,0:0:0:0:
109,192,3920,1,0,0:0:0:0:
182,192,4028,1,2,0:0:0:0:
256,192,4028,1,0,0:0:0:0:
329,192,4028,1,0,0:0:0:0:
402,192,4135,1,0,0:0:0:0:
475,192,4242,1,0,0:0:0:0:
36,192,4242,1,0,0:0:0:0:
182,192,4349,1,0,0:0:0:0:
109,192,4456,1,10,0:0:0:0:
329,192,4456,1,0,0:0:0:0:
475,192,4456,1,0,0:0:0:0:
256,192,4563,1,0,0:0:0:0:
402,192,4563,1,0,0:0:0:0:
36,192,4670,1,0,0:0:0:0:
182,192,4778,1,0,0:0:0:0:
36,192,4885,1,2,0:0:0:0:
109,192,4885,1,0,0:0:0:0:
402,192,4885,1,0,0:0:0:0:
329,192,4992,1,0,0:0:0:0:
182,192,5099,1,0,0:0:0:0:
475,192,5099,1,0,0:0:0:0:
256,192,5206,1,0,0:0:0:0:
109,192,5313,1,10,0:0:0:0:
329,192,5313,1,0,0:0:0:0:
475,192,5313,1,0,0:0:0:0:
36,192,5420,1,0,0:0:0:0:
402,192,5420,1,0,0:0:0:0:
182,192,5528,1,0,0:0:0:0:
256,192,5635,1,0,0:0:0:0:
329,192,5742,1,2,0:0:0:0:
402,192,5742,1,0,0:0:0:0:
36,192,5742,1,0,0:0:0:0:
109,192,5849,1,0,0:0:0:0:
475,192,5956,1,0,0:0:0:0:
182,192,5956,1,0,0:0:0:0:
402,192,6010,1,0,0:0:0:0:
329,192,6063,1,0,0:0:0:0:
256,192,6117,1,0,0:0:0:0:
182,192,6170,1,10,0:0:0:0:
109,192,6170,1,0,0:0:0:0:
36,192,6170,1,0,0:0:0:0:
475,192,6278,1,0,0:0:0:0:
402,192,6278,1,0,0:0:0:0:
109,192,6385,1,2,0:0:0:0:
256,192,6385,1,0,0:0:0:0:
329,192,6385,1,0,0:0:0:0:
36,192,6599,1,6,0:0:0:0:
182,192,6599,1,0,0:0:0:0:
256,192,6599,1,0,0:0:0:0:
475,192,6599,1,0,0:0:0:0:
182,192,6706,1,0,0:0:0:0:
36,192,6706,1,0,0:0:0:0:
475,192,6706,1,0,0:0:0:0:
109,192,6920,1,0,0:0:0:0:
402,192,6920,1,0,0:0:0:0:
329,192,7028,1,0,0:0:0:0:
182,192,7028,1,0,0:0:0:0:
36,192,7242,1,6,0:0:0:0:
256,192,7242,1,0,0:0:0:0:
329,192,7242,1,0,0:0:0:0:
475,192,7242,1,0,0:0:0:0:
475,192,7349,1,0,0:0:0:0:
329,192,7349,1,0,0:0:0:0:
36,192,7349,1,0,0:0:0:0:
109,192,7563,1,0,0:0:0:0:
402,192,7563,1,0,0:0:0:0:
329,192,7670,1,0,0:0:0:0:
182,192,7670,1,0,0:0:0:0:
256,192,7778,1,6,0:0:0:0:
402,192,7778,1,0,0:0:0:0:
109,192,7778,1,0,0:0:0:0:
36,192,7778,1,0,0:0:0:0:
402,192,7885,1,0,0:0:0:0:
256,192,7885,1,0,0:0:0:0:
109,192,7885,1,0,0:0:0:0:
182,192,8099,1,0,0:0:0:0:
329,192,8099,1,0,0:0:0:0:
36,192,8206,1,0,0:0:0:0:
475,192,8206,1,0,0:0:0:0:
475,192,8420,1,6,0:0:0:0:
402,192,8420,1,0,0:0:0:0:
256,192,8420,1,0,0:0:0:0:
109,192,8420,1,0,0:0:0:0:
109,192,8528,1,0,0:0:0:0:
256,192,8528,1,0,0:0:0:0:
402,192,8528,1,0,0:0:0:0:
329,192,8635,1,0,0:0:0:0:
182,192,8635,1,0,0:0:0:0:
36,192,8742,1,0,0:0:0:0:
475,192,8742,1,0,0:0:0:0:
256,192,8849,1,6,0:0:0:0:
402,192,8849,1,0,0:0:0:0:
329,192,8849,1,0,0:0:0:0:
109,192,8849,1,0,0:0:0:0:
402,192,8956,1,0,0:0:0:0:
329,192,8956,1,0,0:0:0:0:
256,192,8956,1,0,0:0:0:0:
182,192,9170,1,0,0:0:0:0:
36,192,9170,1,0,0:0:0:0:
329,192,9278,1,0,0:0:0:0:
475,192,9278,1,0,0:0:0:0:
402,192,9492,1,6,0:0:0:0:
256,192,9492,1,0,0:0:0:0:
182,192,9492,1,0,0:0:0:0:
109,192,9492,1,0,0:0:0:0:
109,192,9599,1,0,0:0:0:0:
182,192,9599,1,0,0:0:0:0:
256,192,9599,1,0,0:0:0:0:
329,192,9813,1,2,0:0:0:0:
475,192,9813,1,0,0:0:0:0:
36,192,9813,1,0,0:0:0:0:
182,192,9920,1,2,0:0:0:0:
109,192,9920,1,0,0:0:0:0:
402,192,9920,1,0,0:0:0:0:
36,192,10028,1,6,0:0:0:0:
256,192,10028,1,0,0:0:0:0:
329,192,10028,1,0,0:0:0:0:
475,192,10028,1,0,0:0:0:0:
109,192,10135,1,0,0:0:0:0:
329,192,10242,1,0,0:0:0:0:
475,192,10242,1,0,0:0:0:0:
182,192,10349,1,0,0:0:0:0:
36,192,10456,1,10,0:0:0:0:
256,192,10456,1,0,0:0:0:0:
402,192,10456,1,0,0:0:0:0:
329,192,10563,1,0,0:0:0:0:
475,192,10563,1,0,0:0:0:0:
182,192,10670,1,0,0:0:0:0:
475,192,10778,1,0,0:0:0:0:
329,192,10778,1,0,0:0:0:0:
109,192,10885,1,2,0:0:0:0:
36,192,10885,1,0,0:0:0:0:
182,192,10885,1,0,0:0:0:0:
256,192,10992,1,0,0:0:0:0:
402,192,10992,1,0,0:0:0:0:
329,192,11099,1,0,0:0:0:0:
36,192,11206,1,0,0:0:0:0:
109,192,11313,1,10,0:0:0:0:
256,192,11313,1,0,0:0:0:0:
475,192,11313,1,0,0:0:0:0:
329,192,11420,1,0,0:0:0:0:
182,192,11528,1,6,0:0:0:0:
36,192,11528,1,0,0:0:0:0:
402,192,11528,1,0,0:0:0:0:
475,192,11528,1,0,0:0:0:0:
329,192,11635,1,0,0:0:0:0:
182,192,11742,1,0,0:0:0:0:
36,192,11742,1,0,0:0:0:0:
475,192,11849,1,0,0:0:0:0:
402,192,11956,1,10,0:0:0:0:
109,192,11956,1,0,0:0:0:0:
256,192,11956,1,0,0:0:0:0:
182,192,12063,1,0,0:0:0:0:
36,192,12063,1,0,0:0:0:0:
329,192,12170,1,0,0:0:0:0:
36,192,12278,1,0,0:0:0:0:
182,192,12278,1,0,0:0:0:0:
475,192,12385,1,2,0:0:0:0:
402,192,12385,1,0,0:0:0:0:
329,192,12385,1,0,0:0:0:0:
256,192,12492,1,0,0:0:0:0:
109,192,12492,1,0,0:0:0:0:
36,192,12599,1,2,0:0:0:0:
329,192,12599,1,0,0:0:0:0:
475,192,12599,1,0,0:0:0:0:
109,192,12706,1,0,0:0:0:0:
182,192,12813,1,10,0:0:0:0:
402,192,12813,1,0,0:0:0:0:
475,192,12813,1,0,0:0:0:0:
329,192,12920,1,10,0:0:0:0:
256,192,12920,1,0,0:0:0:0:
109,192,12920,1,0,0:0:0:0:
36,192,13028,1,6,0:0:0:0:
182,192,13028,1,0,0:0:0:0:
402,192,13028,1,0,0:0:0:0:
475,192,13028,1,0,0:0:0:0:
329,192,13349,1,0,0:0:0:0:
36,192,13456,1,0,0:0:0:0:
256,192,13670,1,0,0:0:0:0:
329,192,13778,1,0,0:0:0:0:
182,192,13885,1,0,0:0:0:0:
109,192,13992,1,0,0:0:0:0:
329,192,14099,1,0,0:0:0:0:
475,192,14153,1,0,0:0:0:0:
256,192,14206,1,0,0:0:0:0:
402,192,14260,1,0,0:0:0:0:
109,192,14313,1,0,0:0:0:0:
36,192,14420,1,0,0:0:0:0:
402,192,14528,1,0,0:0:0:0:
329,192,14635,1,0,0:0:0:0:
256,192,14742,1,6,0:0:0:0:
109,192,14742,1,0,0:0:0:0:
475,192,14742,1,0,0:0:0:0:
36,192,14742,1,0,0:0:0:0:
182,192,14849,1,0,0:0:0:0:
329,192,14956,1,0,0:0:0:0:
402,192,14956,1,0,0:0:0:0:
36,192,15063,1,2,0:0:0:0:
256,192,15063,1,0,0:0:0:0:
475,192,15063,1,0,0:0:0:0:
109,192,15170,1,8,0:0:0:0:
182,192,15170,1,0,0:0:0:0:
402,192,15277,1,0,0:0:0:0:
36,192,15384,1,2,0:0:0:0:
329,192,15384,1,0,0:0:0:0:
475,192,15384,1,0,0:0:0:0:
182,192,15492,1,0,0:0:0:0:
109,192,15599,1,2,0:0:0:0:
256,192,15599,1,0,0:0:0:0:
402,192,15599,1,0,0:0:0:0:
329,192,15706,1,0,0:0:0:0:
182,192,15813,1,8,0:0:0:0:
475,192,15813,1,0,0:0:0:0:
36,192,15920,1,0,0:0:0:0:
256,192,16027,1,0,0:0:0:0:
402,192,16134,1,0,0:0:0:0:
109,192,16242,1,2,0:0:0:0:
329,192,16242,1,0,0:0:0:0:
475,192,16242,1,0,0:0:0:0:
256,192,16349,1,2,0:0:0:0:
182,192,16349,1,0,0:0:0:0:
36,192,16349,1,0,0:0:0:0:
329,192,16456,1,2,0:0:0:0:
402,192,16456,1,0,0:0:0:0:
475,192,16456,1,0,0:0:0:0:
109,192,16563,1,0,0:0:0:0:
182,192,16670,1,8,0:0:0:0:
402,192,16670,1,0,0:0:0:0:
329,192,16777,1,0,0:0:0:0:
256,192,16884,1,6,0:0:0:0:
36,192,16884,1,0,0:0:0:0:
475,192,16884,1,0,0:0:0:0:
109,192,16884,1,0,0:0:0:0:
402,192,16992,1,0,0:0:0:0:
329,192,17099,1,8,0:0:0:0:
182,192,17099,1,0,0:0:0:0:
109,192,17206,1,0,0:0:0:0:
36,192,17313,1,6,0:0:0:0:
256,192,17313,1,0,0:0:0:0:
475,192,17313,1,0,0:0:0:0:
402,192,17313,1,0,0:0:0:0:
182,192,17420,1,0,0:0:0:0:
109,192,17527,1,8,0:0:0:0:
402,192,17527,1,0,0:0:0:0:
329,192,17634,1,0,0:0:0:0:
256,192,17742,1,2,0:0:0:0:
36,192,17742,1,0,0:0:0:0:
475,192,17742,1,0,0:0:0:0:
182,192,17849,1,0,0:0:0:0:
329,192,17956,1,0,0:0:0:0:
109,192,18063,1,2,0:0:0:0:
36,192,18063,1,0,0:0:0:0:
475,192,18063,1,0,0:0:0:0:
182,192,18170,1,8,0:0:0:0:
256,192,18170,1,0,0:0:0:0:
402,192,18170,1,0,0:0:0:0:
36,192,18277,1,0,0:0:0:0:
329,192,18277,1,0,0:0:0:0:
182,192,18384,1,2,0:0:0:0:
475,192,18384,1,0,0:0:0:0:
402,192,18384,1,0,0:0:0:0:
329,192,18492,1,2,0:0:0:0:
256,192,18492,1,0,0:0:0:0:
109,192,18492,1,0,0:0:0:0:
402,192,18599,1,6,0:0:0:0:
475,192,18599,1,0,0:0:0:0:
182,192,18599,1,0,0:0:0:0:
36,192,18599,1,0,0:0:0:0:
329,192,18706,1,0,0:0:0:0:
256,192,18813,1,0,0:0:0:0:
475,192,18813,1,0,0:0:0:0:
182,192,18920,1,0,0:0:0:0:
109,192,19027,1,10,0:0:0:0:
36,192,19027,1,0,0:0:0:0:
329,192,19027,1,0,0:0:0:0:
475,192,19241,1,0,0:0:0:0:
182,192,19241,1,0,0:0:0:0:
402,192,19349,1,0,0:0:0:0:
329,192,19456,1,2,0:0:0:0:
109,192,19456,1,0,0:0:0:0:
36,192,19456,1,0,0:0:0:0:
256,192,19563,1,0,0:0:0:0:
182,192,19670,1,0,0:0:0:0:
475,192,19670,1,0,0:0:0:0:
329,192,19884,1,10,0:0:0:0:
36,192,19884,1,0,0:0:0:0:
475,192,19884,1,0,0:0:0:0:
256,192,19991,1,0,0:0:0:0:
182,192,20099,1,0,0:0:0:0:
402,192,20099,1,0,0:0:0:0:
109,192,20206,1,0,0:0:0:0:
36,192,20313,1,2,0:0:0:0:
256,192,20313,1,0,0:0:0:0:
329,192,20313,1,0,0:0:0:0:
402,192,20527,1,0,0:0:0:0:
109,192,20527,1,0,0:0:0:0:
329,192,20634,1,0,0:0:0:0:
256,192,20741,1,10,0:0:0:0:
475,192,20741,1,0,0:0:0:0:
36,192,20741,1,0,0:0:0:0:
182,192,20849,1,0,0:0:0:0:
109,192,20956,1,0,0:0:0:0:
329,192,20956,1,0,0:0:0:0:
475,192,21170,1,2,0:0:0:0:
256,192,21170,1,0,0:0:0:0:
36,192,21170,1,0,0:0:0:0:
402,192,21277,1,0,0:0:0:0:
329,192,21384,1,0,0:0:0:0:
109,192,21384,1,0,0:0:0:0:
256,192,21491,1,0,0:0:0:0:
182,192,21599,1,10,0:0:0:0:
475,192,21599,1,0,0:0:0:0:
402,192,21599,1,0,0:0:0:0:
36,192,21813,1,0,0:0:0:0:
329,192,21813,1,0,0:0:0:0:
109,192,21920,1,0,0:0:0:0:
182,192,22027,1,2,0:0:0:0:
475,192,22027,1,0,0:0:0:0:
402,192,22027,1,0,0:0:0:0:
256,192,22134,1,0,0:0:0:0:
36,192,22134,1,0,0:0:0:0:
329,192,22241,1,0,0:0:0:0:
475,192,22241,1,0,0:0:0:0:
109,192,22456,1,10,0:0:0:0:
402,192,22456,1,0,0:0:0:0:
36,192,22456,1,0,0:0:0:0:
182,192,22563,1,0,0:0:0:0:
256,192,22670,1,0,0:0:0:0:
475,192,22670,1,0,0:0:0:0:
329,192,22777,1,0,0:0:0:0:
402,192,22884,1,2,0:0:0:0:
109,192,22884,1,0,0:0:0:0:
182,192,22884,1,0,0:0:0:0:
182,192,23099,1,0,0:0:0:0:
475,192,23099,1,0,0:0:0:0:
256,192,23206,1,0,0:0:0:0:
329,192,23313,1,10,0:0:0:0:
36,192,23313,1,0,0:0:0:0:
109,192,23313,1,0,0:0:0:0:
402,192,23420,1,0,0:0:0:0:
475,192,23527,1,0,0:0:0:0:
256,192,23527,1,0,0:0:0:0:
109,192,23741,1,2,0:0:0:0:
329,192,23741,1,0,0:0:0:0:
402,192,23741,1,0,0:0:0:0:
182,192,23848,1,0,0:0:0:0:
256,192,23955,1,0,0:0:0:0:
36,192,23955,1,0,0:0:0:0:
329,192,24063,1,0,0:0:0:0:
402,192,24170,1,10,0:0:0:0:
182,192,24170,1,0,0:0:0:0:
475,192,24170,1,0,0:0:0:0:
36,192,24384,1,0,0:0:0:0:
256,192,24384,1,0,0:0:0:0:
109,192,24491,1,0,0:0:0:0:
182,192,24598,1,10,0:0:0:0:
402,192,24598,1,0,0:0:0:0:
475,192,24598,1,0,0:0:0:0:
109,192,24705,1,8,0:0:0:0:
256,192,24705,1,0,0:0:0:0:
36,192,24705,1,0,0:0:0:0:
329,192,24813,1,10,0:0:0:0:
402,192,24813,1,0,0:0:0:0:
475,192,24813,1,0,0:0:0:0:
256,192,24920,1,0,0:0:0:0:
109,192,24920,1,0,0:0:0:0:
182,192,25027,1,6,0:0:0:0:
36,192,25027,1,0,0:0:0:0:
329,192,25027,1,0,0:0:0:0:
475,192,25027,1,0,0:0:0:0:
36,192,25241,1,6,0:0:0:0:
182,192,25241,1,0,0:0:0:0:
329,192,25241,1,0,0:0:0:0:
475,192,25241,1,0,0:0:0:0:
182,192,25563,1,6,0:0:0:0:
36,192,25563,1,0,0:0:0:0:
329,192,25563,1,0,0:0:0:0:
475,192,25563,1,0,0:0:0:0:
475,192,25777,1,6,0:0:0:0:
329,192,25777,1,0,0:0:0:0:
182,192,25777,1,0,0:0:0:0:
36,192,25777,1,0,0:0:0:0:
109,192,25991,1,6,0:0:0:0:
182,192,25991,1,0,0:0:0:0:
329,192,25991,1,0,0:0:0:0:
402,192,25991,1,0,0:0:0:0:
402,192,26313,1,6,0:0:0:0:
329,192,26313,1,0,0:0:0:0:
182,192,26313,1,0,0:0:0:0:
109,192,26313,1,0,0:0:0:0:
182,192,26527,1,6,0:0:0:0:
256,192,26527,1,0,0:0:0:0:
402,192,26527,1,0,0:0:0:0:
475,192,26527,1,0,0:0:0:0:
402,192,26634,1,6,0:0:0:0:
329,192,26634,1,0,0:0:0:0:
182,192,26634,1,0,0:0:0:0:
109,192,26634,1,0,0:0:0:0:
329,192,26741,1,6,0:0:0:0:
256,192,26741,1,0,0:0:0:0:
109,192,26741,1,0,0:0:0:0:
36,192,26741,1,0,0:0:0:0:
36,192,26955,1,6,0:0:0:0:
109,192,26955,1,0,0:0:0:0:
329,192,26955,1,0,0:0:0:0:
256,192,26955,1,0,0:0:0:0:
36,192,27277,1,6,0:0:0:0:
109,192,27277,1,0,0:0:0:0:
256,192,27277,1,0,0:0:0:0:
329,192,27277,1,0,0:0:0:0:
329,192,27491,1,6,0:0:0:0:
256,192,27491,1,0,0:0:0:0:
109,192,27491,1,0,0:0:0:0:
36,192,27491,1,0,0:0:0:0:
182,192,27813,1,6,0:0:0:0:
256,192,27813,1,0,0:0:0:0:
402,192,27813,1,0,0:0:0:0:
475,192,27813,1,0,0:0:0:0:
182,192,28027,1,6,0:0:0:0:
256,192,28027,1,0,0:0:0:0:
402,192,28027,1,0,0:0:0:0:
475,192,28027,1,0,0:0:0:0:
109,192,28241,1,6,0:0:0:0:
182,192,28241,1,0,0:0:0:0:
402,192,28241,1,0,0:0:0:0:
329,192,28241,1,0,0:0:0:0:
256,192,28348,1,6,0:0:0:0:
182,192,28348,1,0,0:0:0:0:
475,192,28348,1,0,0:0:0:0:
402,192,28348,1,0,0:0:0:0:
109,192,28455,1,6,0:0:0:0:
36,192,28455,1,0,0:0:0:0:
329,192,28455,1,0,0:0:0:0:
475,192,28455,1,0,0:0:0:0:
256,192,28562,1,0,0:0:0:0:
182,192,28669,1,2,0:0:0:0:
36,192,28669,1,0,0:0:0:0:
475,192,28669,1,0,0:0:0:0:
329,192,28776,1,0,0:0:0:0:
256,192,28883,1,8,0:0:0:0:
109,192,28883,1,0,0:0:0:0:
402,192,28883,1,0,0:0:0:0:
182,192,28990,1,0,0:0:0:0:
475,192,29097,1,0,0:0:0:0:
36,192,29205,1,2,0:0:0:0:
329,192,29205,1,0,0:0:0:0:
256,192,29205,1,0,0:0:0:0:
402,192,29312,1,2,0:0:0:0:
475,192,29312,1,0,0:0:0:0:
182,192,29312,1,0,0:0:0:0:
109,192,29419,1,0,0:0:0:0:
36,192,29526,1,8,0:0:0:0:
329,192,29526,1,0,0:0:0:0:
475,192,29526,1,0,0:0:0:0:
256,192,29633,1,0,0:0:0:0:
182,192,29740,1,0,0:0:0:0:
109,192,29847,1,0,0:0:0:0:
475,192,29955,1,2,0:0:0:0:
256,192,29955,1,0,0:0:0:0:
402,192,30008,1,2,0:0:0:0:
182,192,30008,1,0,0:0:0:0:
329,192,30062,1,2,0:0:0:0:
109,192,30062,1,0,0:0:0:0:
256,192,30115,1,2,0:0:0:0:
36,192,30115,1,0,0:0:0:0:
182,192,30169,1,2,0:0:0:0:
475,192,30169,1,0,0:0:0:0:
402,192,30169,1,0,0:0:0:0:
329,192,30276,1,0,0:0:0:0:
182,192,30383,1,2,0:0:0:0:
256,192,30383,1,0,0:0:0:0:
475,192,30383,1,0,0:0:0:0:
109,192,30490,1,0,0:0:0:0:
36,192,30597,1,8,0:0:0:0:
402,192,30597,1,0,0:0:0:0:
256,192,30597,1,0,0:0:0:0:
182,192,30705,1,0,0:0:0:0:
329,192,30812,1,0,0:0:0:0:
182,192,30919,1,2,0:0:0:0:
256,192,30919,1,0,0:0:0:0:
475,192,30919,1,0,0:0:0:0:
109,192,31026,1,2,0:0:0:0:
36,192,31026,1,0,0:0:0:0:
402,192,31026,1,0,0:0:0:0:
329,192,31133,1,0,0:0:0:0:
182,192,31240,1,10,0:0:0:0:
36,192,31240,1,0,0:0:0:0:
475,192,31240,1,0,0:0:0:0:
402,192,31347,1,10,0:0:0:0:
109,192,31347,1,0,0:0:0:0:
329,192,31347,1,0,0:0:0:0:
256,192,31455,1,6,0:0:0:0:
182,192,31455,1,0,0:0:0:0:
36,192,31455,1,0,0:0:0:0:
475,192,31455,1,0,0:0:0:0:
402,192,31562,1,0,0:0:0:0:
329,192,31669,1,2,0:0:0:0:
109,192,31669,1,0,0:0:0:0:
256,192,31669,1,0,0:0:0:0:
182,192,31776,1,0,0:0:0:0:
36,192,31883,1,8,0:0:0:0:
329,192,31883,1,0,0:0:0:0:
475,192,31883,1,0,0:0:0:0:
256,192,31990,1,0,0:0:0:0:
182,192,32097,1,0,0:0:0:0:
109,192,32205,1,2,0:0:0:0:
402,192,32205,1,0,0:0:0:0:
329,192,32205,1,0,0:0:0:0:
36,192,32312,1,2,0:0:0:0:
475,192,32312,1,0,0:0:0:0:
256,192,32312,1,0,0:0:0:0:
329,192,32419,1,0,0:0:0:0:
402,192,32526,1,8,0:0:0:0:
182,192,32526,1,0,0:0:0:0:
36,192,32526,1,0,0:0:0:0:
256,192,32633,1,0,0:0:0:0:
329,192,32740,1,0,0:0:0:0:
402,192,32847,1,0,0:0:0:0:
36,192,32955,1,2,0:0:0:0:
256,192,32955,1,0,0:0:0:0:
109,192,33008,1,2,0:0:0:0:
329,192,33008,1,0,0:0:0:0:
402,192,33062,1,2,0:0:0:0:
182,192,33062,1,0,0:0:0:0:
475,192,33115,1,2,0:0:0:0:
256,192,33115,1,0,0:0:0:0:
329,192,33169,1,2,0:0:0:0:
109,192,33169,1,0,0:0:0:0:
36,192,33169,1,0,0:0:0:0:
402,192,33276,1,0,0:0:0:0:
182,192,33383,1,2,0:0:0:0:
36,192,33383,1,0,0:0:0:0:
475,192,33383,1,0,0:0:0:0:
256,192,33490,1,0,0:0:0:0:
109,192,33597,1,8,0:0:0:0:
329,192,33597,1,0,0:0:0:0:
402,192,33597,1,0,0:0:0:0:
36,192,33705,1,0,0:0:0:0:
256,192,33812,1,0,0:0:0:0:
329,192,33919,1,2,0:0:0:0:
402,192,33919,1,0,0:0:0:0:
475,192,33919,1,0,0:0:0:0:
36,192,34026,1,2,0:0:0:0:
109,192,34026,1,0,0:0:0:0:
182,192,34026,1,0,0:0:0:0:
256,192,34133,1,0,0:0:0:0:
329,192,34240,1,10,0:0:0:0:
36,192,34240,1,0,0:0:0:0:
475,192,34240,1,0,0:0:0:0:
402,192,34347,1,10,0:0:0:0:
182,192,34347,1,0,0:0:0:0:
109,192,34347,1,0,0:0:0:0:
36,192,34455,1,6,0:0:0:0:
256,192,34455,1,0,0:0:0:0:
329,192,34455,1,0,0:0:0:0:
475,192,34455,1,0,0:0:0:0:
182,192,34562,1,0,0:0:0:0:
109,192,34669,1,0,0:0:0:0:
36,192,34776,1,0,0:0:0:0:
182,192,34883,1,10,0:0:0:0:
256,192,34883,1,0,0:0:0:0:
475,192,34883,1,0,0:0:0:0:
329,192,34990,1,0,0:0:0:0:
402,192,35097,1,0,0:0:0:0:
475,192,35205,1,10,0:0:0:0:
109,192,35205,1,0,0:0:0:0:
36,192,35205,1,0,0:0:0:0:
182,192,35205,1,0,0:0:0:0:
109,192,35526,1,10,0:0:0:0:
182,192,35526,1,0,0:0:0:0:
256,192,35526,1,0,0:0:0:0:
402,192,35526,1,0,0:0:0:0:
402,192,35740,1,10,0:0:0:0:
329,192,35740,1,0,0:0:0:0:
256,192,35740,1,0,0:0:0:0:
109,192,35740,1,0,0:0:0:0:
182,192,35955,1,2,0:0:0:0:
36,192,35955,1,0,0:0:0:0:
329,192,35955,1,0,0:0:0:0:
475,192,36062,1,0,0:0:0:0:
402,192,36169,1,0,0:0:0:0:
182,192,36276,1,0,0:0:0:0:
256,192,36383,1,10,0:0:0:0:
109,192,36383,1,0,0:0:0:0:
329,192,36383,1,0,0:0:0:0:
36,192,36490,1,0,0:0:0:0:
475,192,36597,1,0,0:0:0:0:
256,192,36705,1,14,0:0:0:0:
109,192,36705,1,0,0:0:0:0:
402,192,36705,1,0,0:0:0:0:
329,192,36705,1,0,0:0:0:0:
36,192,37026,1,14,0:0:0:0:
182,192,37026,1,0,0:0:0:0:
256,192,37026,1,0,0:0:0:0:
475,192,37026,1,0,0:0:0:0:
475,192,37240,1,14,0:0:0:0:
329,192,37240,1,0,0:0:0:0:
256,192,37240,1,0,0:0:0:0:
36,192,37240,1,0,0:0:0:0:
182,192,37455,1,6,0:0:0:0:
109,192,37455,1,0,0:0:0:0:
402,192,37455,1,0,0:0:0:0:
475,192,37562,1,0,0:0:0:0:
329,192,37669,1,0,0:0:0:0:
256,192,37776,1,0,0:0:0:0:
36,192,37883,1,10,0:0:0:0:
475,192,37883,1,0,0:0:0:0:
182,192,37883,1,0,0:0:0:0:
109,192,37990,1,0,0:0:0:0:
329,192,38097,1,0,0:0:0:0:
402,192,38205,1,10,0:0:0:0:
182,192,38205,1,0,0:0:0:0:
36,192,38205,1,0,0:0:0:0:
256,192,38205,1,0,0:0:0:0:
36,192,38526,1,10,0:0:0:0:
182,192,38526,1,0,0:0:0:0:
402,192,38526,1,0,0:0:0:0:
475,192,38526,1,0,0:0:0:0:
256,192,38633,1,0,0:0:0:0:
329,192,38740,1,10,0:0:0:0:
109,192,38740,1,0,0:0:0:0:
36,192,38740,1,0,0:0:0:0:
475,192,38740,1,0,0:0:0:0:
182,192,38847,1,0,0:0:0:0:
36,192,38955,1,2,0:0:0:0:
256,192,38955,1,0,0:0:0:0:
402,192,38955,1,0,0:0:0:0:
475,192,39062,1,0,0:0:0:0:
329,192,39169,1,0,0:0:0:0:
182,192,39276,1,0,0:0:0:0:
109,192,39383,1,10,0:0:0:0:
475,192,39383,1,0,0:0:0:0:
402,192,39383,1,0,0:0:0:0:
36,192,39490,1,0,0:0:0:0:
256,192,39597,1,0,0:0:0:0:
182,192,39705,1,14,0:0:0:0:
329,192,39705,1,0,0:0:0:0:
402,192,39705,1,0,0:0:0:0:
109,192,39705,1,0,0:0:0:0:
256,192,40026,1,14,0:0:0:0:
36,192,40026,1,0,0:0:0:0:
182,192,40026,1,0,0:0:0:0:
475,192,40026,1,0,0:0:0:0:
329,192,40080,1,0,0:0:0:0:
402,192,40133,1,0,0:0:0:0:
256,192,40240,1,14,0:0:0:0:
109,192,40240,1,0,0:0:0:0:
475,192,40240,1,0,0:0:0:0:
36,192,40347,1,8,0:0:0:0:
182,192,40347,1,0,0:0:0:0:
329,192,40347,1,0,0:0:0:0:
256,192,40455,1,8,0:0:0:0:
402,192,40455,1,0,0:0:0:0:
475,192,40455,1,0,0:0:0:0:
182,192,40562,1,8,0:0:0:0:
109,192,40562,1,0,0:0:0:0:
329,192,40562,1,0,0:0:0:0:
256,192,40669,1,6,0:0:0:0:
36,192,40669,1,0,0:0:0:0:
475,192,40669,1,0,0:0:0:0:
402,192,40669,1,0,0:0:0:0:
109,192,40883,1,8,0:0:0:0:
182,192,40883,1,0,0:0:0:0:
329,192,40883,1,0,0:0:0:0:
402,192,40883,1,0,0:0:0:0:
256,192,41097,1,6,0:0:0:0:
109,192,41097,1,0,0:0:0:0:
36,192,41097,1,0,0:0:0:0:
475,192,41097,1,0,0:0:0:0:
475,192,41312,1,8,0:0:0:0:
402,192,41312,1,0,0:0:0:0:
329,192,41312,1,0,0:0:0:0:
182,192,41312,1,0,0:0:0:0:
36,192,41526,1,6,0:0:0:0:
256,192,41526,1,0,0:0:0:0:
109,192,41526,1,0,0:0:0:0:
402,192,41526,1,0,0:0:0:0:
109,192,41740,1,8,0:0:0:0:
329,192,41740,1,0,0:0:0:0:
182,192,41740,1,0,0:0:0:0:
475,192,41740,1,0,0:0:0:0:
329,192,41955,1,6,0:0:0:0:
256,192,41955,1,0,0:0:0:0:
36,192,41955,1,0,0:0:0:0:
402,192,41955,1,0,0:0:0:0:
402,192,42062,1,0,0:0:0:0:
329,192,42062,1,0,0:0:0:0:
256,192,42169,1,14,0:0:0:0:
109,192,42169,1,0,0:0:0:0:
475,192,42169,1,0,0:0:0:0:
182,192,42169,1,0,0:0:0:0:
109,192,42276,1,12,0:0:0:0:
182,192,42276,1,0,0:0:0:0:
36,192,42383,1,6,0:0:0:0:
256,192,42383,1,0,0:0:0:0:
329,192,42383,1,0,0:0:0:0:
402,192,42383,1,0,0:0:0:0:
182,192,42597,1,8,0:0:0:0:
475,192,42597,1,0,0:0:0:0:
109,192,42597,1,0,0:0:0:0:
402,192,42597,1,0,0:0:0:0:
36,192,42812,1,14,0:0:0:0:
256,192,42812,1,0,0:0:0:0:
329,192,42812,1,0,0:0:0:0:
475,192,42812,1,0,0:0:0:0:
109,192,42919,1,0,0:0:0:0:
402,192,43026,1,0,0:0:0:0:
182,192,43026,1,0,0:0:0:0:
36,192,43240,1,6,0:0:0:0:
182,192,43240,1,0,0:0:0:0:
256,192,43240,1,0,0:0:0:0:
329,192,43240,1,0,0:0:0:0:
475,192,43240,1,0,0:0:0:0:
402,192,43454,1,0,0:0:0:0:
329,192,43561,1,0,0:0:0:0:
182,192,43775,1,0,0:0:0:0:
109,192,43882,1,0,0:0:0:0:
402,192,43990,1,0,0:0:0:0:
329,192,44097,1,0,0:0:0:0:
475,192,44204,1,0,0:0:0:0:
182,192,44311,1,0,0:0:0:0:
109,192,44418,1,0,0:0:0:0:
36,192,44525,1,0,0:0:0:0:
475,192,44525,1,0,0:0:0:0:
182,192,44632,1,0,0:0:0:0:
402,192,44632,1,0,0:0:0:0:
329,192,44740,1,0,0:0:0:0:
402,192,44847,1,0,0:0:0:0:
36,192,44847,1,0,0:0:0:0:
475,192,44847,1,0,0:0:0:0:
182,192,44954,1,0,0:0:0:0:
256,192,44954,1,0,0:0:0:0:
329,192,44954,1,0,0:0:0:0:
36,192,45061,1,0,0:0:0:0:
109,192,45061,1,0,0:0:0:0:
329,192,45168,1,0,0:0:0:0:
256,192,45168,1,0,0:0:0:0:
402,192,45240,1,0,0:0:0:0:
182,192,45275,1,0,0:0:0:0:
475,192,45311,1,0,0:0:0:0:
36,192,45382,1,0,0:0:0:0:
109,192,45382,1,0,0:0:0:0:
182,192,45454,1,0,0:0:0:0:
256,192,45454,1,0,0:0:0:0:
402,192,45525,1,0,0:0:0:0:
329,192,45525,1,0,0:0:0:0:
109,192,45597,1,0,0:0:0:0:
182,192,45597,1,0,0:0:0:0:
329,192,45668,1,0,0:0:0:0:
256,192,45668,1,0,0:0:0:0:
36,192,45704,1,0,0:0:0:0:
475,192,45740,1,0,0:0:0:0:
402,192,45740,1,0,0:0:0:0:
109,192,45811,1,0,0:0:0:0:
182,192,45811,1,0,0:0:0:0:
256,192,45882,1,0,0:0:0:0:
329,192,45882,1,0,0:0:0:0:
475,192,45918,1,0,0:0:0:0:
36,192,45954,1,0,0:0:0:0:
109,192,45954,1,0,0:0:0:0:
329,192,46025,1,0,0:0:0:0:
402,192,46025,1,0,0:0:0:0:
182,192,46097,1,0,0:0:0:0:
256,192,46097,1,0,0:0:0:0:
475,192,46132,1,0,0:0:0:0:
36,192,46168,1,0,0:0:0:0:
109,192,46168,1,0,0:0:0:0:
329,192,46240,1,0,0:0:0:0:
402,192,46240,1,0,0:0:0:0:
256,192,46311,1,0,0:0:0:0:
182,192,46311,1,0,0:0:0:0:
36,192,46347,1,0,0:0:0:0:
402,192,46382,1,0,0:0:0:0:
475,192,46382,1,0,0:0:0:0:
329,192,46454,1,0,0:0:0:0:
109,192,46454,1,0,0:0:0:0:
182,192,46454,1,0,0:0:0:0:
256,192,46561,1,0,0:0:0:0:
36,192,46668,1,0,0:0:0:0:
475,192,46668,1,0,0:0:0:0:
402,192,46882,1,0,0:0:0:0:
109,192,46882,1,0,0:0:0:0:
256,192,46989,1,0,0:0:0:0:
329,192,47096,1,0,0:0:0:0:
182,192,47096,1,0,0:0:0:0:
475,192,47204,1,0,0:0:0:0:
36,192,47204,1,0,0:0:0:0:
402,192,47311,1,0,0:0:0:0:
109,192,47311,1,0,0:0:0:0:
329,192,47525,1,6,0:0:0:0:
182,192,47525,1,0,0:0:0:0:
36,192,47525,1,0,0:0:0:0:
475,192,47525,1,0,0:0:0:0:
109,192,47685,1,6,0:0:0:0:
36,192,47685,1,0,0:0:0:0:
402,192,47685,1,0,0:0:0:0:
475,192,47685,1,0,0:0:0:0:
402,192,47846,1,6,0:0:0:0:
329,192,47846,1,0,0:0:0:0:
182,192,47846,1,0,0:0:0:0:
109,192,47846,1,0,0:0:0:0:
36,192,47953,1,6,0:0:0:0:
256,192,47953,1,0,0:0:0:0:
475,192,47953,1,0,0:0:0:0:
109,192,48167,1,6,0:0:0:0:
182,192,48167,1,0,0:0:0:0:
329,192,48167,1,0,0:0:0:0:
402,192,48167,1,0,0:0:0:0:
256,192,48274,1,0,0:0:0:0:
329,192,48381,1,0,0:0:0:0:
36,192,48381,1,0,0:0:0:0:
402,192,48488,1,0,0:0:0:0:
182,192,48595,1,10,0:0:0:0:
109,192,48595,1,0,0:0:0:0:
475,192,48595,1,0,0:0:0:0:
256,192,48702,1,0,0:0:0:0:
329,192,48809,1,0,0:0:0:0:
402,192,48809,1,0,0:0:0:0:
109,192,48917,1,0,0:0:0:0:
36,192,49024,1,2,0:0:0:0:
329,192,49024,1,0,0:0:0:0:
475,192,49024,1,0,0:0:0:0:
256,192,49131,1,0,0:0:0:0:
402,192,49238,1,0,0:0:0:0:
182,192,49238,1,0,0:0:0:0:
109,192,49345,1,0,0:0:0:0:
36,192,49452,1,10,0:0:0:0:
256,192,49452,1,0,0:0:0:0:
475,192,49452,1,0,0:0:0:0:
329,192,49559,1,0,0:0:0:0:
109,192,49667,1,0,0:0:0:0:
402,192,49667,1,0,0:0:0:0:
475,192,49774,1,0,0:0:0:0:
256,192,49881,1,2,0:0:0:0:
182,192,49881,1,0,0:0:0:0:
329,192,49881,1,0,0:0:0:0:
36,192,49988,1,0,0:0:0:0:
109,192,50095,1,0,0:0:0:0:
329,192,50095,1,0,0:0:0:0:
475,192,50202,1,0,0:0:0:0:
402,192,50309,1,10,0:0:0:0:
256,192,50309,1,0,0:0:0:0:
182,192,50309,1,0,0:0:0:0:
36,192,50417,1,0,0:0:0:0:
329,192,50524,1,0,0:0:0:0:
109,192,50524,1,0,0:0:0:0:
402,192,50631,1,0,0:0:0:0:
256,192,50738,1,2,0:0:0:0:
182,192,50738,1,0,0:0:0:0:
475,192,50738,1,0,0:0:0:0:
402,192,50845,1,0,0:0:0:0:
329,192,50952,1,10,0:0:0:0:
256,192,50952,1,0,0:0:0:0:
109,192,50952,1,0,0:0:0:0:
36,192,50952,1,0,0:0:0:0:
182,192,51113,1,10,0:0:0:0:
109,192,51113,1,0,0:0:0:0:
329,192,51113,1,0,0:0:0:0:
402,192,51113,1,0,0:0:0:0:
256,192,51274,1,10,0:0:0:0:
182,192,51274,1,0,0:0:0:0:
475,192,51274,1,0,0:0:0:0:
402,192,51274,1,0,0:0:0:0:
36,192,51381,1,10,0:0:0:0:
109,192,51381,1,0,0:0:0:0:
329,192,51381,1,0,0:0:0:0:
475,192,51381,1,0,0:0:0:0:
109,192,51488,1,10,0:0:0:0:
36,192,51488,1,0,0:0:0:0:
475,192,51488,1,0,0:0:0:0:
329,192,51488,1,0,0:0:0:0:
182,192,51595,1,6,0:0:0:0:
36,192,51595,1,0,0:0:0:0:
256,192,51595,1,0,0:0:0:0:
402,192,51595,1,0,0:0:0:0:
329,192,51702,1,0,0:0:0:0:
109,192,51809,1,0,0:0:0:0:
475,192,51809,1,0,0:0:0:0:
402,192,51917,1,0,0:0:0:0:
329,192,52024,1,10,0:0:0:0:
36,192,52024,1,0,0:0:0:0:
256,192,52024,1,0,0:0:0:0:
182,192,52131,1,0,0:0:0:0:
109,192,52238,1,0,0:0:0:0:
402,192,52238,1,0,0:0:0:0:
329,192,52345,1,0,0:0:0:0:
475,192,52452,1,2,0:0:0:0:
256,192,52452,1,0,0:0:0:0:
36,192,52452,1,0,0:0:0:0:
109,192,52559,1,0,0:0:0:0:
182,192,52667,1,0,0:0:0:0:
329,192,52667,1,0,0:0:0:0:
475,192,52774,1,0,0:0:0:0:
402,192,52881,1,10,0:0:0:0:
36,192,52881,1,0,0:0:0:0:
109,192,52881,1,0,0:0:0:0:
329,192,52988,1,0,0:0:0:0:
182,192,53095,1,0,0:0:0:0:
256,192,53095,1,0,0:0:0:0:
109,192,53202,1,0,0:0:0:0:
36,192,53309,1,2,0:0:0:0:
402,192,53309,1,0,0:0:0:0:
329,192,53309,1,0,0:0:0:0:
182,192,53417,1,0,0:0:0:0:
256,192,53524,1,0,0:0:0:0:
109,192,53524,1,0,0:0:0:0:
475,192,53631,1,0,0:0:0:0:
402,192,53738,1,10,0:0:0:0:
36,192,53738,1,0,0:0:0:0:
329,192,53738,1,0,0:0:0:0:
109,192,53845,1,0,0:0:0:0:
256,192,53952,1,0,0:0:0:0:
182,192,53952,1,0,0:0:0:0:
329,192,54059,1,0,0:0:0:0:
182,192,54167,1,2,0:0:0:0:
109,192,54167,1,0,0:0:0:0:
475,192,54167,1,0,0:0:0:0:
402,192,54274,1,0,0:0:0:0:
36,192,54381,1,10,0:0:0:0:
182,192,54381,1,0,0:0:0:0:
256,192,54381,1,0,0:0:0:0:
329,192,54381,1,0,0:0:0:0:
109,192,54542,1,10,0:0:0:0:
256,192,54542,1,0,0:0:0:0:
329,192,54542,1,0,0:0:0:0:
402,192,54542,1,0,0:0:0:0:
182,192,54702,1,10,0:0:0:0:
329,192,54702,1,0,0:0:0:0:
402,192,54702,1,0,0:0:0:0:
475,192,54702,1,0,0:0:0:0:
256,192,54809,1,10,0:0:0:0:
109,192,54809,1,0,0:0:0:0:
36,192,54809,1,0,0:0:0:0:
402,192,54809,1,0,0:0:0:0:
402,192,54917,1,10,0:0:0:0:
256,192,54917,1,0,0:0:0:0:
109,192,54917,1,0,0:0:0:0:
36,192,54917,1,0,0:0:0:0:
329,192,55024,1,0,0:0:0:0:
182,192,55131,1,0,0:0:0:0:
402,192,55238,1,0,0:0:0:0:
109,192,55345,1,0,0:0:0:0:
329,192,55452,1,0,0:0:0:0:
475,192,55452,1,8,0:0:0:0:
36,192,55559,1,0,0:0:0:0:
402,192,55667,1,0,0:0:0:0:
109,192,55774,1,0,0:0:0:0:
329,192,55988,1,0,0:0:0:0:
182,192,56095,1,0,0:0:0:0:
402,192,56202,1,0,0:0:0:0:
109,192,56309,1,0,0:0:0:0:
36,192,56309,1,8,0:0:0:0:
475,192,56417,1,0,0:0:0:0:
182,192,56524,1,0,0:0:0:0:
402,192,56631,1,0,0:0:0:0:
36,192,56738,1,6,0:0:0:0:
256,192,56738,1,0,0:0:0:0:
329,192,56738,1,0,0:0:0:0:
475,192,56738,1,0,0:0:0:0:
109,192,56845,1,0,0:0:0:0:
182,192,56952,1,0,0:0:0:0:
402,192,56952,1,0,0:0:0:0:
256,192,57059,1,0,0:0:0:0:
36,192,57167,1,10,0:0:0:0:
109,192,57167,1,0,0:0:0:0:
475,192,57167,1,0,0:0:0:0:
402,192,57274,1,0,0:0:0:0:
329,192,57381,1,0,0:0:0:0:
182,192,57381,1,0,0:0:0:0:
256,192,57488,1,0,0:0:0:0:
109,192,57595,1,2,0:0:0:0:
402,192,57595,1,0,0:0:0:0:
475,192,57595,1,0,0:0:0:0:
182,192,57702,1,0,0:0:0:0:
36,192,57809,1,10,0:0:0:0:
256,192,57809,1,0,0:0:0:0:
329,192,57809,1,0,0:0:0:0:
109,192,57809,1,0,0:0:0:0:
109,192,57970,1,10,0:0:0:0:
182,192,57970,1,0,0:0:0:0:
329,192,57970,1,0,0:0:0:0:
402,192,57970,1,0,0:0:0:0:
182,192,58131,1,10,0:0:0:0:
256,192,58131,1,0,0:0:0:0:
402,192,58131,1,0,0:0:0:0:
475,192,58131,1,0,0:0:0:0:
329,192,58238,1,10,0:0:0:0:
36,192,58238,1,0,0:0:0:0:
475,192,58238,1,0,0:0:0:0:
109,192,58238,1,0,0:0:0:0:
36,192,58345,1,10,0:0:0:0:
109,192,58345,1,0,0:0:0:0:
475,192,58345,1,0,0:0:0:0:
329,192,58345,1,0,0:0:0:0:
36,192,58452,1,6,0:0:0:0:
256,192,58452,1,0,0:0:0:0:
402,192,58452,1,0,0:0:0:0:
182,192,58452,1,0,0:0:0:0:
329,192,58559,1,0,0:0:0:0:
109,192,58667,1,0,0:0:0:0:
182,192,58667,1,0,0:0:0:0:
402,192,58774,1,0,0:0:0:0:
36,192,58881,1,10,0:0:0:0:
256,192,58881,1,0,0:0:0:0:
475,192,58881,1,0,0:0:0:0:
182,192,58988,1,0,0:0:0:0:
109,192,59095,1,0,0:0:0:0:
402,192,59095,1,0,0:0:0:0:
329,192,59202,1,0,0:0:0:0:
36,192,59309,1,2,0:0:0:0:
182,192,59309,1,0,0:0:0:0:
475,192,59309,1,0,0:0:0:0:
256,192,59417,1,0,0:0:0:0:
109,192,59524,1,0,0:0:0:0:
329,192,59524,1,0,0:0:0:0:
475,192,59631,1,0,0:0:0:0:
402,192,59738,1,10,0:0:0:0:
36,192,59738,1,0,0:0:0:0:
256,192,59738,1,0,0:0:0:0:
329,192,59845,1,0,0:0:0:0:
402,192,59952,1,0,0:0:0:0:
182,192,59952,1,0,0:0:0:0:
109,192,60059,1,0,0:0:0:0:
36,192,60167,1,2,0:0:0:0:
329,192,60167,1,0,0:0:0:0:
475,192,60167,1,0,0:0:0:0:
182,192,60274,1,0,0:0:0:0:
109,192,60381,1,0,0:0:0:0:
256,192,60381,1,0,0:0:0:0:
475,192,60488,1,0,0:0:0:0:
402,192,60595,1,10,0:0:0:0:
36,192,60595,1,0,0:0:0:0:
182,192,60595,1,0,0:0:0:0:
256,192,60702,1,0,0:0:0:0:
329,192,60809,1,0,0:0:0:0:
109,192,60809,1,0,0:0:0:0:
402,192,60917,1,0,0:0:0:0:
182,192,61024,1,2,0:0:0:0:
256,192,61024,1,0,0:0:0:0:
475,192,61024,1,0,0:0:0:0:
36,192,61131,1,0,0:0:0:0:
109,192,61238,1,10,0:0:0:0:
182,192,61238,1,0,0:0:0:0:
256,192,61238,1,0,0:0:0:0:
329,192,61238,1,0,0:0:0:0:
182,192,61399,1,10,0:0:0:0:
256,192,61399,1,0,0:0:0:0:
329,192,61399,1,0,0:0:0:0:
402,192,61399,1,0,0:0:0:0:
256,192,61559,1,10,0:0:0:0:
329,192,61559,1,0,0:0:0:0:
402,192,61559,1,0,0:0:0:0:
475,192,61559,1,0,0:0:0:0:
36,192,61667,1,10,0:0:0:0:
109,192,61667,1,0,0:0:0:0:
402,192,61667,1,0,0:0:0:0:
182,192,61667,1,0,0:0:0:0:
182,192,61774,1,10,0:0:0:0:
109,192,61774,1,0,0:0:0:0:
36,192,61774,1,0,0:0:0:0:
402,192,61774,1,0,0:0:0:0:
36,192,61881,1,6,0:0:0:0:
256,192,61881,1,0,0:0:0:0:
329,192,61881,1,0,0:0:0:0:
475,192,61881,1,0,0:0:0:0:
256,192,62095,1,0,0:0:0:0:
329,192,62095,1,0,0:0:0:0:
475,192,62095,1,0,0:0:0:0:
182,192,62309,1,10,0:0:0:0:
109,192,62309,1,0,0:0:0:0:
36,192,62309,1,0,0:0:0:0:
256,192,62417,1,0,0:0:0:0:
329,192,62417,1,0,0:0:0:0:
475,192,62417,1,0,0:0:0:0:
329,192,62631,1,0,0:0:0:0:
256,192,62631,1,0,0:0:0:0:
475,192,62631,1,0,0:0:0:0:
36,192,62738,1,2,0:0:0:0:
109,192,62738,1,0,0:0:0:0:
402,192,62738,1,0,0:0:0:0:
329,192,62845,1,0,0:0:0:0:
182,192,62845,1,0,0:0:0:0:
256,192,62845,1,0,0:0:0:0:
402,192,63167,1,10,0:0:0:0:
256,192,63167,1,0,0:0:0:0:
109,192,63167,1,0,0:0:0:0:
36,192,63167,1,0,0:0:0:0:
329,192,63274,1,0,0:0:0:0:
182,192,63274,1,0,0:0:0:0:
402,192,63381,1,6,0:0:0:0:
256,192,63381,1,0,0:0:0:0:
109,192,63381,1,0,0:0:0:0:
36,192,63381,1,0,0:0:0:0:
256,192,63595,1,0,0:0:0:0:
109,192,63595,1,0,0:0:0:0:
36,192,63595,1,0,0:0:0:0:
475,192,63809,1,10,0:0:0:0:
329,192,63809,1,0,0:0:0:0:
402,192,63809,1,0,0:0:0:0:
256,192,63916,1,0,0:0:0:0:
109,192,63916,1,0,0:0:0:0:
36,192,63916,1,0,0:0:0:0:
256,192,64131,1,0,0:0:0:0:
109,192,64131,1,0,0:0:0:0:
36,192,64131,1,0,0:0:0:0:
182,192,64238,1,2,0:0:0:0:
329,192,64238,1,0,0:0:0:0:
402,192,64238,1,0,0:0:0:0:
475,192,64345,1,0,0:0:0:0:
36,192,64345,1,0,0:0:0:0:
256,192,64345,1,0,0:0:0:0:
182,192,64452,1,2,0:0:0:0:
109,192,64452,1,0,0:0:0:0:
329,192,64452,1,0,0:0:0:0:
256,192,64559,1,0,0:0:0:0:
402,192,64559,1,0,0:0:0:0:
36,192,64666,1,10,0:0:0:0:
182,192,64666,1,0,0:0:0:0:
329,192,64666,1,0,0:0:0:0:
475,192,64666,1,0,0:0:0:0:
402,192,64773,1,10,0:0:0:0:
256,192,64773,1,0,0:0:0:0:
109,192,64773,1,0,0:0:0:0:
36,192,64881,1,6,0:0:0:0:
182,192,64881,1,0,0:0:0:0:
329,192,64881,1,0,0:0:0:0:
475,192,64881,1,0,0:0:0:0:
402,192,65202,1,0,0:0:0:0:
109,192,65309,1,0,0:0:0:0:
256,192,65523,1,0,0:0:0:0:
402,192,65631,1,0,0:0:0:0:
182,192,65738,1,0,0:0:0:0:
329,192,65845,1,0,0:0:0:0:
109,192,65952,1,0,0:0:0:0:
256,192,66006,1,0,0:0:0:0:
36,192,66059,1,0,0:0:0:0:
182,192,66113,1,0,0:0:0:0:
475,192,66166,1,0,0:0:0:0:
329,192,66273,1,0,0:0:0:0:
182,192,66381,1,0,0:0:0:0:
36,192,66488,1,0,0:0:0:0:
182,192,66595,1,6,0:0:0:0:
256,192,66595,1,0,0:0:0:0:
475,192,66595,1,0,0:0:0:0:
402,192,66666,1,2,0:0:0:0:
329,192,66666,1,0,0:0:0:0:
36,192,66738,1,2,0:0:0:0:
109,192,66738,1,0,0:0:0:0:
475,192,66809,1,2,0:0:0:0:
402,192,66809,1,0,0:0:0:0:
109,192,66881,1,6,0:0:0:0:
182,192,66881,1,0,0:0:0:0:
256,192,66881,1,0,0:0:0:0:
402,192,66952,1,2,0:0:0:0:
329,192,66952,1,0,0:0:0:0:
109,192,67023,1,2,0:0:0:0:
36,192,67023,1,0,0:0:0:0:
256,192,67095,1,2,0:0:0:0:
329,192,67095,1,0,0:0:0:0:
109,192,67166,1,2,0:0:0:0:
182,192,67166,1,0,0:0:0:0:
402,192,67238,1,2,0:0:0:0:
329,192,67238,1,0,0:0:0:0:
256,192,67309,1,2,0:0:0:0:
182,192,67309,1,0,0:0:0:0:
402,192,67381,1,2,0:0:0:0:
475,192,67381,1,0,0:0:0:0:
36,192,67452,1,6,0:0:0:0:
256,192,67452,1,0,0:0:0:0:
329,192,67452,1,0,0:0:0:0:
109,192,67523,1,2,0:0:0:0:
402,192,67523,1,0,0:0:0:0:
182,192,67595,1,2,0:0:0:0:
475,192,67595,1,0,0:0:0:0:
256,192,67666,1,2,0:0:0:0:
36,192,67666,1,0,0:0:0:0:
109,192,67738,1,2,0:0:0:0:
329,192,67738,1,0,0:0:0:0:
182,192,67809,1,2,0:0:0:0:
402,192,67809,1,0,0:0:0:0:
475,192,67881,1,6,0:0:0:0:
256,192,67881,1,0,0:0:0:0:
36,192,67881,1,0,0:0:0:0:
109,192,67952,1,2,0:0:0:0:
329,192,67952,1,0,0:0:0:0:
182,192,68023,1,2,0:0:0:0:
402,192,68023,1,0,0:0:0:0:
256,192,68095,1,2,0:0:0:0:
475,192,68095,1,0,0:0:0:0:
109,192,68166,1,2,0:0:0:0:
329,192,68166,1,0,0:0:0:0:
182,192,68238,1,2,0:0:0:0:
402,192,68238,1,0,0:0:0:0:
256,192,68309,1,14,0:0:0:0:
36,192,68309,1,0,0:0:0:0:
329,192,68309,1,0,0:0:0:0:
475,192,68309,1,0,0:0:0:0:
402,192,68523,1,0,0:0:0:0:
329,192,68738,1,0,0:0:0:0:
256,192,68952,1,0,0:0:0:0:
36,192,68952,1,0,0:0:0:0:
475,192,69166,1,0,0:0:0:0:
402,192,69381,1,0,0:0:0:0:
329,192,69595,1,0,0:0:0:0:
475,192,69595,1,0,0:0:0:0:
402,192,69809,1,0,0:0:0:0:
256,192,69809,1,0,0:0:0:0:
182,192,70023,1,0,0:0:0:0:
36,192,70023,1,0,0:0:0:0:
329,192,70023,1,0,0:0:0:0:
256,192,70238,1,0,0:0:0:0:
182,192,70452,1,0,0:0:0:0:
109,192,70666,1,0,0:0:0:0:
256,192,70881,1,0,0:0:0:0:
329,192,70881,1,0,0:0:0:0:
36,192,70881,1,0,0:0:0:0:
182,192,71095,1,0,0:0:0:0:
109,192,71309,1,0,0:0:0:0:
36,192,71523,1,0,0:0:0:0:
109,192,71738,1,0,0:0:0:0:
256,192,71738,1,0,0:0:0:0:
475,192,71738,1,0,0:0:0:0:
402,192,71952,1,0,0:0:0:0:
329,192,72166,1,0,0:0:0:0:
256,192,72381,1,0,0:0:0:0:
36,192,72381,1,0,0:0:0:0:
475,192,72595,1,0,0:0:0:0:
402,192,72809,1,0,0:0:0:0:
329,192,73023,1,0,0:0:0:0:
182,192,73023,1,0,0:0:0:0:
256,192,73238,1,0,0:0:0:0:
402,192,73452,1,0,0:0:0:0:
109,192,73452,1,0,0:0:0:0:
36,192,73452,1,0,0:0:0:0:
329,192,73666,1,0,0:0:0:0:
256,192,73881,1,0,0:0:0:0:
182,192,74095,1,0,0:0:0:0:
329,192,74309,1,0,0:0:0:0:
402,192,74309,1,0,0:0:0:0:
475,192,74309,1,0,0:0:0:0:
36,192,74309,128,0,75166:0:0:0:0:
256,192,74523,1,0,0:0:0:0:
182,192,74738,1,0,0:0:0:0:
109,192,74952,1,0,0:0:0:0:
329,192,75166,1,0,0:0:0:0:
475,192,75166,1,0,0:0:0:0:
182,192,75273,1,0,0:0:0:0:
109,192,75273,1,0,0:0:0:0:
329,192,75381,1,0,0:0:0:0:
182,192,75488,1,0,0:0:0:0:
402,192,75488,1,0,0:0:0:0:
329,192,75595,1,8,0:0:0:0:
475,192,75595,1,0,0:0:0:0:
256,192,75595,1,0,0:0:0:0:
36,192,75702,1,0,0:0:0:0:
182,192,75809,1,0,0:0:0:0:
402,192,76023,1,0,0:0:0:0:
256,192,76131,1,0,0:0:0:0:
109,192,76131,1,0,0:0:0:0:
402,192,76238,1,0,0:0:0:0:
36,192,76452,1,8,0:0:0:0:
475,192,76452,128,0,76666:0:0:0:0:
109,192,76452,1,0,0:0:0:0:
256,192,76452,1,0,0:0:0:0:
329,192,76559,1,0,0:0:0:0:
402,192,76666,128,0,76881:0:0:0:0:
182,192,76666,1,0,0:0:0:0:
36,192,76773,1,0,0:0:0:0:
109,192,76773,1,0,0:0:0:0:
329,192,76881,128,0,77738:0:0:0:0:
182,192,76881,1,0,0:0:0:0:
36,192,76988,1,0,0:0:0:0:
109,192,76988,1,0,0:0:0:0:
182,192,77095,128,0,77309:0:0:0:0:
256,192,77309,1,8,0:0:0:0:
109,192,77309,1,0,0:0:0:0:
402,192,77309,1,0,0:0:0:0:
182,192,77523,1,0,0:0:0:0:
36,192,77631,1,0,0:0:0:0:
109,192,77631,1,0,0:0:0:0:
256,192,77738,128,0,78595:0:0:0:0:
182,192,77738,1,0,0:0:0:0:
475,192,77845,1,0,0:0:0:0:
109,192,77845,1,0,0:0:0:0:
182,192,77952,1,0,0:0:0:0:
402,192,78059,1,0,0:0:0:0:
329,192,78166,1,8,0:0:0:0:
36,192,78166,1,0,0:0:0:0:
109,192,78166,1,0,0:0:0:0:
182,192,78273,1,0,0:0:0:0:
402,192,78381,1,0,0:0:0:0:
329,192,78595,1,0,0:0:0:0:
182,192,78595,128,0,79881:0:0:0:0:
475,192,78702,1,0,0:0:0:0:
36,192,78702,1,0,0:0:0:0:
329,192,78809,1,0,0:0:0:0:
475,192,78916,1,0,0:0:0:0:
109,192,78916,1,0,0:0:0:0:
329,192,79023,1,8,0:0:0:0:
402,192,79023,1,0,0:0:0:0:
256,192,79023,1,0,0:0:0:0:
36,192,79131,1,0,0:0:0:0:
256,192,79238,1,0,0:0:0:0:
109,192,79452,1,0,0:0:0:0:
402,192,79559,1,0,0:0:0:0:
475,192,79559,1,0,0:0:0:0:
329,192,79666,1,0,0:0:0:0:
109,192,79881,128,8,80309:0:0:0:0:
36,192,79881,1,0,0:0:0:0:
475,192,79881,1,0,0:0:0:0:
256,192,79881,1,0,0:0:0:0:
402,192,79988,1,0,0:0:0:0:
256,192,80095,1,0,0:0:0:0:
402,192,80202,1,0,0:0:0:0:
36,192,80309,128,10,81166:0:0:0:0:
182,192,80309,1,0,0:0:0:0:
329,192,80309,1,0,0:0:0:0:
475,192,80309,1,0,0:0:0:0:
256,192,80309,1,0,0:0:0:0:
475,192,80452,1,2,0:0:0:0:
329,192,80452,1,0,0:0:0:0:
182,192,80452,1,0,0:0:0:0:
182,192,80595,1,2,0:0:0:0:
329,192,80595,1,0,0:0:0:0:
475,192,80595,1,0,0:0:0:0:
402,192,80738,1,10,0:0:0:0:
256,192,80738,1,0,0:0:0:0:
109,192,80738,1,0,0:0:0:0:
475,192,80738,1,0,0:0:0:0:
109,192,80881,1,2,0:0:0:0:
256,192,80881,1,0,0:0:0:0:
402,192,80881,1,0,0:0:0:0:
402,192,81023,1,2,0:0:0:0:
109,192,81023,1,0,0:0:0:0:
256,192,81023,1,0,0:0:0:0:
475,192,81166,128,10,82023:0:0:0:0:
329,192,81166,1,0,0:0:0:0:
182,192,81166,1,0,0:0:0:0:
109,192,81166,1,0,0:0:0:0:
402,192,81166,1,0,0:0:0:0:
109,192,81309,1,2,0:0:0:0:
182,192,81309,1,0,0:0:0:0:
329,192,81309,1,0,0:0:0:0:
329,192,81452,1,2,0:0:0:0:
182,192,81452,1,0,0:0:0:0:
109,192,81452,1,0,0:0:0:0:
36,192,81595,1,10,0:0:0:0:
256,192,81595,1,0,0:0:0:0:
402,192,81595,1,0,0:0:0:0:
182,192,81595,1,0,0:0:0:0:
402,192,81738,1,2,0:0:0:0:
256,192,81738,1,0,0:0:0:0:
36,192,81738,1,0,0:0:0:0:
36,192,81881,1,2,0:0:0:0:
256,192,81881,1,0,0:0:0:0:
402,192,81881,1,0,0:0:0:0:
329,192,82023,1,6,0:0:0:0:
182,192,82023,1,0,0:0:0:0:
109,192,82023,1,0,0:0:0:0:
256,192,82023,1,0,0:0:0:0:
36,192,82023,1,0,0:0:0:0:
109,192,82166,1,0,0:0:0:0:
182,192,82166,1,0,0:0:0:0:
329,192,82166,1,0,0:0:0:0:
256,192,82309,1,0,0:0:0:0:
402,192,82309,1,0,0:0:0:0:
475,192,82309,1,0,0:0:0:0:
402,192,82452,1,10,0:0:0:0:
475,192,82452,1,0,0:0:0:0:
256,192,82452,1,0,0:0:0:0:
109,192,82452,1,0,0:0:0:0:
36,192,82595,1,0,0:0:0:0:
182,192,82595,1,0,0:0:0:0:
109,192,82666,1,0,0:0:0:0:
256,192,82666,1,0,0:0:0:0:
182,192,82738,1,0,0:0:0:0:
329,192,82738,1,0,0:0:0:0:
256,192,82809,1,0,0:0:0:0:
402,192,82809,1,0,0:0:0:0:
475,192,82881,1,2,0:0:0:0:
329,192,82881,1,0,0:0:0:0:
36,192,82881,1,0,0:0:0:0:
109,192,82881,1,0,0:0:0:0:
36,192,83023,1,0,0:0:0:0:
329,192,83023,1,0,0:0:0:0:
475,192,83023,1,0,0:0:0:0:
109,192,83166,1,0,0:0:0:0:
256,192,83166,1,0,0:0:0:0:
402,192,83166,1,0,0:0:0:0:
402,192,83309,1,10,0:0:0:0:
256,192,83309,1,0,0:0:0:0:
182,192,83309,1,0,0:0:0:0:
109,192,83309,1,0,0:0:0:0:
36,192,83452,1,0,0:0:0:0:
329,192,83452,1,0,0:0:0:0:
182,192,83523,1,0,0:0:0:0:
475,192,83523,1,0,0:0:0:0:
402,192,83595,1,0,0:0:0:0:
109,192,83595,1,0,0:0:0:0:
329,192,83666,1,0,0:0:0:0:
36,192,83666,1,0,0:0:0:0:
182,192,83738,1,2,0:0:0:0:
256,192,83738,1,0,0:0:0:0:
475,192,83738,1,0,0:0:0:0:
402,192,83738,1,0,0:0:0:0:
182,192,83881,1,0,0:0:0:0:
475,192,83881,1,0,0:0:0:0:
402,192,83881,1,0,0:0:0:0:
36,192,84023,1,0,0:0:0:0:
109,192,84023,1,0,0:0:0:0:
329,192,84023,1,0,0:0:0:0:
329,192,84166,1,10,0:0:0:0:
256,192,84166,1,0,0:0:0:0:
109,192,84166,1,0,0:0:0:0:
36,192,84166,1,0,0:0:0:0:
182,192,84309,1,0,0:0:0:0:
475,192,84309,1,0,0:0:0:0:
402,192,84381,1,0,0:0:0:0:
109,192,84381,1,0,0:0:0:0:
329,192,84452,1,0,0:0:0:0:
36,192,84452,1,0,0:0:0:0:
109,192,84523,1,0,0:0:0:0:
402,192,84523,1,0,0:0:0:0:
329,192,84595,5,2,0:0:0:0:
182,192,84595,1,0,0:0:0:0:
256,192,84595,1,0,0:0:0:0:
475,192,84595,1,0,0:0:0:0:
182,192,84738,1,0,0:0:0:0:
329,192,84738,1,0,0:0:0:0:
475,192,84738,1,0,0:0:0:0:
36,192,84881,1,0,0:0:0:0:
256,192,84881,1,0,0:0:0:0:
402,192,84881,1,0,0:0:0:0:
402,192,85023,1,10,0:0:0:0:
256,192,85023,1,0,0:0:0:0:
109,192,85023,1,0,0:0:0:0:
36,192,85023,1,0,0:0:0:0:
182,192,85166,1,0,0:0:0:0:
329,192,85166,1,0,0:0:0:0:
109,192,85238,1,0,0:0:0:0:
475,192,85238,1,0,0:0:0:0:
402,192,85309,1,0,0:0:0:0:
36,192,85309,1,0,0:0:0:0:
182,192,85381,1,0,0:0:0:0:
329,192,85381,1,0,0:0:0:0:
256,192,85452,1,6,0:0:0:0:
109,192,85452,1,0,0:0:0:0:
402,192,85452,1,0,0:0:0:0:
475,192,85452,1,0,0:0:0:0:
36,192,85452,1,0,0:0:0:0:
109,192,85595,1,0,0:0:0:0:
256,192,85595,1,0,0:0:0:0:
402,192,85595,1,0,0:0:0:0:
182,192,85738,1,0,0:0:0:0:
329,192,85738,1,0,0:0:0:0:
475,192,85738,1,0,0:0:0:0:
475,192,85881,1,10,0:0:0:0:
329,192,85881,1,0,0:0:0:0:
182,192,85881,1,0,0:0:0:0:
36,192,85881,1,0,0:0:0:0:
109,192,86023,1,0,0:0:0:0:
256,192,86023,1,0,0:0:0:0:
329,192,86095,1,0,0:0:0:0:
182,192,86095,1,0,0:0:0:0:
256,192,86166,1,0,0:0:0:0:
402,192,86166,1,0,0:0:0:0:
475,192,86238,1,0,0:0:0:0:
329,192,86238,1,0,0:0:0:0:
182,192,86309,1,2,0:0:0:0:
109,192,86309,1,0,0:0:0:0:
36,192,86309,1,0,0:0:0:0:
402,192,86309,1,0,0:0:0:0:
36,192,86452,1,0,0:0:0:0:
109,192,86452,1,0,0:0:0:0:
402,192,86452,1,0,0:0:0:0:
182,192,86595,1,0,0:0:0:0:
329,192,86595,1,0,0:0:0:0:
475,192,86595,1,0,0:0:0:0:
475,192,86738,1,2,0:0:0:0:
329,192,86738,1,0,0:0:0:0:
256,192,86738,1,8,0:0:0:0:
182,192,86738,1,0,0:0:0:0:
402,192,86881,1,0,0:0:0:0:
36,192,86881,1,0,0:0:0:0:
475,192,86952,1,0,0:0:0:0:
109,192,86952,1,0,0:0:0:0:
329,192,87023,1,0,0:0:0:0:
182,192,87023,1,0,0:0:0:0:
109,192,87095,1,0,0:0:0:0:
256,192,87095,1,0,0:0:0:0:
475,192,87166,1,2,0:0:0:0:
402,192,87166,1,0,0:0:0:0:
182,192,87166,1,0,0:0:0:0:
36,192,87166,1,0,0:0:0:0:
402,192,87309,1,0,0:0:0:0:
182,192,87309,1,0,0:0:0:0:
36,192,87309,1,0,0:0:0:0:
475,192,87452,1,0,0:0:0:0:
329,192,87452,1,0,0:0:0:0:
109,192,87452,1,0,0:0:0:0:
109,192,87595,1,10,0:0:0:0:
329,192,87595,1,0,0:0:0:0:
475,192,87595,1,0,0:0:0:0:
36,192,87595,1,0,0:0:0:0:
402,192,87738,1,0,0:0:0:0:
256,192,87738,1,0,0:0:0:0:
36,192,87809,1,0,0:0:0:0:
182,192,87809,1,0,0:0:0:0:
329,192,87881,1,0,0:0:0:0:
475,192,87881,1,0,0:0:0:0:
256,192,87952,1,0,0:0:0:0:
109,192,87952,1,0,0:0:0:0:
402,192,88023,1,2,0:0:0:0:
182,192,88023,1,0,0:0:0:0:
36,192,88023,1,0,0:0:0:0:
475,192,88023,1,0,0:0:0:0:
402,192,88166,1,2,0:0:0:0:
475,192,88166,1,0,0:0:0:0:
182,192,88166,1,0,0:0:0:0:
36,192,88166,1,0,0:0:0:0:
36,192,88309,1,2,0:0:0:0:
109,192,88309,1,0,0:0:0:0:
329,192,88309,1,0,0:0:0:0:
475,192,88309,1,0,0:0:0:0:
475,192,88452,1,10,0:0:0:0:
329,192,88452,1,0,0:0:0:0:
109,192,88452,1,0,0:0:0:0:
36,192,88452,1,0,0:0:0:0:
182,192,88523,1,2,0:0:0:0:
256,192,88523,1,0,0:0:0:0:
402,192,88523,1,0,0:0:0:0:
329,192,88595,1,2,0:0:0:0:
109,192,88595,1,0,0:0:0:0:
36,192,88595,1,0,0:0:0:0:
475,192,88666,1,2,0:0:0:0:
402,192,88666,1,0,0:0:0:0:
182,192,88666,1,0,0:0:0:0:
256,192,88738,1,2,0:0:0:0:
36,192,88738,1,0,0:0:0:0:
329,192,88738,1,0,0:0:0:0:
109,192,88809,1,2,0:0:0:0:
402,192,88809,1,0,0:0:0:0:
475,192,88809,1,0,0:0:0:0:
256,192,88881,1,6,0:0:0:0:
182,192,88881,1,0,0:0:0:0:
36,192,88881,1,0,0:0:0:0:
329,192,88881,1,0,0:0:0:0:
402,192,88988,1,0,0:0:0:0:
109,192,89095,1,0,0:0:0:0:
475,192,89095,1,0,0:0:0:0:
256,192,89202,1,0,0:0:0:0:
329,192,89309,1,10,0:0:0:0:
182,192,89309,1,0,0:0:0:0:
475,192,89309,1,0,0:0:0:0:
36,192,89309,1,0,0:0:0:0:
402,192,89416,1,0,0:0:0:0:
109,192,89523,1,0,0:0:0:0:
36,192,89523,1,0,0:0:0:0:
182,192,89631,1,0,0:0:0:0:
475,192,89738,1,2,0:0:0:0:
256,192,89738,1,0,0:0:0:0:
402,192,89738,1,0,0:0:0:0:
36,192,89845,1,0,0:0:0:0:
109,192,89952,1,0,0:0:0:0:
402,192,89952,1,0,0:0:0:0:
182,192,90059,1,0,0:0:0:0:
36,192,90166,1,10,0:0:0:0:
475,192,90166,1,0,0:0:0:0:
329,192,90166,1,0,0:0:0:0:
256,192,90166,1,0,0:0:0:0:
109,192,90273,1,0,0:0:0:0:
182,192,90381,1,0,0:0:0:0:
402,192,90381,1,0,0:0:0:0:
256,192,90488,1,0,0:0:0:0:
109,192,90595,1,2,0:0:0:0:
329,192,90595,1,0,0:0:0:0:
475,192,90595,1,0,0:0:0:0:
182,192,90702,1,0,0:0:0:0:
329,192,90809,1,0,0:0:0:0:
402,192,90809,1,0,0:0:0:0:
256,192,90916,1,0,0:0:0:0:
475,192,91023,1,10,0:0:0:0:
36,192,91023,1,0,0:0:0:0:
109,192,91023,1,0,0:0:0:0:
182,192,91023,1,0,0:0:0:0:
329,192,91131,1,0,0:0:0:0:
182,192,91238,1,0,0:0:0:0:
402,192,91238,1,0,0:0:0:0:
36,192,91345,1,0,0:0:0:0:
109,192,91452,1,2,0:0:0:0:
256,192,91452,1,0,0:0:0:0:
475,192,91452,1,0,0:0:0:0:
402,192,91559,1,0,0:0:0:0:
329,192,91666,1,0,0:0:0:0:
182,192,91666,1,0,0:0:0:0:
475,192,91773,1,0,0:0:0:0:
182,192,91881,1,10,0:0:0:0:
256,192,91881,1,0,0:0:0:0:
402,192,91881,1,0,0:0:0:0:
36,192,91881,1,0,0:0:0:0:
329,192,91988,1,0,0:0:0:0:
109,192,92095,1,0,0:0:0:0:
402,192,92095,1,0,0:0:0:0:
329,192,92202,1,0,0:0:0:0:
36,192,92309,1,2,0:0:0:0:
256,192,92309,1,0,0:0:0:0:
475,192,92309,1,0,0:0:0:0:
182,192,92416,1,0,0:0:0:0:
109,192,92523,1,0,0:0:0:0:
36,192,92523,1,0,0:0:0:0:
329,192,92631,1,0,0:0:0:0:
475,192,92738,1,10,0:0:0:0:
256,192,92738,1,0,0:0:0:0:
402,192,92738,1,0,0:0:0:0:
109,192,92738,1,0,0:0:0:0:
182,192,92845,1,0,0:0:0:0:
36,192,92952,1,0,0:0:0:0:
402,192,92952,1,0,0:0:0:0:
329,192,93059,1,0,0:0:0:0:
256,192,93166,1,2,0:0:0:0:
182,192,93166,1,0,0:0:0:0:
109,192,93166,1,0,0:0:0:0:
475,192,93273,1,0,0:0:0:0:
402,192,93381,1,0,0:0:0:0:
109,192,93381,1,0,0:0:0:0:
329,192,93488,1,0,0:0:0:0:
182,192,93595,1,10,0:0:0:0:
475,192,93595,1,0,0:0:0:0:
36,192,93595,1,0,0:0:0:0:
256,192,93595,1,0,0:0:0:0:
402,192,93702,1,0,0:0:0:0:
256,192,93809,1,0,0:0:0:0:
329,192,93809,1,0,0:0:0:0:
182,192,93916,1,0,0:0:0:0:
109,192,94023,1,2,0:0:0:0:
402,192,94023,1,0,0:0:0:0:
475,192,94023,1,0,0:0:0:0:
256,192,94131,1,0,0:0:0:0:
182,192,94238,1,0,0:0:0:0:
36,192,94238,1,0,0:0:0:0:
329,192,94345,1,0,0:0:0:0:
109,192,94452,1,10,0:0:0:0:
402,192,94452,1,0,0:0:0:0:
475,192,94452,1,0,0:0:0:0:
256,192,94452,1,0,0:0:0:0:
36,192,94559,1,0,0:0:0:0:
329,192,94666,1,0,0:0:0:0:
182,192,94666,1,0,0:0:0:0:
475,192,94773,1,0,0:0:0:0:
256,192,94881,1,2,0:0:0:0:
109,192,94881,1,0,0:0:0:0:
36,192,94881,1,0,0:0:0:0:
329,192,94988,1,0,0:0:0:0:
182,192,95095,1,0,0:0:0:0:
402,192,95095,1,0,0:0:0:0:
256,192,95202,1,0,0:0:0:0:
109,192,95309,1,14,0:0:0:0:
329,192,95309,1,0,0:0:0:0:
475,192,95309,1,0,0:0:0:0:
36,192,95309,1,0,0:0:0:0:
402,192,95309,1,0,0:0:0:0:
256,192,95416,1,0,0:0:0:0:
36,192,95523,1,2,0:0:0:0:
475,192,95523,1,0,0:0:0:0:
182,192,95523,1,0,0:0:0:0:
256,192,95631,1,0,0:0:0:0:
36,192,95738,1,6,0:0:0:0:
109,192,95738,1,0,0:0:0:0:
329,192,95738,1,0,0:0:0:0:
475,192,95738,1,0,0:0:0:0:
182,192,95738,1,0,0:0:0:0:
402,192,95845,1,0,0:0:0:0:
329,192,95952,1,0,0:0:0:0:
182,192,95952,1,0,0:0:0:0:
36,192,96059,1,0,0:0:0:0:
256,192,96166,1,10,0:0:0:0:
402,192,96166,1,0,0:0:0:0:
475,192,96166,1,0,0:0:0:0:
109,192,96166,1,0,0:0:0:0:
182,192,96273,1,0,0:0:0:0:
475,192,96381,1,0,0:0:0:0:
402,192,96381,1,0,0:0:0:0:
329,192,96488,1,0,0:0:0:0:
475,192,96595,1,2,0:0:0:0:
256,192,96595,1,0,0:0:0:0:
36,192,96595,1,0,0:0:0:0:
109,192,96702,1,0,0:0:0:0:
402,192,96809,1,0,0:0:0:0:
182,192,96809,1,0,0:0:0:0:
256,192,96916,1,0,0:0:0:0:
36,192,97023,1,10,0:0:0:0:
329,192,97023,1,0,0:0:0:0:
475,192,97023,1,0,0:0:0:0:
402,192,97023,1,0,0:0:0:0:
182,192,97131,1,0,0:0:0:0:
475,192,97238,1,0,0:0:0:0:
109,192,97238,1,0,0:0:0:0:
329,192,97345,1,0,0:0:0:0:
36,192,97452,1,2,0:0:0:0:
402,192,97452,1,0,0:0:0:0:
109,192,97452,1,0,0:0:0:0:
182,192,97559,1,0,0:0:0:0:
402,192,97666,1,0,0:0:0:0:
475,192,97666,1,0,0:0:0:0:
329,192,97773,1,0,0:0:0:0:
109,192,97881,1,10,0:0:0:0:
475,192,97881,1,0,0:0:0:0:
256,192,97881,1,0,0:0:0:0:
36,192,97881,1,0,0:0:0:0:
329,192,97988,1,0,0:0:0:0:
182,192,98095,1,0,0:0:0:0:
402,192,98095,1,0,0:0:0:0:
109,192,98202,1,0,0:0:0:0:
36,192,98309,1,2,0:0:0:0:
256,192,98309,1,0,0:0:0:0:
475,192,98309,1,0,0:0:0:0:
182,192,98416,1,0,0:0:0:0:
109,192,98523,1,0,0:0:0:0:
329,192,98523,1,0,0:0:0:0:
402,192,98631,1,0,0:0:0:0:
475,192,98738,1,10,0:0:0:0:
256,192,98738,1,0,0:0:0:0:
36,192,98738,1,0,0:0:0:0:
329,192,98738,1,0,0:0:0:0:
182,192,98845,1,0,0:0:0:0:
475,192,98952,1,0,0:0:0:0:
402,192,98952,1,0,0:0:0:0:
109,192,99059,1,0,0:0:0:0:
36,192,99166,1,2,0:0:0:0:
329,192,99166,1,0,0:0:0:0:
256,192,99166,1,0,0:0:0:0:
402,192,99273,1,0,0:0:0:0:
475,192,99381,1,0,0:0:0:0:
256,192,99381,1,0,0:0:0:0:
182,192,99488,1,0,0:0:0:0:
109,192,99595,1,10,0:0:0:0:
475,192,99595,1,0,0:0:0:0:
329,192,99595,1,0,0:0:0:0:
402,192,99595,1,0,0:0:0:0:
36,192,99702,1,0,0:0:0:0:
182,192,99809,1,0,0:0:0:0:
256,192,99809,1,0,0:0:0:0:
329,192,99916,1,0,0:0:0:0:
36,192,100023,1,2,0:0:0:0:
475,192,100023,1,0,0:0:0:0:
402,192,100023,1,0,0:0:0:0:
256,192,100131,1,0,0:0:0:0:
182,192,100238,1,0,0:0:0:0:
402,192,100238,1,0,0:0:0:0:
109,192,100345,1,0,0:0:0:0:
36,192,100452,1,10,0:0:0:0:
329,192,100452,1,0,0:0:0:0:
475,192,100452,1,0,0:0:0:0:
256,192,100452,1,0,0:0:0:0:
402,192,100559,1,0,0:0:0:0:
182,192,100666,1,0,0:0:0:0:
329,192,100666,1,0,0:0:0:0:
109,192,100773,1,0,0:0:0:0:
36,192,100881,1,2,0:0:0:0:
329,192,100881,1,0,0:0:0:0:
475,192,100881,1,0,0:0:0:0:
182,192,100988,1,0,0:0:0:0:
256,192,100988,1,0,0:0:0:0:
36,192,101095,1,2,0:0:0:0:
329,192,101095,1,0,0:0:0:0:
475,192,101095,1,0,0:0:0:0:
256,192,101202,1,0,0:0:0:0:
182,192,101202,1,0,0:0:0:0:
109,192,101309,1,10,0:0:0:0:
36,192,101309,1,0,0:0:0:0:
402,192,101309,1,0,0:0:0:0:
475,192,101309,1,0,0:0:0:0:
329,192,101416,1,0,0:0:0:0:
256,192,101416,1,0,0:0:0:0:
109,192,101523,1,2,0:0:0:0:
402,192,101523,1,0,0:0:0:0:
475,192,101523,1,0,0:0:0:0:
256,192,101631,1,0,0:0:0:0:
329,192,101631,1,0,0:0:0:0:
182,192,101738,1,2,0:0:0:0:
36,192,101738,1,0,0:0:0:0:
475,192,101738,1,0,0:0:0:0:
402,192,101845,1,2,0:0:0:0:
109,192,101845,1,0,0:0:0:0:
329,192,101845,1,0,0:0:0:0:
256,192,101952,1,2,0:0:0:0:
182,192,101952,1,0,0:0:0:0:
475,192,101952,1,0,0:0:0:0:
36,192,102059,1,2,0:0:0:0:
329,192,102059,1,0,0:0:0:0:
109,192,102059,1,0,0:0:0:0:
402,192,102166,1,14,0:0:0:0:
256,192,102166,1,0,0:0:0:0:
182,192,102166,1,0,0:0:0:0:
475,192,102166,1,0,0:0:0:0:
329,192,102273,1,2,0:0:0:0:
109,192,102273,1,0,0:0:0:0:
36,192,102273,1,0,0:0:0:0:
182,192,102381,1,2,0:0:0:0:
475,192,102381,1,0,0:0:0:0:
402,192,102381,1,0,0:0:0:0:
256,192,102488,1,2,0:0:0:0:
36,192,102488,1,0,0:0:0:0:
109,192,102488,1,0,0:0:0:0:
182,192,102595,1,14,0:0:0:0:
329,192,102595,1,0,0:0:0:0:
402,192,102595,1,0,0:0:0:0:
475,192,102595,1,0,0:0:0:0:
329,192,102809,1,0,0:0:0:0:
182,192,102809,1,0,0:0:0:0:
329,192,103023,1,0,0:0:0:0:
182,192,103023,1,0,0:0:0:0:
256,192,103238,1,0,0:0:0:0:
36,192,103238,1,0,0:0:0:0:
256,192,103452,1,0,0:0:0:0:
36,192,103452,1,0,0:0:0:0:
36,192,103666,1,0,0:0:0:0:
256,192,103666,1,0,0:0:0:0:
36,192,103881,1,0,0:0:0:0:
256,192,103881,1,0,0:0:0:0:
475,192,103881,1,0,0:0:0:0:
402,192,104095,1,0,0:0:0:0:
256,192,104095,1,0,0:0:0:0:
36,192,104095,1,0,0:0:0:0:
109,192,104309,1,0,0:0:0:0:
329,192,104309,1,0,0:0:0:0:
475,192,104309,1,0,0:0:0:0:
329,192,104523,1,0,0:0:0:0:
475,192,104523,1,0,0:0:0:0:
475,192,104738,1,0,0:0:0:0:
329,192,104738,1,0,0:0:0:0:
109,192,104952,1,0,0:0:0:0:
256,192,104952,1,0,0:0:0:0:
109,192,105166,1,0,0:0:0:0:
256,192,105166,1,0,0:0:0:0:
402,192,105166,1,0,0:0:0:0:
256,192,105381,1,0,0:0:0:0:
109,192,105381,1,0,0:0:0:0:
109,192,105595,1,0,0:0:0:0:
256,192,105595,1,0,0:0:0:0:
256,192,105809,1,0,0:0:0:0:
109,192,105809,1,0,0:0:0:0:
182,192,106023,1,0,0:0:0:0:
36,192,106023,1,0,0:0:0:0:
329,192,106023,1,0,0:0:0:0:
329,192,106238,1,0,0:0:0:0:
182,192,106238,1,0,0:0:0:0:
329,192,106452,1,0,0:0:0:0:
182,192,106452,1,0,0:0:0:0:
109,192,106666,1,0,0:0:0:0:
402,192,106666,1,0,0:0:0:0:
109,192,106881,1,0,0:0:0:0:
402,192,106881,1,0,0:0:0:0:
402,192,107095,1,0,0:0:0:0:
109,192,107095,1,0,0:0:0:0:
109,192,107309,1,0,0:0:0:0:
256,192,107309,1,0,0:0:0:0:
402,192,107309,1,0,0:0:0:0:
402,192,107523,1,0,0:0:0:0:
109,192,107523,1,0,0:0:0:0:
256,192,107738,1,0,0:0:0:0:
182,192,107738,1,0,0:0:0:0:
475,192,107738,1,0,0:0:0:0:
475,192,107952,1,0,0:0:0:0:
182,192,107952,1,0,0:0:0:0:
182,192,108166,1,0,0:0:0:0:
475,192,108166,1,0,0:0:0:0:
36,192,108381,1,0,0:0:0:0:
256,192,108381,1,0,0:0:0:0:
256,192,108595,1,0,0:0:0:0:
475,192,108595,1,0,0:0:0:0:
36,192,108595,1,0,0:0:0:0:
256,192,108809,1,0,0:0:0:0:
36,192,108809,1,0,0:0:0:0:
36,192,109023,1,0,0:0:0:0:
256,192,109023,1,0,0:0:0:0:
256,192,109238,1,0,0:0:0:0:
36,192,109238,1,0,0:0:0:0:
109,192,109452,1,0,0:0:0:0:
329,192,109452,1,0,0:0:0:0:
109,192,109666,1,0,0:0:0:0:
329,192,109666,1,0,0:0:0:0:
109,192,109881,1,0,0:0:0:0:
329,192,109881,1,0,0:0:0:0:
256,192,110095,1,0,0:0:0:0:
402,192,110095,1,0,0:0:0:0:
256,192,110309,1,0,0:0:0:0:
402,192,110309,1,0,0:0:0:0:
402,192,110523,1,0,0:0:0:0:
256,192,110523,1,0,0:0:0:0:
36,192,110738,1,0,0:0:0:0:
256,192,110738,1,0,0:0:0:0:
402,192,110738,1,0,0:0:0:0:
402,192,110952,1,0,0:0:0:0:
256,192,110952,1,0,0:0:0:0:
109,192,110952,1,0,0:0:0:0:
182,192,111166,1,0,0:0:0:0:
329,192,111166,1,0,0:0:0:0:
475,192,111166,1,0,0:0:0:0:
475,192,111381,1,0,0:0:0:0:
182,192,111381,1,0,0:0:0:0:
475,192,111595,1,0,0:0:0:0:
182,192,111595,1,0,0:0:0:0:
36,192,111809,1,0,0:0:0:0:
329,192,111809,1,0,0:0:0:0:
182,192,112023,1,0,0:0:0:0:
329,192,112023,1,0,0:0:0:0:
36,192,112023,1,0,0:0:0:0:
36,192,112238,1,0,0:0:0:0:
329,192,112238,1,0,0:0:0:0:
329,192,112452,1,0,0:0:0:0:
36,192,112452,1,0,0:0:0:0:
36,192,112666,1,0,0:0:0:0:
329,192,112666,1,0,0:0:0:0:
182,192,112881,1,0,0:0:0:0:
109,192,112881,1,0,0:0:0:0:
402,192,112881,1,0,0:0:0:0:
402,192,113095,1,0,0:0:0:0:
109,192,113095,1,0,0:0:0:0:
402,192,113309,1,0,0:0:0:0:
109,192,113309,1,0,0:0:0:0:
182,192,113523,1,0,0:0:0:0:
329,192,113523,1,0,0:0:0:0:
329,192,113738,1,0,0:0:0:0:
182,192,113738,1,0,0:0:0:0:
182,192,113952,1,0,0:0:0:0:
329,192,113952,1,0,0:0:0:0:
329,192,114166,1,0,0:0:0:0:
182,192,114166,1,0,0:0:0:0:
256,192,114166,1,0,0:0:0:0:
182,192,114381,1,0,0:0:0:0:
329,192,114381,1,0,0:0:0:0:
36,192,114595,1,0,0:0:0:0:
256,192,114595,1,0,0:0:0:0:
475,192,114595,1,0,0:0:0:0:
256,192,114809,1,0,0:0:0:0:
36,192,114809,1,0,0:0:0:0:
36,192,115023,1,0,0:0:0:0:
256,192,115023,1,0,0:0:0:0:
109,192,115238,1,0,0:0:0:0:
402,192,115238,1,0,0:0:0:0:
256,192,115452,1,0,0:0:0:0:
109,192,115452,1,0,0:0:0:0:
402,192,115452,1,0,0:0:0:0:
402,192,115666,1,0,0:0:0:0:
109,192,115666,1,0,0:0:0:0:
402,192,115881,1,0,0:0:0:0:
109,192,115881,1,0,0:0:0:0:
109,192,116095,128,0,116523:0:0:0:0:
402,192,116095,128,0,116523:0:0:0:0:
