osu file format v14

[General]
AudioFilename: audio.mp3
AudioLeadIn: 0
PreviewTime: -1
Countdown: 0
SampleSet: None
StackLeniency: 0.7
Mode: 3
LetterboxInBreaks: 0
SpecialStyle: 0
WidescreenStoryboard: 0

[Editor]
DistanceSpacing: 0.5
BeatDivisor: 8
GridSize: 4
TimelineZoom: 2.6

[Metadata]
Title:Shounen wa Sora o Tadoru Prog Piano Remix
TitleUnicode:少年は空を辿る Prog Piano Remix
Artist:Toromaru
ArtistUnicode:とろまる
Creator:UnluckyCroco
Version:unnerfed ver
Source:SOUND VOLTEX II -infinite infection-
Tags:
BeatmapID:2199800
BeatmapSetID:1050662

[Difficulty]
HPDrainRate:9
CircleSize:4
OverallDifficulty:9
ApproachRate:5
SliderMultiplier:1.4
SliderTickRate:1

[Events]
//Background and Video events
0,0,"dress_piano_forest_anime_anime_girls_Wallpaper HD_1366x768_www.paperhi.com.jpg",0,0
//Break Periods
//Storyboard Layer 0 (Background)
//Storyboard Layer 1 (Fail)
//Storyboard Layer 2 (Pass)
//Storyboard Layer 3 (Foreground)
//Storyboard Layer 4 (Overlay)
//Storyboard Sound Samples

[TimingPoints]
1456.68957896314,428.571428571429,4,2,1,30,1,0
6599,-200,4,2,1,30,0,1
6679,-40,4,2,1,30,0,1
6706,-100,4,2,1,30,0,1
7242,-200,4,2,1,30,0,1
7322,-40,4,2,1,30,0,1
7349,-100,4,2,1,30,0,1
7778,-200,4,2,1,30,0,1
7858,-40,4,2,1,30,0,1
7885,-100,4,2,1,30,0,1
8420,-200,4,2,1,30,0,1
8500,-40,4,2,1,30,0,1
8527,-100,4,2,1,30,0,1
8849,-200,4,2,1,30,0,1
8929,-40,4,2,1,30,0,1
8956,-100,4,2,1,30,0,1
9492,-200,4,2,1,30,0,1
9572,-40,4,2,1,30,0,1
9599,-100,4,2,1,30,0,1
10028,-100,4,2,1,30,0,0
11528,428.571428571429,4,2,1,30,1,0
13028,428.571428571429,4,2,1,30,1,0
14742,428.571428571429,7,2,1,30,1,0
18599,428.571428571429,7,2,1,30,1,0
23313,428.571428571429,4,2,1,30,1,0
25027,-200,4,2,1,30,0,0
25134,-66.6666666666667,4,2,1,30,0,0
25241,-133.333333333333,4,2,1,30,0,0
25482,-57.1428571428571,4,2,1,30,0,0
25562,-200,4,2,1,30,0,0
25670,-66.6666666666667,4,2,1,30,0,0
25777,-200,4,2,1,30,0,0
25884,-66.6666666666667,4,2,1,30,0,0
25991,-133.333333333333,4,2,1,30,0,0
26232,-57.1428571428571,4,2,1,30,0,0
26312,-200,4,2,1,30,0,0
26420,-66.6666666666667,4,2,1,30,0,0
26527,-200,4,2,1,30,0,0
26580,-66.6666666666667,4,2,1,30,0,0
26634,-200,4,2,1,30,0,0
26687,-66.6666666666667,4,2,1,30,0,0
26741,-200,4,2,1,30,0,0
26848,-66.6666666666667,4,2,1,30,0,0
26955,-133.333333333333,4,2,1,30,0,0
27196,-57.1428571428571,4,2,1,30,0,0
27276,-200,4,2,1,30,0,0
27384,-66.6666666666667,4,2,1,30,0,0
27491,-133.333333333333,4,2,1,30,0,0
27732,-57.1428571428571,4,2,1,30,0,0
27812,-200,4,2,1,30,0,0
27920,-66.6666666666667,4,2,1,30,0,0
28027,-200,4,2,1,30,0,0
28080,-66.6666666666667,4,2,1,30,0,0
28134,-100,4,2,1,30,0,0
28241,-200,4,2,1,30,0,0
28295,-66.6666666666667,4,2,1,30,0,0
28348,-200,4,2,1,30,0,0
28402,-66.6666666666667,4,2,1,30,0,0
28455,428.571428571429,7,2,1,30,1,0
28455,-100,7,2,1,30,0,0
34455,428.571428571429,4,2,1,30,1,0
35205,-133.333333333333,4,2,1,30,0,0
35446,-57.1428571428571,4,2,1,30,0,0
35526,-200,4,2,1,30,0,0
35633,-66.6666666666667,4,2,1,30,0,0
35740,-200,4,2,1,30,0,0
35847,-66.6666666666667,4,2,1,30,0,0
35955,428.571428571429,4,2,1,30,1,0
35955,-100,4,2,1,30,0,0
36705,-133.333333333333,4,2,1,30,0,0
36946,-57.1428571428571,4,2,1,30,0,0
37026,-200,4,2,1,30,0,0
37133,-66.6666666666667,4,2,1,30,0,0
37240,-200,4,2,1,30,0,0
37347,-66.6666666666667,4,2,1,30,0,0
37455,428.571428571429,4,2,1,30,1,0
37455,-100,4,2,1,30,0,0
38205,-133.333333333333,4,2,1,30,0,0
38446,-57.1428571428571,4,2,1,30,0,0
38526,-100,4,2,1,30,0,0
38955,428.571428571429,4,2,1,30,1,0
39705,-133.333333333333,4,2,1,30,0,0
39946,-57.1428571428571,4,2,1,30,0,0
40026,-100,4,2,1,30,0,0
40669,-200,4,2,1,30,0,0
40776,-66.6666666666667,4,2,1,30,0,0
40883,-133.333333333333,4,2,1,30,0,0
40990,-79.9999999999999,4,2,1,30,0,0
41097,-200,4,2,1,30,0,0
41204,-66.6666666666667,4,2,1,30,0,0
41311,-133.333333333333,4,2,1,30,0,0
41418,-79.9999999999999,4,2,1,30,0,0
41526,-200,4,2,1,30,0,0
41633,-66.6666666666667,4,2,1,30,0,0
41740,-133.333333333333,4,2,1,30,0,0
41847,-79.9999999999999,4,2,1,30,0,0
41955,-200,4,2,1,30,0,0
42062,-66.6666666666667,4,2,1,30,0,0
42169,-133.333333333333,4,2,1,30,0,0
42222,-79.9999999999999,4,2,1,30,0,0
42276,-133.333333333333,4,2,1,30,0,0
42330,-79.9999999999999,4,2,1,30,0,0
42383,-200,4,2,1,30,0,0
42490,-66.6666666666667,4,2,1,30,0,0
42597,-133.333333333333,4,2,1,30,0,0
42704,-79.9999999999999,4,2,1,30,0,0
42812,-100,4,2,1,30,0,0
43240,428.571428571429,4,2,1,30,1,0
46454,428.571428571429,4,2,1,30,1,0
47525,428.571428571429,4,2,1,30,1,0
47525,-200,4,2,1,30,0,0
47632,-50,4,2,1,30,0,0
47685,-200,4,2,1,30,0,0
47792,-50,4,2,1,30,0,0
47846,-200,4,2,1,30,0,0
47900,-66.6666666666667,4,2,1,30,0,0
47953,-250,4,2,1,30,0,0
48114,-35.7142857142857,4,2,1,30,0,0
48167,428.571428571429,4,2,1,30,1,1
48167,-100,4,2,1,30,0,1
50952,-200,4,2,1,30,0,1
51059,-50,4,2,1,30,0,1
51112,-200,4,2,1,30,0,1
51219,-50,4,2,1,30,0,1
51273,-200,4,2,1,30,0,1
51327,-66.6666666666667,4,2,1,30,0,1
51381,-200,4,2,1,30,0,1
51435,-66.6666666666667,4,2,1,30,0,1
51488,-200,4,2,1,30,0,1
51542,-66.6666666666667,4,2,1,30,0,1
51595,-100,4,2,1,30,0,1
54381,-200,4,2,1,30,0,1
54488,-50,4,2,1,30,0,1
54541,-200,4,2,1,30,0,1
54648,-50,4,2,1,30,0,1
54702,-200,4,2,1,30,0,1
54756,-66.6666666666667,4,2,1,30,0,1
54810,-200,4,2,1,30,0,1
54864,-66.6666666666667,4,2,1,30,0,1
54917,-200,4,2,1,30,0,1
54970,-66.6666666666667,4,2,1,30,0,1
55024,-100,4,2,1,30,0,0
56738,-100,4,2,1,30,0,1
57809,-200,4,2,1,30,0,1
57916,-50,4,2,1,30,0,1
57969,-200,4,2,1,30,0,1
58076,-50,4,2,1,30,0,1
58130,-200,4,2,1,30,0,1
58184,-66.6666666666667,4,2,1,30,0,1
58238,-200,4,2,1,30,0,1
58292,-66.6666666666667,4,2,1,30,0,1
58345,-200,4,2,1,30,0,1
58399,-66.6666666666667,4,2,1,30,0,1
58452,-100,4,2,1,30,0,1
61238,-200,4,2,1,30,0,1
61345,-50,4,2,1,30,0,1
61398,-200,4,2,1,30,0,1
61505,-50,4,2,1,30,0,1
61559,-200,4,2,1,30,0,1
61613,-66.6666666666667,4,2,1,30,0,1
61667,-200,4,2,1,30,0,1
61721,-66.6666666666667,4,2,1,30,0,1
61774,-200,4,2,1,30,0,1
61828,-66.6666666666667,4,2,1,30,0,1
61881,-100,4,2,1,30,0,1
63381,428.571428571429,4,2,1,30,1,1
64881,428.571428571429,4,2,1,30,1,1
66595,-105.263157894737,4,2,1,30,0,1
66631,-95.2380952380952,4,2,1,30,0,1
66666.4347826087,-109.89010989011,4,2,1,30,0,1
66702.3913043478,-91.743119266055,4,2,1,30,0,1
66737.8695652174,-114.942528735632,4,2,1,30,0,1
66773.7826086956,-88.495575221239,4,2,1,30,0,1
66809.3043478261,-120.481927710843,4,2,1,30,0,1
66845.1739130435,-85.4700854700855,4,2,1,30,0,1
66880.7391304348,-126.582278481013,4,2,1,30,0,1
66916.5652173913,-82.6446280991736,4,2,1,30,0,1
66952.1739130435,-133.333333333333,4,2,1,30,0,1
66987.9565217391,-80,4,2,1,30,0,1
67023.6086956522,-138.888888888889,4,2,1,30,0,1
67059.347826087,-78.125,4,2,1,30,0,1
67095.0434782609,-147.058823529412,4,2,1,30,0,1
67130.7391304348,-75.7575757575758,4,2,1,30,0,1
67166.4782608696,-156.25,4,2,1,30,0,1
67202.1304347826,-73.5294117647059,4,2,1,30,0,1
67237.9130434783,-166.666666666667,4,2,1,30,0,1
67273.5217391304,-71.4285714285714,4,2,1,30,0,1
67309.347826087,-178.571428571429,4,2,1,30,0,1
67344.9130434783,-69.4444444444444,4,2,1,30,0,1
67380.7826086956,-192.307692307692,4,2,1,30,0,1
67416.3043478261,-67.5675675675676,4,2,1,30,0,1
67452.2173913044,-208.333333333333,4,2,1,30,0,1
67487.6956521739,-65.7894736842105,4,2,1,30,0,1
67523.652173913,-227.272727272727,4,2,1,30,0,1
67559.0869565217,-64.1025641025641,4,2,1,30,0,1
67595.0869565217,-250,4,2,1,30,0,1
67630.4782608696,-62.5,4,2,1,30,0,1
67666.5217391304,-277.777777777778,4,2,1,30,0,1
67701.8695652174,-60.9756097560976,4,2,1,30,0,1
67737.9565217391,-312.5,4,2,1,30,0,1
67773.2608695652,-59.5238095238095,4,2,1,30,0,1
67809.3913043478,-357.142857142857,4,2,1,30,0,1
67844.652173913,-58.1395348837209,4,2,1,30,0,1
67880.8260869565,-400,4,2,1,30,0,1
67916.0434782609,-57.1428571428571,4,2,1,30,0,1
67952.2608695652,-476.190476190476,4,2,1,30,0,1
67987.4347826087,-55.8659217877095,4,2,1,30,0,1
68023.6956521739,-588.235294117647,4,2,1,30,0,1
68058.8260869565,-54.6448087431694,4,2,1,30,0,1
68095.1304347826,-769.230769230769,4,2,1,30,0,1
68130.2173913044,-53.475935828877,4,2,1,30,0,1
68166.5652173913,-1111.11111111111,4,2,1,30,0,1
68201.6086956522,-52.3560209424084,4,2,1,30,0,1
68238,-2000,4,2,1,30,0,1
68273,-51.2820512820513,4,2,1,30,0,1
68309,-125,4,2,1,30,0,0
74309,-125,4,2,1,30,0,0
74416,-121.212121212121,4,2,1,30,0,0
74523,-117.647058823529,4,2,1,30,0,0
74631,-114.285714285714,4,2,1,30,0,0
74738,-111.111111111111,4,2,1,30,0,0
74845,-108.108108108108,4,2,1,30,0,0
74952,-105.263157894737,4,2,1,30,0,0
75059,-102.564102564103,4,2,1,30,0,0
75166,-100,4,2,1,30,0,0
80309,-111.111111111111,4,2,1,30,0,0
80381,-90.9090909090909,4,2,1,30,0,0
80452,-117.647058823529,4,2,1,30,0,0
80523,-86.9565217391304,4,2,1,30,0,0
80595,-125,4,2,1,30,0,0
80666,-83.3333333333333,4,2,1,30,0,0
80738,-133.333333333333,4,2,1,30,0,0
80809,-80,4,2,1,30,0,0
80881,-142.857142857143,4,2,1,30,0,0
80952,-76.9230769230769,4,2,1,30,0,0
81024,-153.846153846154,4,2,1,30,0,0
81095,-74.0740740740741,4,2,1,30,0,0
81167,-166.666666666667,4,2,1,30,0,0
81238,-71.4285714285714,4,2,1,30,0,0
81310,-181.818181818182,4,2,1,30,0,0
81381,-68.9655172413793,4,2,1,30,0,0
81453,-200,4,2,1,30,0,0
81523,-66.6666666666667,4,2,1,30,0,0
81595,-222.222222222222,4,2,1,30,0,0
81666,-64.5161290322581,4,2,1,30,0,0
81738,-250,4,2,1,30,0,0
81809,-62.5,4,2,1,30,0,0
81881,-285.714285714286,4,2,1,30,0,0
81952,-60.6060606060606,4,2,1,30,0,0
82023,-200,4,2,1,30,0,1
82095,-66.6666666666667,4,2,1,30,0,1
82166,-200,4,2,1,30,0,1
82238,-66.6666666666667,4,2,1,30,0,1
82309,-200,4,2,1,30,0,1
82381,-66.6666666666667,4,2,1,30,0,1
82452,-200,4,2,1,30,0,1
82524,-66.6666666666667,4,2,1,30,0,1
82595,-100,4,2,1,30,0,1
82881,-200,4,2,1,30,0,1
82953,-66.6666666666667,4,2,1,30,0,1
83023,-200,4,2,1,30,0,1
83095,-66.6666666666667,4,2,1,30,0,1
83166,-200,4,2,1,30,0,1
83238,-66.6666666666667,4,2,1,30,0,1
83309,-200,4,2,1,30,0,1
83381,-66.6666666666667,4,2,1,30,0,1
83452,-100,4,2,1,30,0,1
83738,-200,4,2,1,30,0,1
83810,-66.6666666666667,4,2,1,30,0,1
83880,-200,4,2,1,30,0,1
83952,-66.6666666666667,4,2,1,30,0,1
84023,-200,4,2,1,30,0,1
84095,-66.6666666666667,4,2,1,30,0,1
84166,-200,4,2,1,30,0,1
84238,-66.6666666666667,4,2,1,30,0,1
84309,-100,4,2,1,30,0,1
84595,-200,4,2,1,30,0,1
84667,-66.6666666666667,4,2,1,30,0,1
84737,-200,4,2,1,30,0,1
84809,-66.6666666666667,4,2,1,30,0,1
84880,-200,4,2,1,30,0,1
84952,-66.6666666666667,4,2,1,30,0,1
85023,-200,4,2,1,30,0,1
85095,-66.6666666666667,4,2,1,30,0,1
85166,-100,4,2,1,30,0,1
85452,-200,4,2,1,30,0,1
85524,-66.6666666666667,4,2,1,30,0,1
85594,-200,4,2,1,30,0,1
85666,-66.6666666666667,4,2,1,30,0,1
85737,-200,4,2,1,30,0,1
85809,-66.6666666666667,4,2,1,30,0,1
85880,-200,4,2,1,30,0,1
85952,-66.6666666666667,4,2,1,30,0,1
86023,-100,4,2,1,30,0,1
86309,-200,4,2,1,30,0,1
86381,-66.6666666666667,4,2,1,30,0,1
86451,-200,4,2,1,30,0,1
86523,-66.6666666666667,4,2,1,30,0,1
86594,-200,4,2,1,30,0,1
86666,-66.6666666666667,4,2,1,30,0,1
86737,-200,4,2,1,30,0,1
86809,-66.6666666666667,4,2,1,30,0,1
86880,-100,4,2,1,30,0,1
87166,-200,4,2,1,30,0,1
87238,-66.6666666666667,4,2,1,30,0,1
87308,-200,4,2,1,30,0,1
87380,-66.6666666666667,4,2,1,30,0,1
87451,-200,4,2,1,30,0,1
87523,-66.6666666666667,4,2,1,30,0,1
87594,-200,4,2,1,30,0,1
87666,-66.6666666666667,4,2,1,30,0,1
87737,-100,4,2,1,30,0,1
88023,-500,4,2,1,30,0,1
88095,-55.5555555555556,4,2,1,30,0,1
88166,-500,4,2,1,30,0,1
88238,-55.5555555555556,4,2,1,30,0,1
88309,-500,4,2,1,30,0,1
88381,-55.5555555555556,4,2,1,30,0,1
88452,-200,4,2,1,30,0,1
88488,-66.6666666666667,4,2,1,30,0,1
88523,-200,4,2,1,30,0,1
88559,-66.6666666666667,4,2,1,30,0,1
88595,-200,4,2,1,30,0,1
88631,-66.6666666666667,4,2,1,30,0,1
88666,-200,4,2,1,30,0,1
88702,-66.6666666666667,4,2,1,30,0,1
88738,-200,4,2,1,30,0,1
88774,-66.6666666666667,4,2,1,30,0,1
88809,-200,4,2,1,30,0,1
88845,-66.6666666666667,4,2,1,30,0,1
88881,-100,4,2,1,30,0,1
100881,-111.111111111111,4,2,1,30,0,1
100934,-90.9090909090909,4,2,1,30,0,1
100988,-100,4,2,1,30,0,1
101095,-125,4,2,1,30,0,1
101148,-83.3333333333333,4,2,1,30,0,1
101202,-100,4,2,1,30,0,1
101309,-142.857142857143,4,2,1,30,0,1
101362,-76.9230769230769,4,2,1,30,0,1
101416,-100,4,2,1,30,0,1
101523,-166.666666666667,4,2,1,30,0,1
101576,-71.4285714285714,4,2,1,30,0,1
101630,-100,4,2,1,30,0,1
101738,-200,4,2,1,30,0,1
101791,-66.6666666666667,4,2,1,30,0,1
101845,-222.222222222222,4,2,1,30,0,1
101898,-64.5161290322581,4,2,1,30,0,1
101952,-250,4,2,1,30,0,1
102005,-62.5,4,2,1,30,0,1
102059,-285.714285714286,4,2,1,30,0,1
102112,-60.6060606060606,4,2,1,30,0,1
102166,-333.333333333333,4,2,1,30,0,1
102219,-58.8235294117647,4,2,1,30,0,1
102273,-400,4,2,1,30,0,1
102326,-57.1428571428571,4,2,1,30,0,1
102381,-500,4,2,1,30,0,1
102434,-55.5555555555556,4,2,1,30,0,1
102488,-666.666666666667,4,2,1,30,0,1
102541,-54.054054054054,4,2,1,30,0,1
102595,-125,4,2,1,30,0,0

[HitObjects]
64,192,599,5,0,0:0:0:0:
192,192,653,1,0,0:0:0:0:
320,192,706,1,0,0:0:0:0:
448,192,760,1,0,0:0:0:0:
192,192,813,1,0,0:0:0:0:
320,192,867,1,0,0:0:0:0:
64,192,920,1,0,0:0:0:0:
192,192,974,1,0,0:0:0:0:
320,192,1028,1,0,0:0:0:0:
448,192,1028,1,0,0:0:0:0:
192,192,1081,1,0,0:0:0:0:
64,192,1135,1,0,0:0:0:0:
448,192,1188,1,0,0:0:0:0:
320,192,1242,1,0,0:0:0:0:
192,192,1295,1,0,0:0:0:0:
64,192,1349,1,0,0:0:0:0:
448,192,1403,1,0,0:0:0:0:
320,192,1456,1,0,0:0:0:0:
192,192,1456,1,0,0:0:0:0:
64,192,1456,1,0,0:0:0:0:
448,192,1563,1,0,0:0:0:0:
64,192,1670,1,0,0:0:0:0:
192,192,1670,1,0,0:0:0:0:
192,192,1778,1,0,0:0:0:0:
320,192,1885,1,0,0:0:0:0:
64,192,1885,1,0,0:0:0:0:
192,192,1992,1,0,0:0:0:0:
448,192,1992,1,0,0:0:0:0:
448,192,2099,1,0,0:0:0:0:
320,192,2313,1,0,0:0:0:0:
64,192,2313,1,0,0:0:0:0:
448,192,2420,1,0,0:0:0:0:
64,192,2528,1,0,0:0:0:0:
192,192,2528,1,0,0:0:0:0:
192,192,2635,1,0,0:0:0:0:
320,192,2742,1,0,0:0:0:0:
64,192,2742,1,0,0:0:0:0:
448,192,2849,1,0,0:0:0:0:
192,192,2849,1,0,0:0:0:0:
448,192,2956,1,0,0:0:0:0:
192,192,3063,1,0,0:0:0:0:
64,192,3170,1,0,0:0:0:0:
448,192,3170,1,0,0:0:0:0:
320,192,3278,1,0,0:0:0:0:
192,192,3385,1,0,0:0:0:0:
64,192,3385,1,0,0:0:0:0:
192,192,3492,1,0,0:0:0:0:
320,192,3599,1,0,0:0:0:0:
64,192,3599,1,0,0:0:0:0:
448,192,3706,1,0,0:0:0:0:
192,192,3706,1,0,0:0:0:0:
448,192,3813,1,0,0:0:0:0:
64,192,3920,1,0,0:0:0:0:
192,192,4028,1,0,0:0:0:0:
320,192,4028,1,0,0:0:0:0:
448,192,4135,1,0,0:0:0:0:
192,192,4242,1,0,0:0:0:0:
64,192,4242,1,0,0:0:0:0:
192,192,4349,1,0,0:0:0:0:
320,192,4456,1,0,0:0:0:0:
64,192,4456,1,0,0:0:0:0:
448,192,4563,1,0,0:0:0:0:
192,192,4563,1,0,0:0:0:0:
448,192,4670,1,0,0:0:0:0:
64,192,4778,1,0,0:0:0:0:
320,192,4885,1,0,0:0:0:0:
192,192,4885,1,0,0:0:0:0:
448,192,4992,1,0,0:0:0:0:
192,192,5099,1,0,0:0:0:0:
64,192,5099,1,0,0:0:0:0:
192,192,5206,1,0,0:0:0:0:
64,192,5313,1,0,0:0:0:0:
448,192,5313,1,0,0:0:0:0:
320,192,5420,5,0,0:0:0:0:
192,192,5420,1,0,0:0:0:0:
320,192,5528,1,0,0:0:0:0:
64,192,5635,1,0,0:0:0:0:
192,192,5742,1,0,0:0:0:0:
448,192,5742,1,0,0:0:0:0:
320,192,5849,1,0,0:0:0:0:
192,192,5956,1,0,0:0:0:0:
64,192,5956,1,0,0:0:0:0:
192,192,6063,1,0,0:0:0:0:
320,192,6170,1,0,0:0:0:0:
64,192,6170,1,0,0:0:0:0:
448,192,6278,1,0,0:0:0:0:
192,192,6278,1,0,0:0:0:0:
448,192,6385,1,0,0:0:0:0:
64,192,6492,1,0,0:0:0:0:
448,192,6599,5,0,0:0:0:0:
320,192,6599,1,0,0:0:0:0:
192,192,6599,1,0,0:0:0:0:
448,192,6706,1,0,0:0:0:0:
320,192,6706,1,0,0:0:0:0:
448,192,6920,1,0,0:0:0:0:
192,192,6920,1,0,0:0:0:0:
320,192,7028,1,0,0:0:0:0:
64,192,7028,1,0,0:0:0:0:
448,192,7242,1,0,0:0:0:0:
320,192,7242,1,0,0:0:0:0:
192,192,7242,1,0,0:0:0:0:
448,192,7349,1,0,0:0:0:0:
320,192,7349,1,0,0:0:0:0:
448,192,7563,1,0,0:0:0:0:
192,192,7563,1,0,0:0:0:0:
320,192,7670,1,0,0:0:0:0:
64,192,7670,1,0,0:0:0:0:
448,192,7778,1,0,0:0:0:0:
192,192,7778,1,0,0:0:0:0:
64,192,7778,1,0,0:0:0:0:
448,192,7885,1,0,0:0:0:0:
192,192,7885,1,0,0:0:0:0:
448,192,8099,1,0,0:0:0:0:
320,192,8099,1,0,0:0:0:0:
192,192,8206,1,0,0:0:0:0:
64,192,8206,1,0,0:0:0:0:
448,192,8420,1,0,0:0:0:0:
192,192,8420,1,0,0:0:0:0:
64,192,8420,1,0,0:0:0:0:
448,192,8528,1,0,0:0:0:0:
192,192,8528,1,0,0:0:0:0:
448,192,8635,1,0,0:0:0:0:
320,192,8635,1,0,0:0:0:0:
192,192,8742,1,0,0:0:0:0:
64,192,8742,1,0,0:0:0:0:
448,192,8849,1,0,0:0:0:0:
64,192,8849,1,0,0:0:0:0:
320,192,8849,1,0,0:0:0:0:
448,192,8956,1,0,0:0:0:0:
64,192,8956,1,0,0:0:0:0:
320,192,9170,1,0,0:0:0:0:
192,192,9170,1,0,0:0:0:0:
448,192,9278,1,0,0:0:0:0:
64,192,9278,1,0,0:0:0:0:
448,192,9492,1,0,0:0:0:0:
192,192,9492,1,0,0:0:0:0:
64,192,9492,1,0,0:0:0:0:
64,192,9599,1,0,0:0:0:0:
448,192,9599,1,0,0:0:0:0:
192,192,9813,1,0,0:0:0:0:
64,192,9813,1,0,0:0:0:0:
448,192,9813,1,0,0:0:0:0:
320,192,9920,1,0,0:0:0:0:
448,192,9920,1,0,0:0:0:0:
64,192,9920,1,0,0:0:0:0:
448,192,10028,1,0,0:0:0:0:
192,192,10028,1,0,0:0:0:0:
320,192,10028,1,0,0:0:0:0:
192,192,10242,1,0,0:0:0:0:
320,192,10242,1,0,0:0:0:0:
448,192,10456,1,0,0:0:0:0:
64,192,10456,1,0,0:0:0:0:
320,192,10456,1,0,0:0:0:0:
320,192,10563,1,0,0:0:0:0:
192,192,10563,1,0,0:0:0:0:
320,192,10778,1,0,0:0:0:0:
192,192,10778,1,0,0:0:0:0:
64,192,10885,1,0,0:0:0:0:
448,192,10885,1,0,0:0:0:0:
320,192,10885,1,0,0:0:0:0:
448,192,10992,1,0,0:0:0:0:
192,192,10992,1,0,0:0:0:0:
192,192,11313,1,0,0:0:0:0:
64,192,11313,1,0,0:0:0:0:
448,192,11313,1,0,0:0:0:0:
192,192,11420,1,0,0:0:0:0:
448,192,11528,1,0,0:0:0:0:
64,192,11528,1,0,0:0:0:0:
320,192,11528,1,0,0:0:0:0:
448,192,11742,1,0,0:0:0:0:
64,192,11742,1,0,0:0:0:0:
192,192,11956,1,0,0:0:0:0:
448,192,11956,1,0,0:0:0:0:
320,192,11956,1,0,0:0:0:0:
448,192,12063,1,0,0:0:0:0:
64,192,12063,1,0,0:0:0:0:
448,192,12278,1,0,0:0:0:0:
64,192,12278,1,0,0:0:0:0:
320,192,12385,1,0,0:0:0:0:
192,192,12385,1,0,0:0:0:0:
64,192,12385,1,0,0:0:0:0:
448,192,12492,1,0,0:0:0:0:
192,192,12492,1,0,0:0:0:0:
448,192,12599,1,0,0:0:0:0:
320,192,12599,1,0,0:0:0:0:
64,192,12599,1,0,0:0:0:0:
192,192,12813,1,0,0:0:0:0:
64,192,12813,1,0,0:0:0:0:
320,192,12813,1,0,0:0:0:0:
448,192,12920,1,0,0:0:0:0:
64,192,12920,1,0,0:0:0:0:
192,192,12920,1,0,0:0:0:0:
448,192,13028,1,0,0:0:0:0:
320,192,13028,1,0,0:0:0:0:
192,192,13028,1,0,0:0:0:0:
448,192,13349,1,0,0:0:0:0:
320,192,13670,1,0,0:0:0:0:
448,192,13885,1,0,0:0:0:0:
64,192,13992,1,0,0:0:0:0:
192,192,14099,1,0,0:0:0:0:
320,192,14206,1,0,0:0:0:0:
64,192,14313,1,0,0:0:0:0:
448,192,14420,1,0,0:0:0:0:
192,192,14528,1,0,0:0:0:0:
320,192,14635,1,0,0:0:0:0:
448,192,14742,1,0,0:0:0:0:
64,192,14742,1,0,0:0:0:0:
192,192,14742,1,0,0:0:0:0:
448,192,14849,1,0,0:0:0:0:
192,192,14956,1,0,0:0:0:0:
64,192,15063,1,0,0:0:0:0:
448,192,15063,1,0,0:0:0:0:
320,192,15063,1,0,0:0:0:0:
64,192,15170,1,0,0:0:0:0:
448,192,15277,1,0,0:0:0:0:
192,192,15384,1,0,0:0:0:0:
64,192,15384,1,0,0:0:0:0:
320,192,15384,1,0,0:0:0:0:
64,192,15492,1,0,0:0:0:0:
320,192,15599,1,0,0:0:0:0:
448,192,15599,1,0,0:0:0:0:
192,192,15599,1,0,0:0:0:0:
448,192,15706,1,0,0:0:0:0:
192,192,15813,1,0,0:0:0:0:
64,192,15813,1,0,0:0:0:0:
320,192,15920,1,0,0:0:0:0:
448,192,16027,1,0,0:0:0:0:
64,192,16134,1,0,0:0:0:0:
192,192,16242,1,0,0:0:0:0:
448,192,16242,1,0,0:0:0:0:
320,192,16242,1,0,0:0:0:0:
64,192,16349,1,0,0:0:0:0:
448,192,16349,1,0,0:0:0:0:
192,192,16349,1,0,0:0:0:0:
320,192,16456,1,0,0:0:0:0:
192,192,16456,1,0,0:0:0:0:
64,192,16456,1,0,0:0:0:0:
448,192,16563,1,0,0:0:0:0:
64,192,16670,1,0,0:0:0:0:
192,192,16670,1,0,0:0:0:0:
320,192,16777,1,0,0:0:0:0:
448,192,16884,1,0,0:0:0:0:
192,192,16884,1,0,0:0:0:0:
64,192,16884,1,0,0:0:0:0:
448,192,16992,1,0,0:0:0:0:
192,192,17099,1,0,0:0:0:0:
64,192,17099,1,0,0:0:0:0:
448,192,17206,1,0,0:0:0:0:
320,192,17313,1,0,0:0:0:0:
192,192,17313,1,0,0:0:0:0:
64,192,17313,1,0,0:0:0:0:
64,192,17420,1,0,0:0:0:0:
448,192,17527,1,0,0:0:0:0:
320,192,17527,1,0,0:0:0:0:
64,192,17634,1,0,0:0:0:0:
448,192,17742,1,0,0:0:0:0:
320,192,17742,1,0,0:0:0:0:
192,192,17742,1,0,0:0:0:0:
448,192,17849,1,0,0:0:0:0:
64,192,17956,1,0,0:0:0:0:
192,192,17956,1,0,0:0:0:0:
320,192,18063,1,0,0:0:0:0:
448,192,18063,1,0,0:0:0:0:
64,192,18063,1,0,0:0:0:0:
320,192,18170,1,0,0:0:0:0:
192,192,18170,1,0,0:0:0:0:
64,192,18277,1,0,0:0:0:0:
448,192,18384,1,0,0:0:0:0:
192,192,18384,1,0,0:0:0:0:
320,192,18384,1,0,0:0:0:0:
320,192,18492,1,0,0:0:0:0:
64,192,18492,1,0,0:0:0:0:
192,192,18492,1,0,0:0:0:0:
448,192,18599,1,0,0:0:0:0:
320,192,18599,1,0,0:0:0:0:
64,192,18599,1,0,0:0:0:0:
448,192,18706,1,0,0:0:0:0:
320,192,18813,1,0,0:0:0:0:
192,192,18920,1,0,0:0:0:0:
64,192,19027,1,0,0:0:0:0:
320,192,19027,1,0,0:0:0:0:
448,192,19027,1,0,0:0:0:0:
192,192,19134,1,0,0:0:0:0:
448,192,19241,1,0,0:0:0:0:
320,192,19349,1,0,0:0:0:0:
192,192,19456,1,0,0:0:0:0:
64,192,19456,1,0,0:0:0:0:
448,192,19456,1,0,0:0:0:0:
192,192,19563,1,0,0:0:0:0:
64,192,19670,1,0,0:0:0:0:
320,192,19777,1,0,0:0:0:0:
448,192,19884,1,0,0:0:0:0:
192,192,19884,1,0,0:0:0:0:
64,192,19884,1,0,0:0:0:0:
448,192,19991,1,0,0:0:0:0:
320,192,20099,1,0,0:0:0:0:
192,192,20206,1,0,0:0:0:0:
64,192,20313,1,0,0:0:0:0:
320,192,20313,1,0,0:0:0:0:
448,192,20313,1,0,0:0:0:0:
192,192,20420,1,0,0:0:0:0:
448,192,20527,1,0,0:0:0:0:
192,192,20634,1,0,0:0:0:0:
64,192,20741,1,0,0:0:0:0:
448,192,20741,1,0,0:0:0:0:
320,192,20741,1,0,0:0:0:0:
320,192,20849,1,0,0:0:0:0:
192,192,20956,1,0,0:0:0:0:
64,192,21063,1,0,0:0:0:0:
448,192,21170,1,0,0:0:0:0:
320,192,21170,1,0,0:0:0:0:
192,192,21170,1,0,0:0:0:0:
448,192,21277,1,0,0:0:0:0:
320,192,21384,1,0,0:0:0:0:
192,192,21491,1,0,0:0:0:0:
64,192,21599,1,0,0:0:0:0:
320,192,21599,1,0,0:0:0:0:
448,192,21599,1,0,0:0:0:0:
192,192,21706,1,0,0:0:0:0:
448,192,21813,1,0,0:0:0:0:
320,192,21920,1,0,0:0:0:0:
64,192,22027,1,0,0:0:0:0:
192,192,22027,1,0,0:0:0:0:
448,192,22027,1,0,0:0:0:0:
192,192,22134,1,0,0:0:0:0:
64,192,22241,1,0,0:0:0:0:
320,192,22349,1,0,0:0:0:0:
448,192,22456,1,0,0:0:0:0:
192,192,22456,1,0,0:0:0:0:
64,192,22456,1,0,0:0:0:0:
448,192,22563,1,0,0:0:0:0:
320,192,22670,1,0,0:0:0:0:
192,192,22777,1,0,0:0:0:0:
64,192,22884,1,0,0:0:0:0:
320,192,22884,1,0,0:0:0:0:
448,192,22884,1,0,0:0:0:0:
192,192,22991,1,0,0:0:0:0:
448,192,23099,1,0,0:0:0:0:
320,192,23206,1,0,0:0:0:0:
192,192,23313,1,0,0:0:0:0:
64,192,23313,1,0,0:0:0:0:
448,192,23313,1,0,0:0:0:0:
192,192,23420,1,0,0:0:0:0:
64,192,23527,1,0,0:0:0:0:
320,192,23634,1,0,0:0:0:0:
448,192,23741,1,0,0:0:0:0:
192,192,23741,1,0,0:0:0:0:
64,192,23741,1,0,0:0:0:0:
448,192,23848,1,0,0:0:0:0:
320,192,23955,1,0,0:0:0:0:
192,192,24063,1,0,0:0:0:0:
64,192,24170,1,0,0:0:0:0:
320,192,24170,1,0,0:0:0:0:
448,192,24170,1,0,0:0:0:0:
192,192,24277,1,0,0:0:0:0:
448,192,24384,1,0,0:0:0:0:
320,192,24491,1,0,0:0:0:0:
192,192,24598,1,0,0:0:0:0:
64,192,24598,1,0,0:0:0:0:
448,192,24598,1,0,0:0:0:0:
192,192,24705,1,0,0:0:0:0:
64,192,24813,1,0,0:0:0:0:
320,192,24813,1,0,0:0:0:0:
448,192,24813,1,0,0:0:0:0:
320,192,24920,1,0,0:0:0:0:
448,192,25027,1,0,0:0:0:0:
192,192,25027,1,0,0:0:0:0:
64,192,25027,1,0,0:0:0:0:
448,192,25241,1,0,0:0:0:0:
192,192,25241,1,0,0:0:0:0:
64,192,25241,1,0,0:0:0:0:
448,192,25563,1,0,0:0:0:0:
192,192,25563,1,0,0:0:0:0:
64,192,25563,1,0,0:0:0:0:
448,192,25777,1,0,0:0:0:0:
192,192,25777,1,0,0:0:0:0:
64,192,25777,1,0,0:0:0:0:
320,192,25991,1,0,0:0:0:0:
192,192,25991,1,0,0:0:0:0:
64,192,25991,1,0,0:0:0:0:
320,192,26313,1,0,0:0:0:0:
192,192,26313,1,0,0:0:0:0:
64,192,26313,1,0,0:0:0:0:
320,192,26527,1,0,0:0:0:0:
192,192,26527,1,0,0:0:0:0:
64,192,26527,1,0,0:0:0:0:
448,192,26634,1,0,0:0:0:0:
320,192,26634,1,0,0:0:0:0:
192,192,26634,1,0,0:0:0:0:
448,192,26741,1,0,0:0:0:0:
64,192,26741,1,0,0:0:0:0:
320,192,26741,1,0,0:0:0:0:
448,192,26955,1,0,0:0:0:0:
320,192,26955,1,0,0:0:0:0:
64,192,26955,1,0,0:0:0:0:
448,192,27277,1,0,0:0:0:0:
320,192,27277,1,0,0:0:0:0:
64,192,27277,1,0,0:0:0:0:
448,192,27491,1,0,0:0:0:0:
320,192,27491,1,0,0:0:0:0:
64,192,27491,1,0,0:0:0:0:
448,192,27813,1,0,0:0:0:0:
192,192,27813,1,0,0:0:0:0:
64,192,27813,1,0,0:0:0:0:
448,192,28027,1,0,0:0:0:0:
192,192,28027,1,0,0:0:0:0:
64,192,28027,1,0,0:0:0:0:
448,192,28134,1,0,0:0:0:0:
320,192,28134,1,0,0:0:0:0:
192,192,28241,1,0,0:0:0:0:
64,192,28241,1,0,0:0:0:0:
320,192,28241,1,0,0:0:0:0:
448,192,28348,1,0,0:0:0:0:
192,192,28348,1,0,0:0:0:0:
64,192,28348,1,0,0:0:0:0:
448,192,28455,1,0,0:0:0:0:
320,192,28455,1,0,0:0:0:0:
192,192,28562,1,0,0:0:0:0:
64,192,28669,1,0,0:0:0:0:
320,192,28669,1,0,0:0:0:0:
448,192,28669,1,0,0:0:0:0:
64,192,28776,1,0,0:0:0:0:
448,192,28883,1,0,0:0:0:0:
320,192,28883,1,0,0:0:0:0:
192,192,28990,1,0,0:0:0:0:
448,192,29097,1,0,0:0:0:0:
320,192,29205,1,0,0:0:0:0:
192,192,29205,1,0,0:0:0:0:
64,192,29205,1,0,0:0:0:0:
448,192,29312,1,0,0:0:0:0:
320,192,29312,1,0,0:0:0:0:
64,192,29312,1,0,0:0:0:0:
192,192,29419,1,0,0:0:0:0:
320,192,29526,1,0,0:0:0:0:
448,192,29526,1,0,0:0:0:0:
64,192,29633,1,0,0:0:0:0:
320,192,29740,1,0,0:0:0:0:
192,192,29847,1,0,0:0:0:0:
64,192,29955,1,0,0:0:0:0:
192,192,30008,1,0,0:0:0:0:
448,192,30062,1,0,0:0:0:0:
320,192,30115,1,0,0:0:0:0:
192,192,30169,1,0,0:0:0:0:
64,192,30169,1,0,0:0:0:0:
448,192,30169,1,0,0:0:0:0:
320,192,30276,1,0,0:0:0:0:
192,192,30383,1,0,0:0:0:0:
64,192,30383,1,0,0:0:0:0:
448,192,30383,1,0,0:0:0:0:
448,192,30490,1,0,0:0:0:0:
64,192,30597,1,0,0:0:0:0:
320,192,30597,1,0,0:0:0:0:
192,192,30705,1,0,0:0:0:0:
448,192,30812,1,0,0:0:0:0:
64,192,30919,1,0,0:0:0:0:
320,192,30919,1,0,0:0:0:0:
192,192,30919,1,0,0:0:0:0:
448,192,31026,1,0,0:0:0:0:
320,192,31026,1,0,0:0:0:0:
192,192,31026,1,0,0:0:0:0:
64,192,31133,1,0,0:0:0:0:
448,192,31240,1,0,0:0:0:0:
320,192,31240,1,0,0:0:0:0:
192,192,31240,1,0,0:0:0:0:
320,192,31347,1,0,0:0:0:0:
192,192,31347,1,0,0:0:0:0:
64,192,31347,1,0,0:0:0:0:
448,192,31455,1,0,0:0:0:0:
192,192,31455,1,0,0:0:0:0:
64,192,31455,1,0,0:0:0:0:
320,192,31562,1,0,0:0:0:0:
448,192,31669,1,0,0:0:0:0:
192,192,31669,1,0,0:0:0:0:
64,192,31669,1,0,0:0:0:0:
448,192,31776,1,0,0:0:0:0:
64,192,31883,1,0,0:0:0:0:
192,192,31883,1,0,0:0:0:0:
320,192,31990,1,0,0:0:0:0:
448,192,32097,1,0,0:0:0:0:
192,192,32205,1,0,0:0:0:0:
64,192,32205,1,0,0:0:0:0:
320,192,32205,1,0,0:0:0:0:
448,192,32312,1,0,0:0:0:0:
192,192,32312,1,0,0:0:0:0:
64,192,32312,1,0,0:0:0:0:
320,192,32419,1,0,0:0:0:0:
448,192,32526,1,0,0:0:0:0:
64,192,32526,1,0,0:0:0:0:
192,192,32633,1,0,0:0:0:0:
320,192,32740,1,0,0:0:0:0:
192,192,32847,1,0,0:0:0:0:
448,192,32955,1,0,0:0:0:0:
320,192,33008,1,0,0:0:0:0:
64,192,33062,1,0,0:0:0:0:
192,192,33115,1,0,0:0:0:0:
320,192,33169,1,0,0:0:0:0:
448,192,33169,1,0,0:0:0:0:
64,192,33169,1,0,0:0:0:0:
192,192,33276,1,0,0:0:0:0:
64,192,33383,1,0,0:0:0:0:
448,192,33383,1,0,0:0:0:0:
320,192,33383,1,0,0:0:0:0:
320,192,33490,1,0,0:0:0:0:
448,192,33597,1,0,0:0:0:0:
192,192,33597,1,0,0:0:0:0:
64,192,33705,1,0,0:0:0:0:
320,192,33812,1,0,0:0:0:0:
448,192,33919,1,0,0:0:0:0:
192,192,33919,1,0,0:0:0:0:
64,192,33919,1,0,0:0:0:0:
448,192,34026,1,0,0:0:0:0:
320,192,34026,1,0,0:0:0:0:
192,192,34026,1,0,0:0:0:0:
64,192,34133,1,0,0:0:0:0:
448,192,34240,1,0,0:0:0:0:
320,192,34240,1,0,0:0:0:0:
192,192,34240,1,0,0:0:0:0:
448,192,34347,1,0,0:0:0:0:
192,192,34347,1,0,0:0:0:0:
64,192,34347,1,0,0:0:0:0:
320,192,34455,1,0,0:0:0:0:
192,192,34455,1,0,0:0:0:0:
64,192,34455,1,0,0:0:0:0:
448,192,34562,1,0,0:0:0:0:
320,192,34669,1,0,0:0:0:0:
192,192,34776,1,0,0:0:0:0:
64,192,34883,1,0,0:0:0:0:
320,192,34883,1,0,0:0:0:0:
448,192,34883,1,0,0:0:0:0:
64,192,34990,1,0,0:0:0:0:
320,192,35097,1,0,0:0:0:0:
448,192,35205,1,0,0:0:0:0:
64,192,35205,1,0,0:0:0:0:
192,192,35205,1,0,0:0:0:0:
320,192,35526,1,0,0:0:0:0:
192,192,35526,1,0,0:0:0:0:
64,192,35526,1,0,0:0:0:0:
448,192,35740,1,0,0:0:0:0:
192,192,35740,1,0,0:0:0:0:
64,192,35740,1,0,0:0:0:0:
320,192,35955,1,0,0:0:0:0:
192,192,35955,1,0,0:0:0:0:
64,192,35955,1,0,0:0:0:0:
320,192,36062,1,0,0:0:0:0:
192,192,36169,1,0,0:0:0:0:
64,192,36276,1,0,0:0:0:0:
448,192,36383,1,0,0:0:0:0:
320,192,36383,1,0,0:0:0:0:
192,192,36383,1,0,0:0:0:0:
448,192,36490,1,0,0:0:0:0:
192,192,36597,1,0,0:0:0:0:
64,192,36705,1,0,0:0:0:0:
320,192,36705,1,0,0:0:0:0:
448,192,36705,1,0,0:0:0:0:
320,192,37026,1,0,0:0:0:0:
448,192,37026,1,0,0:0:0:0:
64,192,37026,1,0,0:0:0:0:
192,192,37240,1,0,0:0:0:0:
448,192,37240,1,0,0:0:0:0:
64,192,37240,1,0,0:0:0:0:
448,192,37455,1,0,0:0:0:0:
320,192,37455,1,0,0:0:0:0:
192,192,37455,1,0,0:0:0:0:
448,192,37562,1,0,0:0:0:0:
64,192,37669,1,0,0:0:0:0:
320,192,37776,1,0,0:0:0:0:
192,192,37883,1,0,0:0:0:0:
64,192,37883,1,0,0:0:0:0:
448,192,37883,1,0,0:0:0:0:
64,192,37990,1,0,0:0:0:0:
320,192,38097,1,0,0:0:0:0:
192,192,38205,1,0,0:0:0:0:
64,192,38205,1,0,0:0:0:0:
448,192,38205,1,0,0:0:0:0:
192,192,38526,1,0,0:0:0:0:
64,192,38526,1,0,0:0:0:0:
448,192,38526,1,0,0:0:0:0:
192,192,38633,1,0,0:0:0:0:
448,192,38740,1,0,0:0:0:0:
64,192,38740,1,0,0:0:0:0:
320,192,38740,1,0,0:0:0:0:
448,192,38847,1,0,0:0:0:0:
192,192,38955,1,0,0:0:0:0:
320,192,38955,1,0,0:0:0:0:
64,192,38955,1,0,0:0:0:0:
320,192,39062,1,0,0:0:0:0:
192,192,39169,1,0,0:0:0:0:
64,192,39276,1,0,0:0:0:0:
448,192,39383,1,0,0:0:0:0:
320,192,39383,1,0,0:0:0:0:
192,192,39383,1,0,0:0:0:0:
192,192,39490,1,0,0:0:0:0:
448,192,39597,1,0,0:0:0:0:
320,192,39705,1,0,0:0:0:0:
192,192,39705,1,0,0:0:0:0:
64,192,39705,1,0,0:0:0:0:
320,192,40026,1,0,0:0:0:0:
192,192,40026,1,0,0:0:0:0:
64,192,40026,1,0,0:0:0:0:
448,192,40080,1,0,0:0:0:0:
320,192,40133,1,0,0:0:0:0:
64,192,40240,1,0,0:0:0:0:
192,192,40240,1,0,0:0:0:0:
448,192,40240,1,0,0:0:0:0:
64,192,40347,1,0,0:0:0:0:
320,192,40455,1,0,0:0:0:0:
192,192,40562,1,0,0:0:0:0:
64,192,40669,1,0,0:0:0:0:
320,192,40669,1,0,0:0:0:0:
448,192,40669,1,0,0:0:0:0:
64,192,40883,1,0,0:0:0:0:
448,192,40883,1,0,0:0:0:0:
320,192,41097,1,0,0:0:0:0:
192,192,41097,1,0,0:0:0:0:
64,192,41097,1,0,0:0:0:0:
192,192,41312,1,0,0:0:0:0:
64,192,41312,1,0,0:0:0:0:
448,192,41526,1,0,0:0:0:0:
320,192,41526,1,0,0:0:0:0:
192,192,41526,1,0,0:0:0:0:
448,192,41740,1,0,0:0:0:0:
320,192,41740,1,0,0:0:0:0:
192,192,41955,1,0,0:0:0:0:
64,192,41955,1,0,0:0:0:0:
448,192,41955,1,0,0:0:0:0:
448,192,42169,1,0,0:0:0:0:
192,192,42169,1,0,0:0:0:0:
64,192,42169,1,0,0:0:0:0:
192,192,42276,1,0,0:0:0:0:
64,192,42276,1,0,0:0:0:0:
320,192,42383,1,0,0:0:0:0:
448,192,42383,1,0,0:0:0:0:
64,192,42383,1,0,0:0:0:0:
448,192,42597,1,0,0:0:0:0:
64,192,42597,1,0,0:0:0:0:
320,192,42812,1,0,0:0:0:0:
192,192,42812,1,0,0:0:0:0:
64,192,42812,1,0,0:0:0:0:
448,192,43240,1,0,0:0:0:0:
320,192,43240,1,0,0:0:0:0:
64,192,43240,1,0,0:0:0:0:
448,192,43454,1,0,0:0:0:0:
192,192,43561,1,0,0:0:0:0:
320,192,43775,1,0,0:0:0:0:
64,192,43882,1,0,0:0:0:0:
448,192,43990,1,0,0:0:0:0:
192,192,44097,1,0,0:0:0:0:
320,192,44311,1,0,0:0:0:0:
64,192,44418,1,0,0:0:0:0:
320,192,44525,1,0,0:0:0:0:
448,192,44632,1,0,0:0:0:0:
192,192,44740,1,0,0:0:0:0:
448,192,44847,1,0,0:0:0:0:
320,192,44847,1,0,0:0:0:0:
64,192,44954,1,0,0:0:0:0:
320,192,45061,1,0,0:0:0:0:
448,192,45168,1,0,0:0:0:0:
64,192,45275,1,0,0:0:0:0:
320,192,45382,1,0,0:0:0:0:
448,192,45454,1,0,0:0:0:0:
192,192,45525,1,0,0:0:0:0:
64,192,45597,1,0,0:0:0:0:
448,192,45668,1,0,0:0:0:0:
320,192,45740,1,0,0:0:0:0:
192,192,45811,1,0,0:0:0:0:
448,192,45882,1,0,0:0:0:0:
320,192,45954,1,0,0:0:0:0:
64,192,46025,1,0,0:0:0:0:
192,192,46097,1,0,0:0:0:0:
320,192,46168,1,0,0:0:0:0:
448,192,46240,1,0,0:0:0:0:
320,192,46311,1,0,0:0:0:0:
192,192,46382,1,0,0:0:0:0:
64,192,46454,1,0,0:0:0:0:
320,192,46561,1,0,0:0:0:0:
64,192,46668,1,0,0:0:0:0:
320,192,46882,1,0,0:0:0:0:
64,192,46989,1,0,0:0:0:0:
320,192,47204,1,0,0:0:0:0:
64,192,47311,1,0,0:0:0:0:
320,192,47525,1,0,0:0:0:0:
192,192,47525,1,0,0:0:0:0:
64,192,47525,1,0,0:0:0:0:
448,192,47685,1,0,0:0:0:0:
64,192,47685,1,0,0:0:0:0:
192,192,47685,1,0,0:0:0:0:
448,192,47846,1,0,0:0:0:0:
320,192,47846,1,0,0:0:0:0:
64,192,47846,1,0,0:0:0:0:
448,192,47953,1,0,0:0:0:0:
320,192,47953,1,0,0:0:0:0:
192,192,47953,1,0,0:0:0:0:
448,192,48167,1,0,0:0:0:0:
192,192,48167,1,0,0:0:0:0:
64,192,48167,1,0,0:0:0:0:
192,192,48274,1,0,0:0:0:0:
320,192,48381,1,0,0:0:0:0:
64,192,48488,1,0,0:0:0:0:
192,192,48595,1,0,0:0:0:0:
320,192,48595,1,0,0:0:0:0:
448,192,48595,1,0,0:0:0:0:
192,192,48702,1,0,0:0:0:0:
448,192,48809,1,0,0:0:0:0:
320,192,48917,1,0,0:0:0:0:
448,192,49024,1,0,0:0:0:0:
192,192,49024,1,0,0:0:0:0:
64,192,49024,1,0,0:0:0:0:
320,192,49131,1,0,0:0:0:0:
64,192,49238,1,0,0:0:0:0:
192,192,49345,1,0,0:0:0:0:
448,192,49452,1,0,0:0:0:0:
320,192,49452,1,0,0:0:0:0:
64,192,49452,1,0,0:0:0:0:
320,192,49559,1,0,0:0:0:0:
192,192,49667,1,0,0:0:0:0:
64,192,49774,1,0,0:0:0:0:
192,192,49881,1,0,0:0:0:0:
320,192,49881,1,0,0:0:0:0:
448,192,49881,1,0,0:0:0:0:
64,192,49988,1,0,0:0:0:0:
192,192,50095,1,0,0:0:0:0:
448,192,50202,1,0,0:0:0:0:
320,192,50309,1,0,0:0:0:0:
192,192,50309,1,0,0:0:0:0:
64,192,50309,1,0,0:0:0:0:
64,192,50417,1,0,0:0:0:0:
320,192,50524,1,0,0:0:0:0:
192,192,50631,1,0,0:0:0:0:
64,192,50738,1,0,0:0:0:0:
320,192,50738,1,0,0:0:0:0:
448,192,50738,1,0,0:0:0:0:
320,192,50845,1,0,0:0:0:0:
192,192,50952,1,0,0:0:0:0:
64,192,50952,1,0,0:0:0:0:
448,192,50952,1,0,0:0:0:0:
448,192,51113,1,0,0:0:0:0:
320,192,51113,1,0,0:0:0:0:
64,192,51113,1,0,0:0:0:0:
320,192,51274,1,0,0:0:0:0:
192,192,51274,1,0,0:0:0:0:
64,192,51274,1,0,0:0:0:0:
448,192,51381,1,0,0:0:0:0:
320,192,51381,1,0,0:0:0:0:
192,192,51381,1,0,0:0:0:0:
448,192,51488,1,0,0:0:0:0:
320,192,51488,1,0,0:0:0:0:
192,192,51488,1,0,0:0:0:0:
448,192,51595,1,0,0:0:0:0:
64,192,51595,1,0,0:0:0:0:
192,192,51595,1,0,0:0:0:0:
64,192,51702,1,0,0:0:0:0:
320,192,51809,1,0,0:0:0:0:
448,192,51917,1,0,0:0:0:0:
192,192,52024,1,0,0:0:0:0:
64,192,52024,1,0,0:0:0:0:
320,192,52024,1,0,0:0:0:0:
64,192,52131,1,0,0:0:0:0:
448,192,52238,1,0,0:0:0:0:
192,192,52345,1,0,0:0:0:0:
320,192,52452,1,0,0:0:0:0:
64,192,52452,1,0,0:0:0:0:
448,192,52452,1,0,0:0:0:0:
192,192,52559,1,0,0:0:0:0:
320,192,52667,1,0,0:0:0:0:
448,192,52774,1,0,0:0:0:0:
320,192,52881,1,0,0:0:0:0:
192,192,52881,1,0,0:0:0:0:
64,192,52881,1,0,0:0:0:0:
320,192,52988,1,0,0:0:0:0:
192,192,53095,1,0,0:0:0:0:
64,192,53202,1,0,0:0:0:0:
448,192,53309,1,0,0:0:0:0:
320,192,53309,1,0,0:0:0:0:
192,192,53309,1,0,0:0:0:0:
64,192,53417,1,0,0:0:0:0:
192,192,53524,1,0,0:0:0:0:
320,192,53631,1,0,0:0:0:0:
448,192,53738,1,0,0:0:0:0:
192,192,53738,1,0,0:0:0:0:
64,192,53738,1,0,0:0:0:0:
192,192,53845,1,0,0:0:0:0:
320,192,53952,1,0,0:0:0:0:
448,192,54059,1,0,0:0:0:0:
64,192,54167,1,0,0:0:0:0:
320,192,54167,1,0,0:0:0:0:
192,192,54167,1,0,0:0:0:0:
320,192,54274,1,0,0:0:0:0:
192,192,54381,1,0,0:0:0:0:
64,192,54381,1,0,0:0:0:0:
448,192,54381,1,0,0:0:0:0:
448,192,54542,1,0,0:0:0:0:
320,192,54542,1,0,0:0:0:0:
64,192,54542,1,0,0:0:0:0:
320,192,54702,1,0,0:0:0:0:
192,192,54702,1,0,0:0:0:0:
64,192,54702,1,0,0:0:0:0:
448,192,54809,1,0,0:0:0:0:
320,192,54809,1,0,0:0:0:0:
192,192,54809,1,0,0:0:0:0:
448,192,54917,1,0,0:0:0:0:
192,192,54917,1,0,0:0:0:0:
320,192,54917,1,0,0:0:0:0:
64,192,55024,1,0,0:0:0:0:
192,192,55131,1,0,0:0:0:0:
320,192,55238,1,0,0:0:0:0:
448,192,55345,1,0,0:0:0:0:
192,192,55452,1,0,0:0:0:0:
320,192,55452,1,0,0:0:0:0:
64,192,55559,1,0,0:0:0:0:
448,192,55667,1,0,0:0:0:0:
320,192,55774,1,0,0:0:0:0:
64,192,55881,1,0,0:0:0:0:
192,192,55988,1,0,0:0:0:0:
64,192,56095,1,0,0:0:0:0:
320,192,56202,1,0,0:0:0:0:
64,192,56309,1,0,0:0:0:0:
448,192,56309,1,0,0:0:0:0:
320,192,56417,1,0,0:0:0:0:
192,192,56524,1,0,0:0:0:0:
448,192,56631,1,0,0:0:0:0:
320,192,56738,1,0,0:0:0:0:
192,192,56738,1,0,0:0:0:0:
64,192,56738,1,0,0:0:0:0:
320,192,56845,1,0,0:0:0:0:
64,192,56952,1,0,0:0:0:0:
192,192,57059,1,0,0:0:0:0:
320,192,57167,1,0,0:0:0:0:
448,192,57167,1,0,0:0:0:0:
64,192,57167,1,0,0:0:0:0:
64,192,57274,1,0,0:0:0:0:
320,192,57381,1,0,0:0:0:0:
448,192,57488,1,0,0:0:0:0:
320,192,57595,1,0,0:0:0:0:
192,192,57595,1,0,0:0:0:0:
64,192,57595,1,0,0:0:0:0:
192,192,57702,1,0,0:0:0:0:
64,192,57809,1,0,0:0:0:0:
448,192,57809,1,0,0:0:0:0:
320,192,57809,1,0,0:0:0:0:
448,192,57970,1,0,0:0:0:0:
320,192,57970,1,0,0:0:0:0:
192,192,57970,1,0,0:0:0:0:
192,192,58131,1,0,0:0:0:0:
64,192,58131,1,0,0:0:0:0:
448,192,58131,1,0,0:0:0:0:
448,192,58238,1,0,0:0:0:0:
320,192,58238,1,0,0:0:0:0:
64,192,58238,1,0,0:0:0:0:
448,192,58345,1,0,0:0:0:0:
320,192,58345,1,0,0:0:0:0:
64,192,58345,1,0,0:0:0:0:
320,192,58452,1,0,0:0:0:0:
192,192,58452,1,0,0:0:0:0:
64,192,58452,1,0,0:0:0:0:
192,192,58559,1,0,0:0:0:0:
320,192,58667,1,0,0:0:0:0:
64,192,58774,1,0,0:0:0:0:
192,192,58881,1,0,0:0:0:0:
320,192,58881,1,0,0:0:0:0:
448,192,58881,1,0,0:0:0:0:
192,192,58988,1,0,0:0:0:0:
448,192,59095,1,0,0:0:0:0:
320,192,59202,1,0,0:0:0:0:
192,192,59309,1,0,0:0:0:0:
64,192,59309,1,0,0:0:0:0:
448,192,59309,1,0,0:0:0:0:
320,192,59417,1,0,0:0:0:0:
64,192,59524,1,0,0:0:0:0:
192,192,59631,1,0,0:0:0:0:
320,192,59738,1,0,0:0:0:0:
64,192,59738,1,0,0:0:0:0:
448,192,59738,1,0,0:0:0:0:
320,192,59845,1,0,0:0:0:0:
192,192,59952,1,0,0:0:0:0:
64,192,60059,1,0,0:0:0:0:
448,192,60167,1,0,0:0:0:0:
320,192,60167,1,0,0:0:0:0:
192,192,60167,1,0,0:0:0:0:
64,192,60274,1,0,0:0:0:0:
320,192,60381,1,0,0:0:0:0:
448,192,60488,1,0,0:0:0:0:
320,192,60595,1,0,0:0:0:0:
64,192,60595,1,0,0:0:0:0:
192,192,60595,1,0,0:0:0:0:
64,192,60702,1,0,0:0:0:0:
448,192,60809,1,0,0:0:0:0:
192,192,60917,1,0,0:0:0:0:
320,192,61024,1,0,0:0:0:0:
64,192,61024,1,0,0:0:0:0:
448,192,61024,1,0,0:0:0:0:
64,192,61131,1,0,0:0:0:0:
192,192,61238,1,0,0:0:0:0:
448,192,61238,1,0,0:0:0:0:
320,192,61238,1,0,0:0:0:0:
448,192,61399,1,0,0:0:0:0:
192,192,61399,1,0,0:0:0:0:
64,192,61399,1,0,0:0:0:0:
320,192,61559,1,0,0:0:0:0:
192,192,61559,1,0,0:0:0:0:
64,192,61559,1,0,0:0:0:0:
448,192,61667,1,0,0:0:0:0:
320,192,61667,1,0,0:0:0:0:
64,192,61667,1,0,0:0:0:0:
448,192,61774,1,0,0:0:0:0:
320,192,61774,1,0,0:0:0:0:
64,192,61774,1,0,0:0:0:0:
448,192,61881,1,0,0:0:0:0:
64,192,61881,1,0,0:0:0:0:
192,192,61881,1,0,0:0:0:0:
192,192,62095,1,0,0:0:0:0:
64,192,62095,1,0,0:0:0:0:
448,192,62309,1,0,0:0:0:0:
192,192,62309,1,0,0:0:0:0:
320,192,62309,1,0,0:0:0:0:
192,192,62417,1,0,0:0:0:0:
64,192,62417,1,0,0:0:0:0:
64,192,62631,1,0,0:0:0:0:
192,192,62631,1,0,0:0:0:0:
448,192,62738,1,0,0:0:0:0:
320,192,62738,1,0,0:0:0:0:
192,192,62738,1,0,0:0:0:0:
448,192,62845,1,0,0:0:0:0:
64,192,62845,1,0,0:0:0:0:
448,192,63167,1,0,0:0:0:0:
64,192,63167,1,0,0:0:0:0:
320,192,63167,1,0,0:0:0:0:
320,192,63274,1,0,0:0:0:0:
448,192,63381,1,0,0:0:0:0:
64,192,63381,1,0,0:0:0:0:
192,192,63381,1,0,0:0:0:0:
448,192,63595,1,0,0:0:0:0:
192,192,63595,1,0,0:0:0:0:
320,192,63809,1,0,0:0:0:0:
192,192,63809,1,0,0:0:0:0:
64,192,63809,1,0,0:0:0:0:
448,192,63916,1,0,0:0:0:0:
192,192,63916,1,0,0:0:0:0:
448,192,64131,1,0,0:0:0:0:
192,192,64131,1,0,0:0:0:0:
320,192,64238,1,0,0:0:0:0:
192,192,64238,1,0,0:0:0:0:
64,192,64238,1,0,0:0:0:0:
448,192,64345,1,0,0:0:0:0:
320,192,64345,1,0,0:0:0:0:
448,192,64452,1,0,0:0:0:0:
192,192,64452,1,0,0:0:0:0:
64,192,64452,1,0,0:0:0:0:
192,192,64666,1,0,0:0:0:0:
64,192,64666,1,0,0:0:0:0:
448,192,64666,1,0,0:0:0:0:
320,192,64773,1,0,0:0:0:0:
192,192,64773,1,0,0:0:0:0:
448,192,64773,1,0,0:0:0:0:
448,192,64881,1,0,0:0:0:0:
320,192,64881,1,0,0:0:0:0:
64,192,64881,1,0,0:0:0:0:
448,192,65202,1,0,0:0:0:0:
192,192,65523,1,0,0:0:0:0:
448,192,65631,1,0,0:0:0:0:
192,192,65738,1,0,0:0:0:0:
64,192,65845,1,0,0:0:0:0:
448,192,65952,1,0,0:0:0:0:
320,192,66059,1,0,0:0:0:0:
192,192,66166,1,0,0:0:0:0:
448,192,66273,1,0,0:0:0:0:
64,192,66381,1,0,0:0:0:0:
192,192,66488,1,0,0:0:0:0:
320,192,66595,1,0,0:0:0:0:
448,192,66595,1,0,0:0:0:0:
192,192,66666,1,0,0:0:0:0:
64,192,66738,1,0,0:0:0:0:
320,192,66809,1,0,0:0:0:0:
448,192,66881,1,0,0:0:0:0:
64,192,66952,1,0,0:0:0:0:
192,192,67023,1,0,0:0:0:0:
320,192,67095,1,0,0:0:0:0:
448,192,67166,1,0,0:0:0:0:
192,192,67238,1,0,0:0:0:0:
320,192,67309,1,0,0:0:0:0:
64,192,67381,1,0,0:0:0:0:
192,192,67452,1,0,0:0:0:0:
448,192,67452,1,0,0:0:0:0:
320,192,67523,1,0,0:0:0:0:
192,192,67595,1,0,0:0:0:0:
64,192,67666,1,0,0:0:0:0:
448,192,67738,1,0,0:0:0:0:
320,192,67809,1,0,0:0:0:0:
192,192,67881,1,0,0:0:0:0:
64,192,67881,1,0,0:0:0:0:
320,192,67952,1,0,0:0:0:0:
448,192,67952,1,0,0:0:0:0:
192,192,68023,1,0,0:0:0:0:
64,192,68023,1,0,0:0:0:0:
320,192,68095,1,0,0:0:0:0:
448,192,68095,1,0,0:0:0:0:
192,192,68166,1,0,0:0:0:0:
64,192,68166,1,0,0:0:0:0:
320,192,68238,1,0,0:0:0:0:
192,192,68309,1,0,0:0:0:0:
64,192,68309,1,0,0:0:0:0:
448,192,68309,1,0,0:0:0:0:
320,192,68523,1,0,0:0:0:0:
192,192,68738,1,0,0:0:0:0:
64,192,68952,1,0,0:0:0:0:
448,192,69166,1,0,0:0:0:0:
192,192,69381,1,0,0:0:0:0:
448,192,69595,1,0,0:0:0:0:
320,192,69595,1,0,0:0:0:0:
320,192,69809,1,0,0:0:0:0:
192,192,69809,1,0,0:0:0:0:
192,192,70023,1,0,0:0:0:0:
64,192,70023,1,0,0:0:0:0:
320,192,70238,1,0,0:0:0:0:
448,192,70452,1,0,0:0:0:0:
64,192,70666,1,0,0:0:0:0:
192,192,70881,1,0,0:0:0:0:
448,192,70881,1,0,0:0:0:0:
320,192,71095,1,0,0:0:0:0:
192,192,71309,1,0,0:0:0:0:
448,192,71523,1,0,0:0:0:0:
320,192,71738,1,0,0:0:0:0:
64,192,71738,1,0,0:0:0:0:
192,192,71952,1,0,0:0:0:0:
64,192,72166,1,0,0:0:0:0:
320,192,72381,1,0,0:0:0:0:
448,192,72595,1,0,0:0:0:0:
320,192,72809,1,0,0:0:0:0:
192,192,73023,1,0,0:0:0:0:
64,192,73023,1,0,0:0:0:0:
448,192,73238,1,0,0:0:0:0:
192,192,73452,1,0,0:0:0:0:
64,192,73452,1,0,0:0:0:0:
448,192,73666,1,0,0:0:0:0:
320,192,73881,1,0,0:0:0:0:
192,192,74095,1,0,0:0:0:0:
448,192,74309,1,0,0:0:0:0:
320,192,74309,1,0,0:0:0:0:
192,192,74523,1,0,0:0:0:0:
64,192,74738,1,0,0:0:0:0:
448,192,74952,1,0,0:0:0:0:
320,192,75166,1,0,0:0:0:0:
64,192,75166,1,0,0:0:0:0:
192,192,75381,1,0,0:0:0:0:
320,192,75488,1,0,0:0:0:0:
448,192,75595,1,0,0:0:0:0:
64,192,75595,1,0,0:0:0:0:
448,192,75809,1,0,0:0:0:0:
64,192,76023,1,0,0:0:0:0:
320,192,76131,1,0,0:0:0:0:
448,192,76238,1,0,0:0:0:0:
192,192,76345,1,0,0:0:0:0:
64,192,76452,1,0,0:0:0:0:
448,192,76452,1,0,0:0:0:0:
320,192,76666,1,0,0:0:0:0:
64,192,76666,1,0,0:0:0:0:
192,192,76881,1,0,0:0:0:0:
64,192,76881,1,0,0:0:0:0:
448,192,76988,1,0,0:0:0:0:
192,192,77095,1,0,0:0:0:0:
320,192,77202,1,0,0:0:0:0:
64,192,77309,1,0,0:0:0:0:
448,192,77523,1,0,0:0:0:0:
192,192,77631,1,0,0:0:0:0:
64,192,77738,1,0,0:0:0:0:
320,192,77738,1,0,0:0:0:0:
448,192,77845,1,0,0:0:0:0:
64,192,77952,1,0,0:0:0:0:
192,192,78059,1,0,0:0:0:0:
448,192,78166,1,0,0:0:0:0:
64,192,78273,1,0,0:0:0:0:
320,192,78381,1,0,0:0:0:0:
192,192,78595,1,0,0:0:0:0:
64,192,78595,1,0,0:0:0:0:
448,192,78702,5,0,0:0:0:0:
192,192,78809,1,0,0:0:0:0:
320,192,78916,5,0,0:0:0:0:
64,192,79023,1,0,0:0:0:0:
320,192,79131,1,0,0:0:0:0:
448,192,79238,1,0,0:0:0:0:
64,192,79345,1,0,0:0:0:0:
192,192,79452,1,0,0:0:0:0:
448,192,79559,1,0,0:0:0:0:
320,192,79666,1,0,0:0:0:0:
192,192,79773,1,0,0:0:0:0:
320,192,79881,5,0,0:0:0:0:
64,192,79881,1,0,0:0:0:0:
192,192,80095,1,0,0:0:0:0:
64,192,80309,1,0,0:0:0:0:
320,192,80309,1,0,0:0:0:0:
448,192,80452,1,0,0:0:0:0:
192,192,80452,1,0,0:0:0:0:
448,192,80595,1,0,0:0:0:0:
320,192,80595,1,0,0:0:0:0:
192,192,80738,1,0,0:0:0:0:
64,192,80738,1,0,0:0:0:0:
448,192,80881,1,0,0:0:0:0:
64,192,80881,1,0,0:0:0:0:
320,192,81023,1,0,0:0:0:0:
192,192,81023,1,0,0:0:0:0:
448,192,81166,1,0,0:0:0:0:
320,192,81166,1,0,0:0:0:0:
192,192,81309,1,0,0:0:0:0:
64,192,81309,1,0,0:0:0:0:
448,192,81452,1,0,0:0:0:0:
192,192,81452,1,0,0:0:0:0:
320,192,81595,1,0,0:0:0:0:
64,192,81595,1,0,0:0:0:0:
192,192,81738,1,0,0:0:0:0:
64,192,81738,1,0,0:0:0:0:
448,192,81881,1,0,0:0:0:0:
320,192,81881,1,0,0:0:0:0:
448,192,82023,1,0,0:0:0:0:
192,192,82023,1,0,0:0:0:0:
64,192,82023,1,0,0:0:0:0:
320,192,82023,1,0,0:0:0:0:
192,192,82166,1,0,0:0:0:0:
64,192,82166,1,0,0:0:0:0:
320,192,82309,1,0,0:0:0:0:
192,192,82309,1,0,0:0:0:0:
448,192,82452,1,0,0:0:0:0:
320,192,82452,1,0,0:0:0:0:
64,192,82452,1,0,0:0:0:0:
448,192,82595,1,0,0:0:0:0:
64,192,82595,1,0,0:0:0:0:
320,192,82666,1,0,0:0:0:0:
192,192,82738,1,0,0:0:0:0:
64,192,82738,1,0,0:0:0:0:
320,192,82809,1,0,0:0:0:0:
448,192,82881,1,0,0:0:0:0:
192,192,82881,1,0,0:0:0:0:
64,192,82881,1,0,0:0:0:0:
448,192,83023,1,0,0:0:0:0:
192,192,83023,1,0,0:0:0:0:
448,192,83166,1,0,0:0:0:0:
192,192,83166,1,0,0:0:0:0:
448,192,83309,1,0,0:0:0:0:
192,192,83309,1,0,0:0:0:0:
64,192,83309,1,0,0:0:0:0:
448,192,83452,1,0,0:0:0:0:
192,192,83452,1,0,0:0:0:0:
320,192,83523,1,0,0:0:0:0:
64,192,83595,1,0,0:0:0:0:
448,192,83595,1,0,0:0:0:0:
192,192,83666,1,0,0:0:0:0:
448,192,83738,1,0,0:0:0:0:
320,192,83738,1,0,0:0:0:0:
64,192,83738,1,0,0:0:0:0:
192,192,83881,1,0,0:0:0:0:
64,192,83881,1,0,0:0:0:0:
448,192,84023,1,0,0:0:0:0:
320,192,84023,1,0,0:0:0:0:
448,192,84166,1,0,0:0:0:0:
320,192,84166,1,0,0:0:0:0:
192,192,84166,1,0,0:0:0:0:
448,192,84309,1,0,0:0:0:0:
320,192,84309,1,0,0:0:0:0:
192,192,84381,1,0,0:0:0:0:
64,192,84452,1,0,0:0:0:0:
448,192,84452,1,0,0:0:0:0:
320,192,84523,1,0,0:0:0:0:
64,192,84595,1,0,0:0:0:0:
192,192,84595,1,0,0:0:0:0:
448,192,84595,1,0,0:0:0:0:
448,192,84738,1,0,0:0:0:0:
192,192,84738,1,0,0:0:0:0:
320,192,84881,1,0,0:0:0:0:
64,192,84881,1,0,0:0:0:0:
320,192,85023,1,0,0:0:0:0:
192,192,85023,1,0,0:0:0:0:
64,192,85023,1,0,0:0:0:0:
320,192,85166,1,0,0:0:0:0:
64,192,85166,1,0,0:0:0:0:
192,192,85238,1,0,0:0:0:0:
320,192,85309,1,0,0:0:0:0:
448,192,85309,1,0,0:0:0:0:
64,192,85381,1,0,0:0:0:0:
448,192,85452,1,0,0:0:0:0:
320,192,85452,1,0,0:0:0:0:
192,192,85452,1,0,0:0:0:0:
64,192,85595,1,0,0:0:0:0:
192,192,85595,1,0,0:0:0:0:
320,192,85738,1,0,0:0:0:0:
64,192,85738,1,0,0:0:0:0:
320,192,85881,1,0,0:0:0:0:
64,192,85881,1,0,0:0:0:0:
448,192,85881,1,0,0:0:0:0:
448,192,86023,1,0,0:0:0:0:
192,192,86023,1,0,0:0:0:0:
320,192,86095,1,0,0:0:0:0:
448,192,86166,1,0,0:0:0:0:
64,192,86166,1,0,0:0:0:0:
192,192,86238,1,0,0:0:0:0:
448,192,86309,1,0,0:0:0:0:
320,192,86309,1,0,0:0:0:0:
64,192,86309,1,0,0:0:0:0:
320,192,86452,1,0,0:0:0:0:
192,192,86452,1,0,0:0:0:0:
320,192,86595,1,0,0:0:0:0:
192,192,86595,1,0,0:0:0:0:
320,192,86738,1,0,0:0:0:0:
64,192,86738,1,0,0:0:0:0:
192,192,86738,1,0,0:0:0:0:
192,192,86881,1,0,0:0:0:0:
320,192,86881,1,0,0:0:0:0:
448,192,86952,1,0,0:0:0:0:
64,192,87023,1,0,0:0:0:0:
320,192,87023,1,0,0:0:0:0:
192,192,87095,1,0,0:0:0:0:
448,192,87166,1,0,0:0:0:0:
320,192,87166,1,0,0:0:0:0:
64,192,87166,1,0,0:0:0:0:
64,192,87309,1,0,0:0:0:0:
192,192,87309,1,0,0:0:0:0:
448,192,87452,1,0,0:0:0:0:
320,192,87452,1,0,0:0:0:0:
448,192,87595,1,0,0:0:0:0:
320,192,87595,1,0,0:0:0:0:
64,192,87595,1,0,0:0:0:0:
448,192,87738,1,0,0:0:0:0:
320,192,87738,1,0,0:0:0:0:
192,192,87809,1,0,0:0:0:0:
448,192,87881,1,0,0:0:0:0:
64,192,87881,1,0,0:0:0:0:
320,192,87952,1,0,0:0:0:0:
448,192,88023,1,0,0:0:0:0:
192,192,88023,1,0,0:0:0:0:
64,192,88023,1,0,0:0:0:0:
448,192,88166,1,0,0:0:0:0:
64,192,88166,1,0,0:0:0:0:
192,192,88166,1,0,0:0:0:0:
320,192,88309,1,0,0:0:0:0:
192,192,88309,1,0,0:0:0:0:
64,192,88309,1,0,0:0:0:0:
320,192,88452,1,0,0:0:0:0:
448,192,88452,1,0,0:0:0:0:
64,192,88523,1,0,0:0:0:0:
192,192,88523,1,0,0:0:0:0:
320,192,88595,1,0,0:0:0:0:
448,192,88595,1,0,0:0:0:0:
192,192,88666,1,0,0:0:0:0:
64,192,88666,1,0,0:0:0:0:
320,192,88738,1,0,0:0:0:0:
448,192,88738,1,0,0:0:0:0:
192,192,88809,1,0,0:0:0:0:
320,192,88881,1,0,0:0:0:0:
448,192,88881,1,0,0:0:0:0:
64,192,88881,1,0,0:0:0:0:
448,192,88988,1,0,0:0:0:0:
64,192,89095,1,0,0:0:0:0:
192,192,89095,1,0,0:0:0:0:
448,192,89202,1,0,0:0:0:0:
64,192,89309,1,0,0:0:0:0:
320,192,89309,1,0,0:0:0:0:
192,192,89309,1,0,0:0:0:0:
320,192,89416,1,0,0:0:0:0:
64,192,89523,1,0,0:0:0:0:
192,192,89523,1,0,0:0:0:0:
448,192,89631,1,0,0:0:0:0:
192,192,89738,1,0,0:0:0:0:
64,192,89738,1,0,0:0:0:0:
320,192,89738,1,0,0:0:0:0:
192,192,89845,1,0,0:0:0:0:
448,192,89952,1,0,0:0:0:0:
320,192,89952,1,0,0:0:0:0:
192,192,90059,1,0,0:0:0:0:
320,192,90166,1,0,0:0:0:0:
448,192,90166,1,0,0:0:0:0:
64,192,90166,1,0,0:0:0:0:
64,192,90273,1,0,0:0:0:0:
448,192,90381,1,0,0:0:0:0:
320,192,90381,1,0,0:0:0:0:
64,192,90488,1,0,0:0:0:0:
320,192,90595,1,0,0:0:0:0:
448,192,90595,1,0,0:0:0:0:
192,192,90595,1,0,0:0:0:0:
448,192,90702,1,0,0:0:0:0:
64,192,90809,1,0,0:0:0:0:
320,192,90809,1,0,0:0:0:0:
192,192,90916,1,0,0:0:0:0:
320,192,91023,1,0,0:0:0:0:
448,192,91023,1,0,0:0:0:0:
64,192,91023,1,0,0:0:0:0:
320,192,91131,1,0,0:0:0:0:
192,192,91238,1,0,0:0:0:0:
64,192,91238,1,0,0:0:0:0:
448,192,91345,1,0,0:0:0:0:
320,192,91452,1,0,0:0:0:0:
192,192,91452,1,0,0:0:0:0:
64,192,91452,1,0,0:0:0:0:
192,192,91559,1,0,0:0:0:0:
448,192,91666,1,0,0:0:0:0:
320,192,91666,1,0,0:0:0:0:
192,192,91773,1,0,0:0:0:0:
320,192,91881,1,0,0:0:0:0:
64,192,91881,1,0,0:0:0:0:
448,192,91881,1,0,0:0:0:0:
64,192,91988,1,0,0:0:0:0:
448,192,92095,1,0,0:0:0:0:
320,192,92095,1,0,0:0:0:0:
192,192,92202,1,0,0:0:0:0:
64,192,92309,1,0,0:0:0:0:
448,192,92309,1,0,0:0:0:0:
320,192,92309,1,0,0:0:0:0:
448,192,92416,1,0,0:0:0:0:
192,192,92523,1,0,0:0:0:0:
64,192,92523,1,0,0:0:0:0:
320,192,92631,1,0,0:0:0:0:
448,192,92738,1,0,0:0:0:0:
192,192,92738,1,0,0:0:0:0:
64,192,92738,1,0,0:0:0:0:
192,192,92845,1,0,0:0:0:0:
320,192,92952,1,0,0:0:0:0:
448,192,92952,1,0,0:0:0:0:
64,192,93059,1,0,0:0:0:0:
192,192,93166,1,0,0:0:0:0:
448,192,93166,1,0,0:0:0:0:
320,192,93166,1,0,0:0:0:0:
320,192,93273,1,0,0:0:0:0:
192,192,93381,1,0,0:0:0:0:
64,192,93381,1,0,0:0:0:0:
448,192,93488,1,0,0:0:0:0:
320,192,93595,1,0,0:0:0:0:
192,192,93595,1,0,0:0:0:0:
64,192,93595,1,0,0:0:0:0:
64,192,93702,1,0,0:0:0:0:
448,192,93809,1,0,0:0:0:0:
320,192,93809,1,0,0:0:0:0:
192,192,93916,1,0,0:0:0:0:
64,192,94023,1,0,0:0:0:0:
320,192,94023,1,0,0:0:0:0:
448,192,94023,1,0,0:0:0:0:
320,192,94131,1,0,0:0:0:0:
192,192,94238,1,0,0:0:0:0:
64,192,94238,1,0,0:0:0:0:
448,192,94345,1,0,0:0:0:0:
320,192,94452,1,0,0:0:0:0:
192,192,94452,1,0,0:0:0:0:
64,192,94452,1,0,0:0:0:0:
192,192,94559,1,0,0:0:0:0:
448,192,94666,1,0,0:0:0:0:
320,192,94666,1,0,0:0:0:0:
64,192,94773,1,0,0:0:0:0:
192,192,94881,1,0,0:0:0:0:
448,192,94881,1,0,0:0:0:0:
320,192,94881,1,0,0:0:0:0:
448,192,94988,1,0,0:0:0:0:
192,192,95095,1,0,0:0:0:0:
64,192,95095,1,0,0:0:0:0:
320,192,95202,1,0,0:0:0:0:
448,192,95309,1,0,0:0:0:0:
192,192,95309,1,0,0:0:0:0:
64,192,95309,1,0,0:0:0:0:
64,192,95416,1,0,0:0:0:0:
448,192,95523,1,0,0:0:0:0:
320,192,95523,1,0,0:0:0:0:
192,192,95523,1,0,0:0:0:0:
448,192,95631,1,0,0:0:0:0:
320,192,95738,1,0,0:0:0:0:
192,192,95738,1,0,0:0:0:0:
64,192,95738,1,0,0:0:0:0:
320,192,95845,1,0,0:0:0:0:
192,192,95952,1,0,0:0:0:0:
64,192,95952,1,0,0:0:0:0:
448,192,96059,1,0,0:0:0:0:
320,192,96166,1,0,0:0:0:0:
192,192,96166,1,0,0:0:0:0:
64,192,96166,1,0,0:0:0:0:
64,192,96273,1,0,0:0:0:0:
448,192,96381,1,0,0:0:0:0:
320,192,96381,1,0,0:0:0:0:
192,192,96488,1,0,0:0:0:0:
448,192,96595,1,0,0:0:0:0:
320,192,96595,1,0,0:0:0:0:
64,192,96595,1,0,0:0:0:0:
448,192,96702,1,0,0:0:0:0:
192,192,96809,1,0,0:0:0:0:
64,192,96809,1,0,0:0:0:0:
448,192,96916,1,0,0:0:0:0:
320,192,97023,1,0,0:0:0:0:
64,192,97023,1,0,0:0:0:0:
192,192,97023,1,0,0:0:0:0:
192,192,97131,1,0,0:0:0:0:
320,192,97238,1,0,0:0:0:0:
448,192,97238,1,0,0:0:0:0:
64,192,97345,1,0,0:0:0:0:
192,192,97452,1,0,0:0:0:0:
320,192,97452,1,0,0:0:0:0:
448,192,97452,1,0,0:0:0:0:
320,192,97559,1,0,0:0:0:0:
64,192,97666,1,0,0:0:0:0:
192,192,97666,1,0,0:0:0:0:
320,192,97773,1,0,0:0:0:0:
448,192,97881,1,0,0:0:0:0:
192,192,97881,1,0,0:0:0:0:
64,192,97881,1,0,0:0:0:0:
192,192,97988,1,0,0:0:0:0:
320,192,98095,1,0,0:0:0:0:
448,192,98095,1,0,0:0:0:0:
192,192,98202,1,0,0:0:0:0:
64,192,98309,1,0,0:0:0:0:
320,192,98309,1,0,0:0:0:0:
448,192,98309,1,0,0:0:0:0:
448,192,98416,1,0,0:0:0:0:
192,192,98523,1,0,0:0:0:0:
64,192,98523,1,0,0:0:0:0:
320,192,98631,1,0,0:0:0:0:
64,192,98738,1,0,0:0:0:0:
192,192,98738,1,0,0:0:0:0:
448,192,98738,1,0,0:0:0:0:
64,192,98845,1,0,0:0:0:0:
448,192,98952,1,0,0:0:0:0:
320,192,98952,1,0,0:0:0:0:
64,192,99059,1,0,0:0:0:0:
192,192,99166,1,0,0:0:0:0:
448,192,99166,1,0,0:0:0:0:
320,192,99166,1,0,0:0:0:0:
448,192,99273,1,0,0:0:0:0:
64,192,99381,1,0,0:0:0:0:
192,192,99381,1,0,0:0:0:0:
448,192,99488,1,0,0:0:0:0:
192,192,99595,1,0,0:0:0:0:
320,192,99595,1,0,0:0:0:0:
64,192,99595,1,0,0:0:0:0:
320,192,99702,1,0,0:0:0:0:
192,192,99809,1,0,0:0:0:0:
64,192,99809,1,0,0:0:0:0:
448,192,99916,1,0,0:0:0:0:
320,192,100023,1,0,0:0:0:0:
192,192,100023,1,0,0:0:0:0:
64,192,100023,1,0,0:0:0:0:
192,192,100131,1,0,0:0:0:0:
448,192,100238,1,0,0:0:0:0:
320,192,100238,1,0,0:0:0:0:
192,192,100345,1,0,0:0:0:0:
320,192,100452,1,0,0:0:0:0:
64,192,100452,1,0,0:0:0:0:
448,192,100452,1,0,0:0:0:0:
64,192,100559,1,0,0:0:0:0:
320,192,100666,1,0,0:0:0:0:
448,192,100666,1,0,0:0:0:0:
64,192,100773,1,0,0:0:0:0:
192,192,100881,1,0,0:0:0:0:
320,192,100881,1,0,0:0:0:0:
448,192,100881,1,0,0:0:0:0:
448,192,100988,1,0,0:0:0:0:
320,192,101095,1,0,0:0:0:0:
64,192,101095,1,0,0:0:0:0:
192,192,101095,1,0,0:0:0:0:
64,192,101202,1,0,0:0:0:0:
192,192,101309,1,0,0:0:0:0:
320,192,101309,1,0,0:0:0:0:
448,192,101309,1,0,0:0:0:0:
320,192,101416,1,0,0:0:0:0:
448,192,101523,1,0,0:0:0:0:
192,192,101523,1,0,0:0:0:0:
64,192,101523,1,0,0:0:0:0:
192,192,101631,1,0,0:0:0:0:
320,192,101738,1,0,0:0:0:0:
448,192,101738,1,0,0:0:0:0:
64,192,101845,1,0,0:0:0:0:
192,192,101845,1,0,0:0:0:0:
448,192,101952,1,0,0:0:0:0:
64,192,101952,1,0,0:0:0:0:
320,192,102059,1,0,0:0:0:0:
192,192,102059,1,0,0:0:0:0:
448,192,102166,1,0,0:0:0:0:
192,192,102166,1,0,0:0:0:0:
64,192,102273,1,0,0:0:0:0:
320,192,102273,1,0,0:0:0:0:
192,192,102381,1,0,0:0:0:0:
64,192,102381,1,0,0:0:0:0:
320,192,102488,1,0,0:0:0:0:
448,192,102488,1,0,0:0:0:0:
448,192,102595,1,0,0:0:0:0:
192,192,102595,1,0,0:0:0:0:
64,192,102595,1,0,0:0:0:0:
320,192,102595,1,0,0:0:0:0:
192,192,102809,1,0,0:0:0:0:
192,192,103023,1,0,0:0:0:0:
64,192,103238,1,0,0:0:0:0:
64,192,103452,1,0,0:0:0:0:
64,192,103666,1,0,0:0:0:0:
448,192,103881,1,0,0:0:0:0:
320,192,103881,1,0,0:0:0:0:
192,192,104095,1,0,0:0:0:0:
448,192,104095,1,0,0:0:0:0:
320,192,104309,1,0,0:0:0:0:
192,192,104309,1,0,0:0:0:0:
320,192,104523,1,0,0:0:0:0:
320,192,104738,1,0,0:0:0:0:
192,192,104952,1,0,0:0:0:0:
64,192,105166,1,0,0:0:0:0:
320,192,105166,1,0,0:0:0:0:
320,192,105381,1,0,0:0:0:0:
320,192,105595,1,0,0:0:0:0:
320,192,105809,1,0,0:0:0:0:
64,192,106023,1,0,0:0:0:0:
448,192,106023,1,0,0:0:0:0:
448,192,106238,1,0,0:0:0:0:
448,192,106452,1,0,0:0:0:0:
320,192,106666,1,0,0:0:0:0:
320,192,106881,1,0,0:0:0:0:
320,192,107095,1,0,0:0:0:0:
192,192,107309,1,0,0:0:0:0:
64,192,107309,1,0,0:0:0:0:
448,192,107523,1,0,0:0:0:0:
192,192,107738,1,0,0:0:0:0:
64,192,107738,1,0,0:0:0:0:
320,192,107952,1,0,0:0:0:0:
320,192,108166,1,0,0:0:0:0:
320,192,108381,1,0,0:0:0:0:
448,192,108595,1,0,0:0:0:0:
192,192,108595,1,0,0:0:0:0:
448,192,108809,1,0,0:0:0:0:
448,192,109023,1,0,0:0:0:0:
448,192,109238,1,0,0:0:0:0:
192,192,109452,1,0,0:0:0:0:
192,192,109666,1,0,0:0:0:0:
192,192,109881,1,0,0:0:0:0:
64,192,110095,1,0,0:0:0:0:
64,192,110309,1,0,0:0:0:0:
64,192,110523,1,0,0:0:0:0:
448,192,110738,1,0,0:0:0:0:
192,192,110738,1,0,0:0:0:0:
448,192,110952,1,0,0:0:0:0:
64,192,110952,1,0,0:0:0:0:
320,192,111166,1,0,0:0:0:0:
64,192,111166,1,0,0:0:0:0:
320,192,111381,1,0,0:0:0:0:
320,192,111595,1,0,0:0:0:0:
320,192,111809,1,0,0:0:0:0:
320,192,112023,1,0,0:0:0:0:
192,192,112023,1,0,0:0:0:0:
192,192,112238,1,0,0:0:0:0:
192,192,112452,1,0,0:0:0:0:
192,192,112666,1,0,0:0:0:0:
192,192,112881,1,0,0:0:0:0:
64,192,112881,1,0,0:0:0:0:
448,192,113095,1,0,0:0:0:0:
448,192,113309,1,0,0:0:0:0:
192,192,113523,1,0,0:0:0:0:
192,192,113738,1,0,0:0:0:0:
192,192,113952,1,0,0:0:0:0:
320,192,114166,1,0,0:0:0:0:
64,192,114166,1,0,0:0:0:0:
448,192,114381,1,0,0:0:0:0:
320,192,114595,1,0,0:0:0:0:
64,192,114595,1,0,0:0:0:0:
64,192,114809,1,0,0:0:0:0:
64,192,115023,1,0,0:0:0:0:
64,192,115238,1,0,0:0:0:0:
448,192,115452,1,0,0:0:0:0:
320,192,115452,1,0,0:0:0:0:
448,192,115666,1,0,0:0:0:0:
448,192,115881,1,0,0:0:0:0:
448,192,116095,1,0,0:0:0:0:
