osu file format v14

[General]
AudioFilename: audio.mp3
AudioLeadIn: 0
PreviewTime: -1
Countdown: 0
SampleSet: Soft
StackLeniency: 0.7
Mode: 3
LetterboxInBreaks: 0
SpecialStyle: 0
WidescreenStoryboard: 1

[Editor]
DistanceSpacing: 0.5
BeatDivisor: 6
GridSize: 4
TimelineZoom: 1

[Metadata]
Title:Shounen wa Sora o Tadoru Prog Piano Remix
TitleUnicode:少年は空を辿る Prog Piano Remix
Artist:Toromaru
ArtistUnicode:とろまる
Creator:UnluckyCroco
Version:6K Extra
Source:SOUND VOLTEX II -infinite infection-
Tags:
BeatmapID:2197406
BeatmapSetID:1050662

[Difficulty]
HPDrainRate:9
CircleSize:6
OverallDifficulty:9
ApproachRate:5
SliderMultiplier:1.4
SliderTickRate:1

[Events]
//Background and Video events
0,0,"dress_piano_forest_anime_anime_girls_Wallpaper HD_1366x768_www.paperhi.com.jpg",0,0
//Break Periods
//Storyboard Layer 0 (Background)
//Storyboard Layer 1 (Fail)
//Storyboard Layer 2 (Pass)
//Storyboard Layer 3 (Foreground)
//Storyboard Layer 4 (Overlay)
//Storyboard Sound Samples

[TimingPoints]
1456.68957896314,428.571428571429,4,2,1,30,1,0
11528,428.571428571429,4,2,1,30,1,0
13028,428.571428571429,4,2,1,30,1,0
14742,428.571428571429,7,2,1,30,1,0
18599,428.571428571429,7,2,1,30,1,0
23313,428.571428571429,4,2,1,30,1,0
28455,428.571428571429,7,2,1,30,1,0
34455,428.571428571429,4,2,1,30,1,0
35955,428.571428571429,4,2,1,30,1,0
37455,428.571428571429,4,2,1,30,1,0
38955,428.571428571429,4,2,1,30,1,0
43240,428.571428571429,4,2,1,30,1,0
46454,428.571428571429,4,2,1,30,1,0
47525,428.571428571429,4,2,1,30,1,0
48167,428.571428571429,4,2,1,30,1,1
48167,-100,4,2,1,30,0,1
55024,-100,4,2,1,30,0,0
56738,-100,4,2,1,30,0,1
63381,428.571428571429,4,2,1,30,1,1
64881,428.571428571429,4,2,1,30,1,1
68309,-100,4,2,1,30,0,0
82023,-100,4,2,1,30,0,1
102595,-100,4,2,1,30,0,0

[HitObjects]
42,192,80309,5,0,0:0:0:0:
213,192,80309,1,0,0:0:0:0:
469,192,80309,1,0,0:0:0:0:
213,192,80452,1,0,0:0:0:0:
42,192,80452,1,0,0:0:0:0:
213,192,80595,1,0,0:0:0:0:
42,192,80595,1,0,0:0:0:0:
298,192,80738,1,0,0:0:0:0:
384,192,80738,1,0,0:0:0:0:
128,192,80738,1,0,0:0:0:0:
128,192,80881,1,0,0:0:0:0:
384,192,80881,1,0,0:0:0:0:
128,192,81023,1,0,0:0:0:0:
384,192,81023,1,0,0:0:0:0:
213,192,81166,1,0,0:0:0:0:
42,192,81166,1,0,0:0:0:0:
298,192,81166,1,0,0:0:0:0:
469,192,81166,1,0,0:0:0:0:
213,192,81309,1,0,0:0:0:0:
298,192,81309,1,0,0:0:0:0:
42,192,81309,1,0,0:0:0:0:
213,192,81452,1,0,0:0:0:0:
298,192,81452,1,0,0:0:0:0:
42,192,81452,1,0,0:0:0:0:
298,192,81595,1,0,0:0:0:0:
384,192,81595,1,0,0:0:0:0:
469,192,81595,1,0,0:0:0:0:
128,192,81595,1,0,0:0:0:0:
298,192,81738,1,0,0:0:0:0:
384,192,81738,1,0,0:0:0:0:
469,192,81738,1,0,0:0:0:0:
128,192,81738,1,0,0:0:0:0:
298,192,81881,1,0,0:0:0:0:
384,192,81881,1,0,0:0:0:0:
469,192,81881,1,0,0:0:0:0:
128,192,81881,1,0,0:0:0:0:
469,192,82023,5,0,0:0:0:0:
384,192,82023,1,0,0:0:0:0:
213,192,82023,1,0,0:0:0:0:
128,192,82023,1,0,0:0:0:0:
42,192,82023,1,0,0:0:0:0:
213,192,82166,1,0,0:0:0:0:
128,192,82166,1,0,0:0:0:0:
42,192,82166,1,0,0:0:0:0:
469,192,82309,1,0,0:0:0:0:
298,192,82309,1,0,0:0:0:0:
384,192,82309,1,0,0:0:0:0:
384,192,82452,1,0,0:0:0:0:
469,192,82452,1,0,0:0:0:0:
298,192,82452,1,0,0:0:0:0:
42,192,82452,1,0,0:0:0:0:
213,192,82595,1,0,0:0:0:0:
128,192,82595,1,0,0:0:0:0:
298,192,82666,1,0,0:0:0:0:
384,192,82666,1,0,0:0:0:0:
42,192,82738,1,0,0:0:0:0:
469,192,82738,1,0,0:0:0:0:
128,192,82809,1,0,0:0:0:0:
213,192,82809,1,0,0:0:0:0:
298,192,82881,1,0,0:0:0:0:
384,192,82881,1,0,0:0:0:0:
42,192,82881,1,0,0:0:0:0:
469,192,82881,1,0,0:0:0:0:
384,192,83023,1,0,0:0:0:0:
298,192,83023,1,0,0:0:0:0:
42,192,83023,1,0,0:0:0:0:
384,192,83166,1,0,0:0:0:0:
298,192,83166,1,0,0:0:0:0:
42,192,83166,1,0,0:0:0:0:
384,192,83309,1,0,0:0:0:0:
298,192,83309,1,0,0:0:0:0:
42,192,83309,1,0,0:0:0:0:
469,192,83309,1,0,0:0:0:0:
298,192,83452,1,0,0:0:0:0:
42,192,83452,1,0,0:0:0:0:
128,192,83523,1,0,0:0:0:0:
213,192,83523,1,0,0:0:0:0:
469,192,83595,1,0,0:0:0:0:
384,192,83595,1,0,0:0:0:0:
298,192,83666,1,0,0:0:0:0:
42,192,83666,1,0,0:0:0:0:
213,192,83738,1,0,0:0:0:0:
128,192,83738,1,0,0:0:0:0:
384,192,83738,1,0,0:0:0:0:
213,192,83881,1,0,0:0:0:0:
128,192,83881,1,0,0:0:0:0:
384,192,83881,1,0,0:0:0:0:
469,192,84023,1,0,0:0:0:0:
298,192,84023,1,0,0:0:0:0:
42,192,84023,1,0,0:0:0:0:
469,192,84166,1,0,0:0:0:0:
298,192,84166,1,0,0:0:0:0:
42,192,84166,1,0,0:0:0:0:
213,192,84166,1,0,0:0:0:0:
469,192,84309,1,0,0:0:0:0:
42,192,84309,1,0,0:0:0:0:
213,192,84381,1,0,0:0:0:0:
128,192,84381,1,0,0:0:0:0:
384,192,84452,1,0,0:0:0:0:
298,192,84452,1,0,0:0:0:0:
42,192,84523,1,0,0:0:0:0:
469,192,84523,1,0,0:0:0:0:
213,192,84595,1,0,0:0:0:0:
128,192,84595,1,0,0:0:0:0:
384,192,84595,1,0,0:0:0:0:
298,192,84595,1,0,0:0:0:0:
128,192,84738,1,0,0:0:0:0:
213,192,84738,1,0,0:0:0:0:
384,192,84738,1,0,0:0:0:0:
42,192,84881,1,0,0:0:0:0:
298,192,84881,1,0,0:0:0:0:
469,192,84881,1,0,0:0:0:0:
42,192,85023,1,0,0:0:0:0:
298,192,85023,1,0,0:0:0:0:
469,192,85023,1,0,0:0:0:0:
384,192,85023,1,0,0:0:0:0:
213,192,85166,1,0,0:0:0:0:
128,192,85166,1,0,0:0:0:0:
384,192,85238,1,0,0:0:0:0:
469,192,85238,1,0,0:0:0:0:
42,192,85309,1,0,0:0:0:0:
298,192,85309,1,0,0:0:0:0:
213,192,85381,1,0,0:0:0:0:
128,192,85381,1,0,0:0:0:0:
469,192,85452,1,0,0:0:0:0:
42,192,85452,1,0,0:0:0:0:
384,192,85452,1,0,0:0:0:0:
298,192,85452,1,0,0:0:0:0:
42,192,85595,1,0,0:0:0:0:
384,192,85595,1,0,0:0:0:0:
298,192,85595,1,0,0:0:0:0:
469,192,85738,1,0,0:0:0:0:
213,192,85738,1,0,0:0:0:0:
128,192,85738,1,0,0:0:0:0:
469,192,85881,1,0,0:0:0:0:
213,192,85881,1,0,0:0:0:0:
128,192,85881,1,0,0:0:0:0:
42,192,85881,1,0,0:0:0:0:
384,192,86023,1,0,0:0:0:0:
298,192,86023,1,0,0:0:0:0:
42,192,86095,1,0,0:0:0:0:
128,192,86095,1,0,0:0:0:0:
469,192,86166,1,0,0:0:0:0:
213,192,86166,1,0,0:0:0:0:
298,192,86238,1,0,0:0:0:0:
384,192,86238,1,0,0:0:0:0:
469,192,86309,1,0,0:0:0:0:
128,192,86309,1,0,0:0:0:0:
42,192,86309,1,0,0:0:0:0:
213,192,86309,1,0,0:0:0:0:
469,192,86452,1,0,0:0:0:0:
128,192,86452,1,0,0:0:0:0:
42,192,86452,1,0,0:0:0:0:
469,192,86595,1,0,0:0:0:0:
128,192,86595,1,0,0:0:0:0:
42,192,86595,1,0,0:0:0:0:
469,192,86738,1,0,0:0:0:0:
128,192,86738,1,0,0:0:0:0:
42,192,86738,1,0,0:0:0:0:
298,192,86738,1,0,0:0:0:0:
469,192,86881,1,0,0:0:0:0:
128,192,86881,1,0,0:0:0:0:
298,192,86952,1,0,0:0:0:0:
213,192,86952,1,0,0:0:0:0:
384,192,87023,1,0,0:0:0:0:
42,192,87023,1,0,0:0:0:0:
128,192,87095,1,0,0:0:0:0:
469,192,87095,1,0,0:0:0:0:
298,192,87166,1,0,0:0:0:0:
213,192,87166,1,0,0:0:0:0:
42,192,87166,1,0,0:0:0:0:
384,192,87166,1,0,0:0:0:0:
298,192,87309,1,0,0:0:0:0:
213,192,87309,1,0,0:0:0:0:
42,192,87309,1,0,0:0:0:0:
469,192,87452,1,0,0:0:0:0:
384,192,87452,1,0,0:0:0:0:
128,192,87452,1,0,0:0:0:0:
469,192,87595,1,0,0:0:0:0:
384,192,87595,1,0,0:0:0:0:
128,192,87595,1,0,0:0:0:0:
42,192,87595,1,0,0:0:0:0:
469,192,87738,1,0,0:0:0:0:
384,192,87738,1,0,0:0:0:0:
298,192,87809,1,0,0:0:0:0:
213,192,87809,1,0,0:0:0:0:
128,192,87881,1,0,0:0:0:0:
42,192,87881,1,0,0:0:0:0:
469,192,87952,1,0,0:0:0:0:
384,192,87952,1,0,0:0:0:0:
298,192,88023,1,0,0:0:0:0:
213,192,88023,1,0,0:0:0:0:
128,192,88023,1,0,0:0:0:0:
42,192,88023,1,0,0:0:0:0:
298,192,88166,1,0,0:0:0:0:
213,192,88166,1,0,0:0:0:0:
42,192,88166,1,0,0:0:0:0:
128,192,88166,1,0,0:0:0:0:
469,192,88309,1,0,0:0:0:0:
384,192,88309,1,0,0:0:0:0:
298,192,88309,1,0,0:0:0:0:
213,192,88309,1,0,0:0:0:0:
42,192,88452,1,0,0:0:0:0:
384,192,88452,1,0,0:0:0:0:
469,192,88452,1,0,0:0:0:0:
213,192,88523,1,0,0:0:0:0:
128,192,88523,1,0,0:0:0:0:
384,192,88595,1,0,0:0:0:0:
298,192,88595,1,0,0:0:0:0:
469,192,88595,1,0,0:0:0:0:
42,192,88666,1,0,0:0:0:0:
128,192,88666,1,0,0:0:0:0:
213,192,88738,1,0,0:0:0:0:
298,192,88738,1,0,0:0:0:0:
384,192,88738,1,0,0:0:0:0:
469,192,88809,1,0,0:0:0:0:
42,192,88809,1,0,0:0:0:0:
128,192,88881,1,0,0:0:0:0:
213,192,88881,1,0,0:0:0:0:
298,192,88881,1,0,0:0:0:0:
384,192,88881,1,0,0:0:0:0:
469,192,88988,1,0,0:0:0:0:
298,192,89095,1,0,0:0:0:0:
42,192,89095,1,0,0:0:0:0:
213,192,89202,1,0,0:0:0:0:
469,192,89309,1,0,0:0:0:0:
384,192,89309,1,0,0:0:0:0:
128,192,89309,1,0,0:0:0:0:
42,192,89309,1,0,0:0:0:0:
298,192,89416,1,0,0:0:0:0:
213,192,89523,1,0,0:0:0:0:
469,192,89523,1,0,0:0:0:0:
384,192,89631,1,0,0:0:0:0:
213,192,89738,1,0,0:0:0:0:
298,192,89738,1,0,0:0:0:0:
42,192,89738,1,0,0:0:0:0:
469,192,89845,1,0,0:0:0:0:
128,192,89952,1,0,0:0:0:0:
384,192,89952,1,0,0:0:0:0:
213,192,90059,1,0,0:0:0:0:
384,192,90166,1,0,0:0:0:0:
298,192,90166,1,0,0:0:0:0:
469,192,90166,1,0,0:0:0:0:
42,192,90166,1,0,0:0:0:0:
128,192,90273,1,0,0:0:0:0:
298,192,90381,1,0,0:0:0:0:
213,192,90381,1,0,0:0:0:0:
384,192,90488,1,0,0:0:0:0:
42,192,90595,1,0,0:0:0:0:
128,192,90595,1,0,0:0:0:0:
469,192,90595,1,0,0:0:0:0:
213,192,90702,1,0,0:0:0:0:
298,192,90809,1,0,0:0:0:0:
384,192,90809,1,0,0:0:0:0:
128,192,90916,1,0,0:0:0:0:
469,192,91023,1,0,0:0:0:0:
384,192,91023,1,0,0:0:0:0:
213,192,91023,1,0,0:0:0:0:
42,192,91023,1,0,0:0:0:0:
298,192,91131,1,0,0:0:0:0:
128,192,91238,1,0,0:0:0:0:
469,192,91238,1,0,0:0:0:0:
213,192,91345,1,0,0:0:0:0:
42,192,91452,1,0,0:0:0:0:
298,192,91452,1,0,0:0:0:0:
469,192,91452,1,0,0:0:0:0:
213,192,91559,1,0,0:0:0:0:
128,192,91666,1,0,0:0:0:0:
384,192,91666,1,0,0:0:0:0:
298,192,91773,1,0,0:0:0:0:
469,192,91881,1,0,0:0:0:0:
213,192,91881,1,0,0:0:0:0:
128,192,91881,1,0,0:0:0:0:
42,192,91881,1,0,0:0:0:0:
384,192,91988,1,0,0:0:0:0:
298,192,92095,1,0,0:0:0:0:
42,192,92095,1,0,0:0:0:0:
213,192,92202,1,0,0:0:0:0:
469,192,92309,1,0,0:0:0:0:
42,192,92309,1,0,0:0:0:0:
128,192,92309,1,0,0:0:0:0:
384,192,92309,1,0,0:0:0:0:
298,192,92416,1,0,0:0:0:0:
213,192,92523,1,0,0:0:0:0:
469,192,92523,1,0,0:0:0:0:
384,192,92631,1,0,0:0:0:0:
42,192,92738,1,0,0:0:0:0:
298,192,92738,1,0,0:0:0:0:
128,192,92738,1,0,0:0:0:0:
469,192,92738,1,0,0:0:0:0:
213,192,92845,1,0,0:0:0:0:
42,192,92952,1,0,0:0:0:0:
384,192,92952,1,0,0:0:0:0:
128,192,93059,1,0,0:0:0:0:
298,192,93166,1,0,0:0:0:0:
469,192,93166,1,0,0:0:0:0:
213,192,93166,1,0,0:0:0:0:
128,192,93273,1,0,0:0:0:0:
384,192,93381,1,0,0:0:0:0:
42,192,93381,1,0,0:0:0:0:
298,192,93488,1,0,0:0:0:0:
469,192,93595,1,0,0:0:0:0:
213,192,93595,1,0,0:0:0:0:
128,192,93595,1,0,0:0:0:0:
42,192,93595,1,0,0:0:0:0:
384,192,93702,1,0,0:0:0:0:
42,192,93809,1,0,0:0:0:0:
298,192,93809,1,0,0:0:0:0:
128,192,93916,1,0,0:0:0:0:
384,192,94023,1,0,0:0:0:0:
469,192,94023,1,0,0:0:0:0:
213,192,94023,1,0,0:0:0:0:
298,192,94131,1,0,0:0:0:0:
128,192,94238,1,0,0:0:0:0:
469,192,94238,1,0,0:0:0:0:
384,192,94345,1,0,0:0:0:0:
298,192,94452,1,0,0:0:0:0:
42,192,94452,1,0,0:0:0:0:
213,192,94452,1,0,0:0:0:0:
128,192,94452,1,0,0:0:0:0:
384,192,94559,1,0,0:0:0:0:
469,192,94666,1,0,0:0:0:0:
213,192,94666,1,0,0:0:0:0:
128,192,94773,1,0,0:0:0:0:
384,192,94881,1,0,0:0:0:0:
298,192,94881,1,0,0:0:0:0:
42,192,94881,1,0,0:0:0:0:
213,192,94988,1,0,0:0:0:0:
384,192,95095,1,0,0:0:0:0:
128,192,95095,1,0,0:0:0:0:
298,192,95202,1,0,0:0:0:0:
213,192,95309,1,0,0:0:0:0:
469,192,95309,1,0,0:0:0:0:
128,192,95309,1,0,0:0:0:0:
42,192,95309,1,0,0:0:0:0:
384,192,95416,1,0,0:0:0:0:
213,192,95523,1,0,0:0:0:0:
128,192,95523,1,0,0:0:0:0:
298,192,95523,1,0,0:0:0:0:
42,192,95631,1,0,0:0:0:0:
213,192,95738,1,0,0:0:0:0:
384,192,95738,1,0,0:0:0:0:
469,192,95738,1,0,0:0:0:0:
298,192,95738,1,0,0:0:0:0:
128,192,95845,1,0,0:0:0:0:
298,192,95952,1,0,0:0:0:0:
42,192,95952,1,0,0:0:0:0:
384,192,96059,1,0,0:0:0:0:
213,192,96166,1,0,0:0:0:0:
128,192,96166,1,0,0:0:0:0:
469,192,96166,1,0,0:0:0:0:
42,192,96166,1,0,0:0:0:0:
298,192,96273,1,0,0:0:0:0:
128,192,96381,1,0,0:0:0:0:
384,192,96381,1,0,0:0:0:0:
213,192,96488,1,0,0:0:0:0:
42,192,96595,1,0,0:0:0:0:
469,192,96595,1,0,0:0:0:0:
298,192,96595,1,0,0:0:0:0:
128,192,96702,1,0,0:0:0:0:
213,192,96809,1,0,0:0:0:0:
469,192,96809,1,0,0:0:0:0:
384,192,96916,1,0,0:0:0:0:
213,192,97023,1,0,0:0:0:0:
128,192,97023,1,0,0:0:0:0:
42,192,97023,1,0,0:0:0:0:
298,192,97023,1,0,0:0:0:0:
384,192,97131,1,0,0:0:0:0:
42,192,97238,1,0,0:0:0:0:
469,192,97238,1,0,0:0:0:0:
128,192,97345,1,0,0:0:0:0:
213,192,97452,1,0,0:0:0:0:
298,192,97452,1,0,0:0:0:0:
384,192,97452,1,0,0:0:0:0:
469,192,97559,1,0,0:0:0:0:
42,192,97666,1,0,0:0:0:0:
128,192,97666,1,0,0:0:0:0:
213,192,97773,1,0,0:0:0:0:
384,192,97881,1,0,0:0:0:0:
469,192,97881,1,0,0:0:0:0:
42,192,97881,1,0,0:0:0:0:
298,192,97881,1,0,0:0:0:0:
128,192,97988,1,0,0:0:0:0:
213,192,98095,1,0,0:0:0:0:
469,192,98095,1,0,0:0:0:0:
384,192,98202,1,0,0:0:0:0:
213,192,98309,1,0,0:0:0:0:
42,192,98309,1,0,0:0:0:0:
298,192,98309,1,0,0:0:0:0:
128,192,98416,1,0,0:0:0:0:
384,192,98523,1,0,0:0:0:0:
469,192,98523,1,0,0:0:0:0:
298,192,98631,1,0,0:0:0:0:
469,192,98738,1,0,0:0:0:0:
213,192,98738,1,0,0:0:0:0:
128,192,98738,1,0,0:0:0:0:
42,192,98738,1,0,0:0:0:0:
384,192,98845,1,0,0:0:0:0:
298,192,98952,1,0,0:0:0:0:
42,192,98952,1,0,0:0:0:0:
128,192,99059,1,0,0:0:0:0:
298,192,99166,1,0,0:0:0:0:
213,192,99166,1,0,0:0:0:0:
384,192,99166,1,0,0:0:0:0:
469,192,99166,1,0,0:0:0:0:
42,192,99273,1,0,0:0:0:0:
213,192,99381,1,0,0:0:0:0:
128,192,99381,1,0,0:0:0:0:
298,192,99488,1,0,0:0:0:0:
128,192,99595,1,0,0:0:0:0:
42,192,99595,1,0,0:0:0:0:
384,192,99595,1,0,0:0:0:0:
469,192,99595,1,0,0:0:0:0:
213,192,99702,1,0,0:0:0:0:
384,192,99809,1,0,0:0:0:0:
298,192,99809,1,0,0:0:0:0:
42,192,99916,1,0,0:0:0:0:
213,192,100023,1,0,0:0:0:0:
469,192,100023,1,0,0:0:0:0:
128,192,100023,1,0,0:0:0:0:
384,192,100131,1,0,0:0:0:0:
298,192,100238,1,0,0:0:0:0:
42,192,100238,1,0,0:0:0:0:
128,192,100345,1,0,0:0:0:0:
42,192,100452,1,0,0:0:0:0:
469,192,100452,1,0,0:0:0:0:
298,192,100452,1,0,0:0:0:0:
213,192,100452,1,0,0:0:0:0:
384,192,100559,1,0,0:0:0:0:
128,192,100666,1,0,0:0:0:0:
469,192,100666,1,0,0:0:0:0:
213,192,100773,1,0,0:0:0:0:
384,192,100881,1,0,0:0:0:0:
298,192,100881,1,0,0:0:0:0:
42,192,100881,1,0,0:0:0:0:
469,192,100988,1,0,0:0:0:0:
128,192,101095,1,0,0:0:0:0:
213,192,101095,1,0,0:0:0:0:
298,192,101095,1,0,0:0:0:0:
384,192,101202,1,0,0:0:0:0:
42,192,101309,1,0,0:0:0:0:
128,192,101309,1,0,0:0:0:0:
213,192,101309,1,0,0:0:0:0:
469,192,101309,1,0,0:0:0:0:
298,192,101416,1,0,0:0:0:0:
42,192,101523,1,0,0:0:0:0:
384,192,101523,1,0,0:0:0:0:
128,192,101523,1,0,0:0:0:0:
213,192,101631,1,0,0:0:0:0:
298,192,101738,1,0,0:0:0:0:
384,192,101738,1,0,0:0:0:0:
469,192,101738,1,0,0:0:0:0:
42,192,101845,1,0,0:0:0:0:
128,192,101845,1,0,0:0:0:0:
213,192,101952,1,0,0:0:0:0:
298,192,101952,1,0,0:0:0:0:
384,192,101952,1,0,0:0:0:0:
469,192,102059,1,0,0:0:0:0:
42,192,102059,1,0,0:0:0:0:
298,192,102166,1,0,0:0:0:0:
128,192,102166,1,0,0:0:0:0:
213,192,102166,1,0,0:0:0:0:
384,192,102273,1,0,0:0:0:0:
469,192,102273,1,0,0:0:0:0:
42,192,102381,1,0,0:0:0:0:
213,192,102381,1,0,0:0:0:0:
128,192,102381,1,0,0:0:0:0:
384,192,102488,1,0,0:0:0:0:
298,192,102488,1,0,0:0:0:0:
42,192,102595,1,0,0:0:0:0:
469,192,102595,1,0,0:0:0:0:
213,192,102595,1,0,0:0:0:0:
128,192,102595,1,0,0:0:0:0:
