osu file format v14

[General]
AudioFilename: audio.mp3
AudioLeadIn: 0
PreviewTime: 68202
Countdown: 0
SampleSet: None
StackLeniency: 0.7
Mode: 1
LetterboxInBreaks: 0
WidescreenStoryboard: 0

[Editor]
Bookmarks: 1456,6599,10028,13028,14742,18599,25027,28455,34455,40669,43240,47525,47667,47810,47953,48167,54809,56738,61881,64881,68309,75166,82023,88881,100881,102595
DistanceSpacing: 0.5
BeatDivisor: 4
GridSize: 4
TimelineZoom: 1

[Metadata]
Title:Shounen wa Sora o Tadoru Prog Piano Remix
TitleUnicode:少年は空を辿る Prog Piano Remix
Artist:Toromaru
ArtistUnicode:とろまる
Creator:404 AccNotFound
Version:Ad Libitum
Source:SOUND VOLTEX II -infinite infection-
Tags:Production Confirmation Commemorative Remix Contest 作決定記念 リミックスコンテスト BEMANI
BeatmapID:1536564
BeatmapSetID:727732

[Difficulty]
HPDrainRate:5
CircleSize:5
OverallDifficulty:6
ApproachRate:5
SliderMultiplier:1.4
SliderTickRate:1

[Events]
//Background and Video events
0,0,"DLn9ZqHVAAEXBtT.jpg",0,35
//Break Periods
2,68509,73966
//Storyboard Layer 0 (Background)
//Storyboard Layer 1 (Fail)
//Storyboard Layer 2 (Pass)
//Storyboard Layer 3 (Foreground)
//Storyboard Sound Samples

[TimingPoints]
1456.68957896314,428.571428571429,4,1,0,90,1,0
6599,-76.9230769230769,4,1,0,90,0,0
10028,-76.9230769230769,4,1,0,90,0,0
10135,-100,4,1,0,90,0,0
11528,428.571428571429,4,1,0,90,1,0
13028,428.571428571429,4,1,0,90,1,0
14742,428.571428571429,7,1,0,90,1,0
18599,428.571428571429,7,1,0,90,1,0
23313,428.571428571429,4,1,0,90,1,8
28455,428.571428571429,7,1,0,90,1,0
34455,428.571428571429,4,1,0,90,1,0
35955,428.571428571429,4,1,0,90,1,0
37455,428.571428571429,4,1,0,90,1,0
38955,428.571428571429,4,1,0,90,1,0
43240,428.571428571429,4,1,0,90,1,0
46454,428.571428571429,4,1,0,90,1,0
47525,428.571428571429,4,1,0,90,1,8
47525,-76.9230769230769,4,1,0,90,0,8
48167,428.571428571429,4,1,0,90,1,0
48167,-100,4,1,0,90,0,0
50952,-76.9230769230769,4,1,0,90,0,0
51595,-100,4,1,0,90,0,0
54381,-76.9230769230769,4,1,0,90,0,0
55024,-100,4,1,0,90,0,0
56738,-100,4,1,0,90,0,0
57809,-76.9230769230769,4,1,0,90,0,0
58452,-100,4,1,0,90,0,0
61238,-76.9230769230769,4,1,0,90,0,0
61881,-100,4,1,0,90,0,0
63381,428.571428571429,4,1,0,90,1,0
64881,428.571428571429,4,1,0,90,1,0
82023,-100,4,1,0,90,0,1
102595,-100,4,1,0,90,0,0

[HitObjects]
224,192,599,5,0,0:0:0:0:
224,192,653,1,0,0:0:0:0:
224,192,706,1,8,0:0:0:0:
224,192,760,1,8,0:0:0:0:
224,192,813,1,0,0:0:0:0:
192,192,867,1,0,0:0:0:0:
224,192,920,1,0,0:0:0:0:
224,192,974,1,8,0:0:0:0:
192,192,1028,1,8,0:0:0:0:
160,192,1099,1,8,0:0:0:0:
160,192,1170,1,0,0:0:0:0:
160,192,1242,1,0,0:0:0:0:
256,96,1349,1,8,0:0:0:0:
192,224,1456,1,4,0:0:0:0:
320,224,1670,1,8,0:0:0:0:
320,192,1778,1,8,0:0:0:0:
320,224,1885,1,0,0:0:0:0:
320,224,1992,1,8,0:0:0:0:
320,224,2206,1,8,0:0:0:0:
320,192,2313,1,0,0:0:0:0:
128,160,2420,1,0,0:0:0:0:
320,224,2528,1,8,0:0:0:0:
192,64,2635,1,8,0:0:0:0:
320,224,2742,1,0,0:0:0:0:
320,224,2849,1,8,0:0:0:0:
320,192,3063,1,8,0:0:0:0:
320,224,3170,1,0,0:0:0:0:
192,128,3385,1,8,0:0:0:0:
192,96,3492,1,0,0:0:0:0:
192,128,3599,1,0,0:0:0:0:
192,64,3706,1,8,0:0:0:0:
160,96,3920,1,8,0:0:0:0:
192,96,4028,1,0,0:0:0:0:
192,64,4135,1,0,0:0:0:0:
160,128,4242,1,8,0:0:0:0:
192,96,4349,1,0,0:0:0:0:
160,128,4456,1,8,0:0:0:0:
160,128,4563,1,8,0:0:0:0:
64,160,4670,1,0,0:0:0:0:
192,96,4778,1,8,0:0:0:0:
192,64,4885,1,0,0:0:0:0:
192,64,5099,1,8,0:0:0:0:
192,64,5206,1,8,0:0:0:0:
192,64,5313,1,0,0:0:0:0:
192,64,5420,1,8,0:0:0:0:
192,64,5635,1,8,0:0:0:0:
192,64,5742,1,0,0:0:0:0:
192,64,5849,1,0,0:0:0:0:
192,64,5956,1,8,0:0:0:0:
192,64,6063,1,0,0:0:0:0:
192,64,6170,1,8,0:0:0:0:
192,160,6242,1,8,0:0:0:0:
160,128,6313,1,0,0:0:0:0:
160,128,6385,1,0,0:0:0:0:
192,64,6492,1,0,0:0:0:0:
232,296,6599,1,8,0:0:0:0:
224,292,6653,1,0,0:0:0:0:
224,292,6706,1,0,0:0:0:0:
224,292,6760,1,8,0:0:0:0:
192,192,6920,1,0,0:0:0:0:
192,192,7028,1,0,0:0:0:0:
232,296,7242,1,8,0:0:0:0:
224,292,7296,1,0,0:0:0:0:
224,292,7349,1,0,0:0:0:0:
224,292,7403,1,8,0:0:0:0:
192,192,7563,1,0,0:0:0:0:
192,192,7670,1,0,0:0:0:0:
232,296,7778,1,8,0:0:0:0:
224,292,7832,1,0,0:0:0:0:
224,292,7885,1,0,0:0:0:0:
224,292,7939,1,8,0:0:0:0:
192,192,8099,1,0,0:0:0:0:
192,192,8206,1,0,0:0:0:0:
232,296,8420,1,8,0:0:0:0:
224,292,8474,1,0,0:0:0:0:
224,292,8527,1,0,0:0:0:0:
224,292,8581,1,8,0:0:0:0:
192,192,8635,1,0,0:0:0:0:
192,192,8742,1,0,0:0:0:0:
232,296,8849,1,8,0:0:0:0:
224,292,8903,1,0,0:0:0:0:
224,292,8956,1,0,0:0:0:0:
224,292,9010,1,8,0:0:0:0:
192,192,9170,1,0,0:0:0:0:
192,192,9278,1,0,0:0:0:0:
232,296,9492,1,8,0:0:0:0:
224,292,9546,1,0,0:0:0:0:
224,292,9599,1,0,0:0:0:0:
224,292,9653,1,8,0:0:0:0:
224,160,9813,1,8,0:0:0:0:
224,160,9920,1,0,0:0:0:0:
224,160,10028,1,4,0:0:0:0:
192,160,10242,1,8,0:0:0:0:
224,160,10456,1,0,0:0:0:0:
224,160,10563,1,8,0:0:0:0:
224,160,10670,1,0,0:0:0:0:
224,160,10778,1,8,0:0:0:0:
224,160,10992,1,8,0:0:0:0:
224,160,11099,1,8,0:0:0:0:
128,128,11206,1,0,0:0:0:0:
224,160,11313,1,0,0:0:0:0:
224,160,11528,1,12,0:0:0:0:
160,160,11742,1,8,0:0:0:0:
160,160,11956,1,0,0:0:0:0:
160,160,12063,1,8,0:0:0:0:
160,160,12170,1,8,0:0:0:0:
160,160,12278,1,0,0:0:0:0:
160,160,12492,1,8,0:0:0:0:
160,160,12599,1,8,0:0:0:0:
256,128,12706,1,0,0:0:0:0:
288,192,12813,1,0,0:0:0:0:
288,192,12920,1,8,0:0:0:0:
256,192,13028,12,0,13670,0:0:0:0:
224,160,13885,5,8,0:0:0:0:
224,160,13992,1,0,0:0:0:0:
224,160,14099,1,0,0:0:0:0:
224,160,14206,1,8,0:0:0:0:
384,128,14260,1,8,0:0:0:0:
416,96,14313,1,8,0:0:0:0:
272,160,14349,1,8,0:0:0:0:
272,160,14385,1,0,0:0:0:0:
272,160,14420,1,0,0:0:0:0:
320,156,14474,1,0,0:0:0:0:
224,160,14528,1,8,0:0:0:0:
224,160,14635,1,8,0:0:0:0:
192,96,14742,1,4,0:0:0:0:
200,148,14956,1,8,0:0:0:0:
200,148,15063,1,8,0:0:0:0:
200,148,15170,1,0,0:0:0:0:
200,148,15277,1,0,0:0:0:0:
200,148,15384,1,8,0:0:0:0:
200,148,15492,1,0,0:0:0:0:
196,144,15599,1,8,0:0:0:0:
196,144,15706,1,8,0:0:0:0:
196,144,15813,1,0,0:0:0:0:
176,144,15884,1,0,0:0:0:0:
176,144,15956,1,8,0:0:0:0:
196,144,16027,1,8,0:0:0:0:
196,144,16134,1,8,0:0:0:0:
196,144,16242,1,8,0:0:0:0:
196,144,16349,1,0,0:0:0:0:
212,172,16456,1,8,0:0:0:0:
84,136,16563,1,8,0:0:0:0:
220,152,16670,1,0,0:0:0:0:
220,152,16777,1,0,0:0:0:0:
220,152,16884,1,12,0:0:0:0:
216,156,17099,1,0,0:0:0:0:
216,156,17206,1,0,0:0:0:0:
216,156,17313,1,12,0:0:0:0:
216,156,17527,1,0,0:0:0:0:
216,156,17634,1,8,0:0:0:0:
216,156,17742,1,0,0:0:0:0:
216,160,17849,1,8,0:0:0:0:
216,156,17956,1,8,0:0:0:0:
216,156,18063,1,0,0:0:0:0:
216,156,18170,1,0,0:0:0:0:
216,156,18277,1,8,0:0:0:0:
216,156,18384,1,0,0:0:0:0:
216,156,18492,1,0,0:0:0:0:
216,156,18599,1,8,0:0:0:0:
184,136,18706,1,8,0:0:0:0:
184,136,18813,1,0,0:0:0:0:
184,136,18920,1,0,0:0:0:0:
184,136,19027,1,8,0:0:0:0:
120,136,19134,1,0,0:0:0:0:
172,152,19241,1,8,0:0:0:0:
176,152,19349,1,8,0:0:0:0:
176,152,19456,1,8,0:0:0:0:
172,152,19563,1,0,0:0:0:0:
176,152,19670,1,8,0:0:0:0:
220,144,19777,1,0,0:0:0:0:
216,156,19884,1,8,0:0:0:0:
184,136,19991,1,8,0:0:0:0:
184,136,20098,1,8,0:0:0:0:
184,136,20206,1,8,0:0:0:0:
184,136,20312,1,0,0:0:0:0:
172,152,20526,1,8,0:0:0:0:
176,152,20634,1,8,0:0:0:0:
176,152,20741,1,8,0:0:0:0:
172,152,20848,1,0,0:0:0:0:
176,152,20955,1,0,0:0:0:0:
168,116,21063,1,8,0:0:0:0:
216,156,21170,1,8,0:0:0:0:
184,136,21277,1,0,0:0:0:0:
184,136,21384,1,0,0:0:0:0:
184,136,21491,1,0,0:0:0:0:
184,136,21598,1,8,0:0:0:0:
172,152,21812,1,8,0:0:0:0:
176,152,21920,1,8,0:0:0:0:
176,152,22027,1,8,0:0:0:0:
172,152,22134,1,8,0:0:0:0:
176,152,22241,1,0,0:0:0:0:
216,156,22456,1,8,0:0:0:0:
184,136,22563,1,8,0:0:0:0:
184,136,22670,1,8,0:0:0:0:
184,136,22777,1,8,0:0:0:0:
184,136,22884,1,0,0:0:0:0:
172,152,23098,1,8,0:0:0:0:
176,152,23206,1,8,0:0:0:0:
176,152,23313,1,8,0:0:0:0:
172,152,23420,1,0,0:0:0:0:
176,152,23527,1,0,0:0:0:0:
192,144,23741,1,8,0:0:0:0:
192,144,23848,1,8,0:0:0:0:
192,144,23955,1,0,0:0:0:0:
192,144,24063,1,0,0:0:0:0:
192,144,24170,1,0,0:0:0:0:
272,240,24384,1,8,0:0:0:0:
272,240,24491,1,0,0:0:0:0:
272,240,24598,1,0,0:0:0:0:
272,240,24705,1,0,0:0:0:0:
272,240,24813,1,0,0:0:0:0:
276,236,25027,1,12,0:0:0:0:
272,240,25241,1,12,0:0:0:0:
272,240,25563,1,12,0:0:0:0:
272,240,25777,1,12,0:0:0:0:
232,136,25991,1,4,0:0:0:0:
200,192,26313,1,8,0:0:0:0:
160,212,26527,1,8,0:0:0:0:
160,212,26634,1,0,0:0:0:0:
160,212,26741,1,4,0:0:0:0:
160,212,26955,1,12,0:0:0:0:
160,212,27277,1,12,0:0:0:0:
160,212,27491,1,12,0:0:0:0:
160,212,27813,1,4,0:0:0:0:
160,212,28027,1,4,0:0:0:0:
160,212,28241,1,0,0:0:0:0:
160,212,28348,1,8,0:0:0:0:
160,212,28455,1,4,0:0:0:0:
256,184,28669,1,8,0:0:0:0:
164,184,28776,1,0,0:0:0:0:
256,184,28883,1,8,0:0:0:0:
184,192,28990,1,0,0:0:0:0:
184,192,29097,1,8,0:0:0:0:
248,200,29205,1,8,0:0:0:0:
248,200,29312,1,8,0:0:0:0:
176,88,29419,1,0,0:0:0:0:
248,200,29526,1,0,0:0:0:0:
176,88,29633,1,8,0:0:0:0:
248,200,29740,1,8,0:0:0:0:
176,88,29847,1,0,0:0:0:0:
248,200,29955,1,8,0:0:0:0:
320,192,30026,1,8,0:0:0:0:
320,192,30097,1,0,0:0:0:0:
248,200,30169,1,0,0:0:0:0:
152,120,30276,1,0,0:0:0:0:
288,180,30383,1,8,0:0:0:0:
288,180,30490,1,0,0:0:0:0:
288,180,30597,1,8,0:0:0:0:
136,92,30705,1,8,0:0:0:0:
284,184,30812,1,0,0:0:0:0:
284,184,30919,1,8,0:0:0:0:
284,184,31026,1,0,0:0:0:0:
284,184,31133,1,0,0:0:0:0:
284,184,31240,1,8,0:0:0:0:
200,112,31347,1,0,0:0:0:0:
284,184,31455,1,8,0:0:0:0:
200,112,31669,1,0,0:0:0:0:
296,100,31776,1,0,0:0:0:0:
200,112,31883,1,8,0:0:0:0:
288,112,31990,1,0,0:0:0:0:
288,112,32097,1,8,0:0:0:0:
200,116,32205,1,0,0:0:0:0:
200,116,32312,1,0,0:0:0:0:
172,152,32419,1,8,0:0:0:0:
200,116,32526,1,8,0:0:0:0:
144,112,32633,1,0,0:0:0:0:
200,116,32740,1,8,0:0:0:0:
164,128,32847,1,8,0:0:0:0:
308,144,32955,1,8,0:0:0:0:
416,224,33026,1,8,0:0:0:0:
416,224,33097,1,0,0:0:0:0:
200,116,33169,1,0,0:0:0:0:
136,136,33276,1,0,0:0:0:0:
304,200,33383,1,8,0:0:0:0:
72,168,33490,1,8,0:0:0:0:
304,200,33597,1,0,0:0:0:0:
176,148,33705,1,0,0:0:0:0:
176,148,33812,1,8,0:0:0:0:
304,200,33919,1,0,0:0:0:0:
304,200,34026,1,8,0:0:0:0:
144,148,34133,1,8,0:0:0:0:
304,200,34240,1,0,0:0:0:0:
144,148,34347,1,0,0:0:0:0:
304,200,34455,1,12,0:0:0:0:
184,172,34669,1,0,0:0:0:0:
184,172,34776,1,8,0:0:0:0:
184,172,34883,1,0,0:0:0:0:
184,172,34990,1,0,0:0:0:0:
184,172,35097,1,8,0:0:0:0:
216,228,35205,1,4,0:0:0:0:
216,228,35526,1,4,0:0:0:0:
216,228,35740,1,12,0:0:0:0:
240,164,35955,1,0,0:0:0:0:
240,164,36062,1,8,0:0:0:0:
240,164,36169,1,8,0:0:0:0:
240,164,36276,1,0,0:0:0:0:
240,164,36383,1,0,0:0:0:0:
240,164,36490,1,0,0:0:0:0:
240,164,36597,1,8,0:0:0:0:
212,244,36705,1,4,0:0:0:0:
212,244,37026,1,4,0:0:0:0:
212,244,37240,1,12,0:0:0:0:
268,148,37455,1,0,0:0:0:0:
136,204,37562,1,0,0:0:0:0:
136,204,37669,1,8,0:0:0:0:
136,204,37776,1,8,0:0:0:0:
136,204,37883,1,0,0:0:0:0:
136,204,37990,1,0,0:0:0:0:
136,204,38097,1,8,0:0:0:0:
268,148,38205,1,4,0:0:0:0:
264,152,38526,1,4,0:0:0:0:
264,156,38740,1,8,0:0:0:0:
152,128,38847,1,0,0:0:0:0:
200,144,38955,1,12,0:0:0:0:
192,180,39169,1,0,0:0:0:0:
216,180,39276,1,8,0:0:0:0:
192,180,39383,1,0,0:0:0:0:
168,152,39490,1,0,0:0:0:0:
216,180,39597,1,8,0:0:0:0:
216,180,39705,1,4,0:0:0:0:
228,228,40026,1,8,0:0:0:0:
228,228,40097,1,0,0:0:0:0:
228,228,40169,1,0,0:0:0:0:
60,208,40240,1,8,0:0:0:0:
208,220,40347,1,8,0:0:0:0:
208,216,40455,1,0,0:0:0:0:
208,216,40562,1,8,0:0:0:0:
208,220,40669,1,4,0:0:0:0:
220,156,40883,1,4,0:0:0:0:
220,156,41097,1,12,0:0:0:0:
220,156,41312,1,12,0:0:0:0:
220,156,41526,1,4,0:0:0:0:
220,156,41740,1,4,0:0:0:0:
220,156,41955,1,12,0:0:0:0:
220,156,42169,1,8,0:0:0:0:
216,168,42276,1,8,0:0:0:0:
220,156,42383,1,4,0:0:0:0:
180,256,42597,1,0,0:0:0:0:
184,240,42812,1,8,0:0:0:0:
244,184,43240,5,0,0:0:0:0:
304,172,43668,1,8,0:0:0:0:
304,172,43882,1,0,0:0:0:0:
304,172,43990,1,0,0:0:0:0:
304,172,44204,1,8,0:0:0:0:
304,172,44311,1,8,0:0:0:0:
304,172,44525,1,0,0:0:0:0:
304,172,44632,1,0,0:0:0:0:
304,172,44847,1,8,0:0:0:0:
304,172,44954,1,0,0:0:0:0:
248,224,45061,1,0,0:0:0:0:
240,112,45275,1,8,0:0:0:0:
224,200,45382,1,8,0:0:0:0:
304,188,45454,1,8,0:0:0:0:
304,188,45525,1,8,0:0:0:0:
304,188,45597,1,8,0:0:0:0:
304,188,45668,1,0,0:0:0:0:
304,188,45740,1,0,0:0:0:0:
304,188,45811,1,8,0:0:0:0:
304,224,45882,1,8,0:0:0:0:
304,224,45954,1,0,0:0:0:0:
300,244,46025,1,0,0:0:0:0:
300,244,46097,1,0,0:0:0:0:
288,252,46168,1,0,0:0:0:0:
284,252,46240,1,8,0:0:0:0:
280,252,46311,1,8,0:0:0:0:
280,252,46382,1,0,0:0:0:0:
240,196,46454,1,0,0:0:0:0:
272,152,46561,1,0,0:0:0:0:
88,160,46668,1,8,0:0:0:0:
88,160,46882,1,8,0:0:0:0:
88,160,47096,1,0,0:0:0:0:
88,160,47204,1,8,0:0:0:0:
88,160,47311,1,0,0:0:0:0:
88,160,47525,1,12,0:0:0:0:
208,120,47667,1,12,0:0:0:0:
208,120,47810,1,12,0:0:0:0:
208,120,47953,1,12,0:0:0:0:
268,196,48167,1,0,0:0:0:0:
244,136,48274,1,8,0:0:0:0:
244,136,48381,1,8,0:0:0:0:
240,144,48488,1,0,0:0:0:0:
240,144,48595,1,0,0:0:0:0:
240,144,48702,1,0,0:0:0:0:
232,136,48809,1,8,0:0:0:0:
232,136,48917,1,0,0:0:0:0:
180,112,49131,1,0,0:0:0:0:
184,112,49238,1,8,0:0:0:0:
184,112,49345,1,8,0:0:0:0:
184,112,49452,1,0,0:0:0:0:
192,116,49559,1,0,0:0:0:0:
192,116,49667,1,8,0:0:0:0:
192,116,49774,1,0,0:0:0:0:
144,88,49988,1,0,0:0:0:0:
144,88,50095,1,8,0:0:0:0:
144,88,50202,1,8,0:0:0:0:
144,88,50309,1,0,0:0:0:0:
144,88,50417,1,0,0:0:0:0:
144,88,50524,1,8,0:0:0:0:
144,88,50631,1,0,0:0:0:0:
144,88,50738,1,8,0:0:0:0:
144,88,50845,1,8,0:0:0:0:
220,272,50952,5,4,0:0:0:0:
200,176,51113,1,4,0:0:0:0:
200,176,51274,1,12,0:0:0:0:
88,172,51381,1,12,0:0:0:0:
200,176,51488,1,12,0:0:0:0:
152,136,51595,1,0,0:0:0:0:
240,220,51809,1,8,0:0:0:0:
240,220,51917,1,8,0:0:0:0:
240,220,52024,1,0,0:0:0:0:
240,220,52131,1,0,0:0:0:0:
240,220,52238,1,8,0:0:0:0:
240,220,52345,1,0,0:0:0:0:
240,220,52559,1,0,0:0:0:0:
240,220,52667,1,8,0:0:0:0:
240,220,52774,1,0,0:0:0:0:
240,220,52881,1,8,0:0:0:0:
240,220,52988,1,8,0:0:0:0:
240,220,53095,1,0,0:0:0:0:
240,220,53202,1,0,0:0:0:0:
240,220,53417,1,0,0:0:0:0:
240,220,53524,1,8,0:0:0:0:
232,224,53631,1,8,0:0:0:0:
232,224,53738,1,0,0:0:0:0:
232,224,53845,1,0,0:0:0:0:
232,224,53952,1,8,0:0:0:0:
232,224,54059,1,0,0:0:0:0:
232,224,54167,1,8,0:0:0:0:
76,168,54274,1,8,0:0:0:0:
220,272,54381,5,4,0:0:0:0:
200,176,54542,1,4,0:0:0:0:
200,176,54703,1,12,0:0:0:0:
88,172,54810,1,12,0:0:0:0:
200,176,54917,1,12,0:0:0:0:
192,140,56738,5,4,0:0:0:0:
160,212,56952,1,8,0:0:0:0:
160,212,57059,1,8,0:0:0:0:
160,212,57167,1,8,0:0:0:0:
156,152,57274,1,0,0:0:0:0:
156,152,57381,1,0,0:0:0:0:
156,152,57488,1,8,0:0:0:0:
228,172,57595,1,0,0:0:0:0:
156,152,57702,1,0,0:0:0:0:
220,272,57809,5,12,0:0:0:0:
200,176,57970,1,12,0:0:0:0:
200,176,58131,1,12,0:0:0:0:
88,172,58238,1,12,0:0:0:0:
200,176,58345,1,12,0:0:0:0:
248,140,58452,1,0,0:0:0:0:
240,112,58667,1,8,0:0:0:0:
240,112,58774,1,8,0:0:0:0:
240,112,58881,1,0,0:0:0:0:
240,112,58988,1,0,0:0:0:0:
240,112,59095,1,8,0:0:0:0:
232,124,59202,1,0,0:0:0:0:
232,124,59417,1,0,0:0:0:0:
232,124,59524,1,8,0:0:0:0:
232,124,59631,1,8,0:0:0:0:
232,124,59738,1,0,0:0:0:0:
232,124,59845,1,0,0:0:0:0:
232,124,59952,1,8,0:0:0:0:
232,124,60059,5,0,0:0:0:0:
232,124,60274,1,0,0:0:0:0:
232,128,60381,1,8,0:0:0:0:
232,128,60488,1,8,0:0:0:0:
232,128,60595,1,0,0:0:0:0:
232,128,60702,1,0,0:0:0:0:
232,128,60809,1,8,0:0:0:0:
232,128,60917,1,0,0:0:0:0:
232,128,61024,1,8,0:0:0:0:
232,128,61131,1,8,0:0:0:0:
220,272,61238,5,4,0:0:0:0:
200,176,61399,1,4,0:0:0:0:
200,176,61560,1,12,0:0:0:0:
88,172,61667,1,12,0:0:0:0:
200,176,61774,1,12,0:0:0:0:
184,184,61881,1,0,0:0:0:0:
208,200,62095,1,8,0:0:0:0:
208,200,62309,1,0,0:0:0:0:
208,200,62417,1,8,0:0:0:0:
176,120,62524,1,0,0:0:0:0:
208,200,62631,1,0,0:0:0:0:
208,200,62845,1,8,0:0:0:0:
208,200,62952,1,8,0:0:0:0:
128,156,63059,1,0,0:0:0:0:
208,200,63167,1,0,0:0:0:0:
208,200,63274,1,8,0:0:0:0:
208,200,63381,1,4,0:0:0:0:
208,200,63595,1,8,0:0:0:0:
208,200,63809,1,0,0:0:0:0:
200,64,63916,1,8,0:0:0:0:
192,52,64023,1,8,0:0:0:0:
208,200,64131,1,0,0:0:0:0:
208,200,64345,1,8,0:0:0:0:
208,200,64452,1,8,0:0:0:0:
112,180,64559,1,0,0:0:0:0:
208,200,64666,1,0,0:0:0:0:
208,200,64773,1,8,0:0:0:0:
280,228,64881,5,4,0:0:0:0:
260,212,65202,1,8,0:0:0:0:
260,212,65309,1,0,0:0:0:0:
260,212,65523,1,8,0:0:0:0:
260,212,65631,1,8,0:0:0:0:
260,212,65738,1,0,0:0:0:0:
252,224,65845,1,0,0:0:0:0:
252,224,65952,1,8,0:0:0:0:
232,176,66023,1,8,0:0:0:0:
232,176,66095,1,8,0:0:0:0:
232,176,66166,1,0,0:0:0:0:
268,176,66273,1,0,0:0:0:0:
268,176,66381,1,8,0:0:0:0:
128,204,66488,1,8,0:0:0:0:
260,216,66595,1,0,0:0:0:0:
260,212,66666,1,0,0:0:0:0:
260,216,66738,1,0,0:0:0:0:
260,216,66809,1,0,0:0:0:0:
260,216,66881,1,8,0:0:0:0:
260,216,66952,1,8,0:0:0:0:
260,216,67023,1,0,0:0:0:0:
260,216,67095,1,0,0:0:0:0:
260,216,67166,1,8,0:0:0:0:
260,216,67238,1,8,0:0:0:0:
260,216,67309,1,0,0:0:0:0:
260,216,67381,1,8,0:0:0:0:
260,216,67452,1,0,0:0:0:0:
260,216,67523,1,0,0:0:0:0:
260,216,67595,1,8,0:0:0:0:
260,216,67666,1,8,0:0:0:0:
260,216,67738,1,0,0:0:0:0:
260,216,67809,1,0,0:0:0:0:
260,216,67881,1,8,0:0:0:0:
260,216,67952,1,8,0:0:0:0:
260,216,68023,1,8,0:0:0:0:
260,216,68095,1,8,0:0:0:0:
260,216,68166,1,8,0:0:0:0:
260,216,68238,1,8,0:0:0:0:
224,224,68309,5,4,0:0:0:0:
64,160,75166,5,0,0:0:0:0:
288,256,75488,1,8,0:0:0:0:
252,188,75595,1,0,0:0:0:0:
288,256,75809,1,8,0:0:0:0:
288,256,76023,1,0,0:0:0:0:
116,184,76131,1,0,0:0:0:0:
116,184,76345,1,8,0:0:0:0:
288,256,76452,1,0,0:0:0:0:
288,256,76666,1,8,0:0:0:0:
288,256,76881,1,0,0:0:0:0:
288,256,77202,1,8,0:0:0:0:
184,204,77309,1,0,0:0:0:0:
288,256,77523,1,8,0:0:0:0:
288,256,77738,1,0,0:0:0:0:
180,196,77845,1,0,0:0:0:0:
288,256,78059,1,8,0:0:0:0:
180,196,78166,1,0,0:0:0:0:
180,196,78273,1,0,0:0:0:0:
288,256,78381,1,8,0:0:0:0:
320,204,78488,1,8,0:0:0:0:
288,256,78595,1,0,0:0:0:0:
288,256,78916,1,8,0:0:0:0:
180,196,79023,1,0,0:0:0:0:
288,256,79238,1,8,0:0:0:0:
288,256,79452,1,0,0:0:0:0:
184,176,79559,1,0,0:0:0:0:
288,256,79773,1,8,0:0:0:0:
184,176,79881,1,0,0:0:0:0:
288,256,80095,1,8,0:0:0:0:
288,256,80309,1,4,0:0:0:0:
288,256,80452,1,4,0:0:0:0:
288,256,80595,1,12,0:0:0:0:
288,256,80738,1,4,0:0:0:0:
288,256,80881,5,4,0:0:0:0:
288,256,81023,1,4,0:0:0:0:
288,256,81166,1,12,0:0:0:0:
288,256,81309,1,12,0:0:0:0:
288,256,81452,1,12,0:0:0:0:
288,256,81595,1,12,0:0:0:0:
256,256,81738,1,12,0:0:0:0:
256,256,81881,1,12,0:0:0:0:
352,224,82023,5,0,0:0:0:0:
160,192,82059,1,0,0:0:0:0:
256,224,82166,1,0,0:0:0:0:
64,160,82202,1,0,0:0:0:0:
256,224,82309,1,8,0:0:0:0:
96,160,82345,1,8,0:0:0:0:
96,160,82452,1,0,0:0:0:0:
96,160,82488,1,0,0:0:0:0:
256,224,82595,1,8,0:0:0:0:
256,224,82666,1,0,0:0:0:0:
256,224,82738,1,8,0:0:0:0:
256,224,82809,1,8,0:0:0:0:
256,224,82881,1,0,0:0:0:0:
96,160,82916,1,0,0:0:0:0:
96,160,83023,1,8,0:0:0:0:
96,160,83059,1,8,0:0:0:0:
96,160,83166,1,8,0:0:0:0:
96,160,83202,1,8,0:0:0:0:
256,224,83309,1,0,0:0:0:0:
96,160,83345,1,0,0:0:0:0:
256,224,83452,1,8,0:0:0:0:
256,224,83523,1,8,0:0:0:0:
256,224,83595,1,0,0:0:0:0:
256,224,83666,1,8,0:0:0:0:
256,224,83738,1,0,0:0:0:0:
128,256,83773,1,0,0:0:0:0:
256,224,83881,1,8,0:0:0:0:
64,256,83916,1,8,0:0:0:0:
256,224,84023,1,8,0:0:0:0:
64,256,84059,1,8,0:0:0:0:
256,224,84166,1,0,0:0:0:0:
64,256,84202,1,0,0:0:0:0:
256,224,84309,1,8,0:0:0:0:
288,160,84381,1,8,0:0:0:0:
256,224,84452,1,8,0:0:0:0:
288,160,84523,1,8,0:0:0:0:
256,224,84595,1,0,0:0:0:0:
160,224,84631,1,0,0:0:0:0:
256,224,84738,1,8,0:0:0:0:
160,224,84773,1,8,0:0:0:0:
256,224,84881,1,8,0:0:0:0:
160,224,84916,1,8,0:0:0:0:
256,224,85023,1,0,0:0:0:0:
160,224,85059,1,0,0:0:0:0:
256,224,85166,1,8,0:0:0:0:
288,160,85238,1,0,0:0:0:0:
256,224,85309,1,8,0:0:0:0:
288,160,85381,1,8,0:0:0:0:
352,224,85452,1,0,0:0:0:0:
160,160,85488,1,0,0:0:0:0:
256,224,85595,1,0,0:0:0:0:
160,160,85631,1,0,0:0:0:0:
256,224,85738,1,0,0:0:0:0:
160,160,85773,1,0,0:0:0:0:
256,224,85881,1,8,0:0:0:0:
160,160,85916,1,8,0:0:0:0:
256,224,86024,1,0,0:0:0:0:
256,224,86095,1,0,0:0:0:0:
256,224,86167,1,8,0:0:0:0:
256,224,86238,1,8,0:0:0:0:
256,224,86310,1,0,0:0:0:0:
160,160,86345,1,0,0:0:0:0:
192,224,86452,1,8,0:0:0:0:
160,160,86488,1,8,0:0:0:0:
256,224,86595,1,8,0:0:0:0:
160,160,86631,1,8,0:0:0:0:
256,224,86738,1,0,0:0:0:0:
160,160,86773,1,0,0:0:0:0:
256,224,86881,1,8,0:0:0:0:
256,224,86952,1,0,0:0:0:0:
256,224,87023,1,8,0:0:0:0:
256,224,87095,1,8,0:0:0:0:
256,224,87167,1,0,0:0:0:0:
160,160,87202,1,0,0:0:0:0:
256,160,87309,1,8,0:0:0:0:
160,160,87345,1,8,0:0:0:0:
256,160,87452,1,8,0:0:0:0:
160,160,87488,1,8,0:0:0:0:
256,160,87595,1,0,0:0:0:0:
160,160,87631,1,0,0:0:0:0:
256,192,87738,1,8,0:0:0:0:
256,192,87809,1,0,0:0:0:0:
256,192,87881,1,8,0:0:0:0:
256,192,87952,1,8,0:0:0:0:
256,192,88023,1,0,0:0:0:0:
160,160,88059,1,0,0:0:0:0:
160,160,88166,1,8,0:0:0:0:
160,160,88202,1,8,0:0:0:0:
160,160,88309,1,8,0:0:0:0:
160,160,88345,1,8,0:0:0:0:
160,160,88452,1,0,0:0:0:0:
128,160,88523,1,0,0:0:0:0:
128,160,88595,1,8,0:0:0:0:
128,160,88666,1,0,0:0:0:0:
128,160,88738,1,8,0:0:0:0:
128,160,88809,1,8,0:0:0:0:
128,160,88881,1,0,0:0:0:0:
224,160,88988,1,0,0:0:0:0:
224,160,89095,1,8,0:0:0:0:
224,160,89202,1,0,0:0:0:0:
224,160,89309,1,8,0:0:0:0:
224,160,89416,1,8,0:0:0:0:
224,160,89523,1,0,0:0:0:0:
224,160,89631,1,8,0:0:0:0:
224,160,89738,1,8,0:0:0:0:
224,160,89845,1,0,0:0:0:0:
224,160,89952,1,8,0:0:0:0:
224,160,90059,1,8,0:0:0:0:
224,160,90166,1,0,0:0:0:0:
224,160,90273,1,0,0:0:0:0:
224,160,90381,1,8,0:0:0:0:
224,160,90488,1,8,0:0:0:0:
224,160,90595,1,0,0:0:0:0:
192,160,90702,1,0,0:0:0:0:
192,160,90809,1,8,0:0:0:0:
192,160,90916,1,0,0:0:0:0:
192,160,91023,1,8,0:0:0:0:
192,160,91131,1,8,0:0:0:0:
192,160,91238,1,0,0:0:0:0:
192,160,91345,1,0,0:0:0:0:
192,160,91452,1,8,0:0:0:0:
192,160,91559,1,8,0:0:0:0:
192,160,91666,1,0,0:0:0:0:
192,160,91773,1,8,0:0:0:0:
192,160,91881,1,0,0:0:0:0:
192,160,91988,1,0,0:0:0:0:
192,160,92095,1,8,0:0:0:0:
192,160,92202,1,8,0:0:0:0:
128,160,92309,1,0,0:0:0:0:
224,160,92416,1,0,0:0:0:0:
224,160,92523,1,8,0:0:0:0:
224,160,92630,1,0,0:0:0:0:
224,160,92737,1,8,0:0:0:0:
224,160,92844,1,8,0:0:0:0:
224,160,92951,1,0,0:0:0:0:
224,160,93059,1,8,0:0:0:0:
224,160,93166,1,8,0:0:0:0:
224,160,93273,1,0,0:0:0:0:
224,160,93380,1,8,0:0:0:0:
224,160,93487,1,8,0:0:0:0:
224,160,93594,1,0,0:0:0:0:
224,160,93701,1,0,0:0:0:0:
224,160,93809,1,8,0:0:0:0:
224,160,93916,1,8,0:0:0:0:
224,160,94023,1,0,0:0:0:0:
192,160,94130,1,0,0:0:0:0:
192,160,94237,1,8,0:0:0:0:
192,160,94344,1,8,0:0:0:0:
192,160,94451,1,0,0:0:0:0:
192,160,94559,1,0,0:0:0:0:
192,160,94666,1,8,0:0:0:0:
192,160,94773,1,0,0:0:0:0:
192,160,94880,1,8,0:0:0:0:
192,160,94987,1,8,0:0:0:0:
192,160,95094,1,0,0:0:0:0:
192,160,95201,1,8,0:0:0:0:
192,160,95309,1,0,0:0:0:0:
192,160,95416,1,0,0:0:0:0:
192,160,95523,1,8,0:0:0:0:
192,160,95630,1,8,0:0:0:0:
128,160,95738,1,0,0:0:0:0:
224,160,95845,1,0,0:0:0:0:
224,160,95952,1,8,0:0:0:0:
224,160,96059,1,0,0:0:0:0:
224,160,96166,1,8,0:0:0:0:
224,160,96273,1,8,0:0:0:0:
224,160,96380,1,0,0:0:0:0:
224,160,96488,1,8,0:0:0:0:
224,160,96595,1,8,0:0:0:0:
224,160,96702,1,0,0:0:0:0:
224,160,96809,1,8,0:0:0:0:
224,160,96916,1,8,0:0:0:0:
224,160,97023,1,0,0:0:0:0:
224,160,97130,1,0,0:0:0:0:
224,160,97238,1,8,0:0:0:0:
224,160,97345,1,8,0:0:0:0:
224,160,97452,1,0,0:0:0:0:
192,160,97559,1,0,0:0:0:0:
192,160,97666,1,8,0:0:0:0:
192,160,97773,1,0,0:0:0:0:
192,160,97880,1,8,0:0:0:0:
192,160,97988,1,8,0:0:0:0:
192,160,98095,1,0,0:0:0:0:
192,160,98202,1,0,0:0:0:0:
192,160,98309,1,8,0:0:0:0:
192,160,98416,1,8,0:0:0:0:
192,160,98523,1,0,0:0:0:0:
192,160,98630,1,8,0:0:0:0:
192,160,98738,1,0,0:0:0:0:
192,160,98845,1,0,0:0:0:0:
192,160,98952,1,8,0:0:0:0:
192,160,99059,1,8,0:0:0:0:
128,160,99166,1,0,0:0:0:0:
224,160,99273,1,0,0:0:0:0:
224,160,99380,1,8,0:0:0:0:
224,160,99487,1,0,0:0:0:0:
224,160,99594,1,8,0:0:0:0:
224,160,99701,1,8,0:0:0:0:
224,160,99808,1,0,0:0:0:0:
224,160,99916,1,8,0:0:0:0:
224,160,100023,1,8,0:0:0:0:
224,160,100130,1,0,0:0:0:0:
224,160,100237,1,8,0:0:0:0:
224,160,100344,1,8,0:0:0:0:
224,160,100451,1,0,0:0:0:0:
224,160,100558,1,0,0:0:0:0:
224,160,100666,1,8,0:0:0:0:
224,160,100773,1,8,0:0:0:0:
224,160,100880,1,0,0:0:0:0:
192,160,100987,1,0,0:0:0:0:
192,160,101094,1,8,0:0:0:0:
192,160,101201,1,0,0:0:0:0:
192,160,101308,1,8,0:0:0:0:
192,160,101416,1,8,0:0:0:0:
192,160,101523,1,8,0:0:0:0:
192,160,101630,1,8,0:0:0:0:
192,160,101737,1,0,0:0:0:0:
192,160,101844,1,0,0:0:0:0:
192,160,101951,1,8,0:0:0:0:
192,160,102058,1,8,0:0:0:0:
192,160,102166,1,8,0:0:0:0:
192,160,102273,1,8,0:0:0:0:
192,160,102380,1,8,0:0:0:0:
192,160,102487,1,8,0:0:0:0:
192,192,102595,1,4,0:0:0:0:
