osu file format v14

[General]
AudioFilename: audio.mp3
AudioLeadIn: 0
PreviewTime: 60398
Countdown: 0
SampleSet: Normal
StackLeniency: 0.7
Mode: 1
LetterboxInBreaks: 0
WidescreenStoryboard: 0

[Editor]
DistanceSpacing: 1.3
BeatDivisor: 4
GridSize: 32
TimelineZoom: 2

[Metadata]
Title:Formless Canvas
TitleUnicode:Formless Canvas
Artist:Toromaru
ArtistUnicode:とろまる
Creator:Nifty
Version:Oni
Source:
Tags:electronic instrumental jazz retromgp progressive prog piano
BeatmapID:3247375
BeatmapSetID:1589862

[Difficulty]
HPDrainRate:5
CircleSize:2
OverallDifficulty:5
ApproachRate:10
SliderMultiplier:1.4
SliderTickRate:1

[Events]
//Background and Video events
0,0,"matisse.jpg",0,0
//Break Periods
//Storyboard Layer 0 (Background)
//Storyboard Layer 1 (Fail)
//Storyboard Layer 2 (Pass)
//Storyboard Layer 3 (Foreground)
//Storyboard Layer 4 (Overlay)
//Storyboard Sound Samples

[TimingPoints]
827,379.746835443038,4,1,0,100,1,0
827,-79,4,1,0,100,0,0
14308,379.746835443038,4,1,0,100,1,0
14308,-79,4,1,0,100,0,0
17156,379.746835443038,4,1,0,100,1,0
17156,-79,4,1,0,100,0,0
20004,379.746835443038,4,1,0,100,1,0
20004,-79,4,1,0,100,0,0
22852,379.746835443038,4,1,0,100,1,0
22852,-79,4,1,0,100,0,0
25478,-93.8242280285033,4,1,0,100,0,0
27285,-85.7763300760041,4,1,0,100,0,0
32155,-78.9999999999998,4,1,0,100,0,0
60446,379.746835443038,4,1,0,100,1,0
60446,-79,4,1,0,100,0,0
66142,379.746835443038,4,1,0,100,1,0
66142,-79,4,1,0,100,0,0
84369,379.746835443038,3,1,0,100,1,0
84369,-79,3,1,0,100,0,0
84463,-85.7763300760041,3,1,0,100,0,0
93482,379.746835443038,7,1,0,100,1,0
93482,-79,7,1,0,100,0,0

[HitObjects]
400,117,827,5,8,0:0:0:0:
411,106,1016,1,0,0:0:0:0:
418,107,1111,1,0,0:0:0:0:
418,107,1396,1,8,0:0:0:0:
400,117,1776,1,0,0:0:0:0:
399,116,1966,1,8,0:0:0:0:
399,116,2156,1,0,0:0:0:0:
400,117,2535,1,0,0:0:0:0:
400,117,2725,1,8,0:0:0:0:
405,111,2915,1,0,0:0:0:0:
399,116,3010,1,8,0:0:0:0:
405,106,3200,1,8,0:0:0:0:
404,101,3295,1,0,0:0:0:0:
405,101,3485,1,8,0:0:0:0:
405,102,3675,1,8,0:0:0:0:
405,101,3770,1,8,0:0:0:0:
405,102,3864,1,0,0:0:0:0:
414,96,4054,1,0,0:0:0:0:
405,109,4149,1,0,0:0:0:0:
416,101,4434,1,8,0:0:0:0:
416,107,4814,1,0,0:0:0:0:
422,102,5004,1,8,0:0:0:0:
422,94,5194,1,0,0:0:0:0:
421,95,5573,1,0,0:0:0:0:
434,94,5763,1,8,0:0:0:0:
422,102,5858,1,0,0:0:0:0:
426,91,6048,1,8,0:0:0:0:
426,99,6143,1,8,0:0:0:0:
429,103,6333,1,0,0:0:0:0:
420,85,6428,1,0,0:0:0:0:
421,95,6523,1,8,0:0:0:0:
441,94,6618,1,8,0:0:0:0:
441,94,6713,1,0,0:0:0:0:
441,94,6902,1,8,0:0:0:0:
439,95,7092,1,0,0:0:0:0:
434,95,7187,1,0,0:0:0:0:
424,98,7472,1,8,0:0:0:0:
429,82,7662,1,0,0:0:0:0:
426,92,7757,1,0,0:0:0:0:
426,92,7852,1,8,0:0:0:0:
423,95,8042,1,8,0:0:0:0:
434,95,8137,1,8,0:0:0:0:
431,88,8232,1,0,0:0:0:0:
430,88,8421,1,8,0:0:0:0:
429,82,8706,1,0,0:0:0:0:
436,83,8801,1,8,0:0:0:0:
436,83,8991,1,0,0:0:0:0:
435,85,9086,1,0,0:0:0:0:
431,88,9276,1,8,0:0:0:0:
435,83,9371,1,0,0:0:0:0:
435,83,9561,1,8,0:0:0:0:
435,83,9751,1,8,0:0:0:0:
436,83,9845,1,8,0:0:0:0:
436,83,9940,1,0,0:0:0:0:
446,84,10130,1,8,0:0:0:0:
446,83,10225,1,0,0:0:0:0:
446,81,10510,1,8,0:0:0:0:
444,86,10700,1,0,0:0:0:0:
458,85,10890,1,8,0:0:0:0:
456,91,10985,1,0,0:0:0:0:
456,91,11080,1,8,0:0:0:0:
449,92,11270,1,0,0:0:0:0:
449,91,11459,1,8,0:0:0:0:
457,90,11649,1,0,0:0:0:0:
456,91,11744,1,0,0:0:0:0:
456,91,11839,1,8,0:0:0:0:
456,91,12029,1,0,0:0:0:0:
472,84,12124,1,0,0:0:0:0:
456,90,12219,1,8,0:0:0:0:
462,91,12314,1,0,0:0:0:0:
463,90,12504,1,8,0:0:0:0:
463,81,12599,1,8,0:0:0:0:
467,88,12789,1,0,0:0:0:0:
467,89,12978,1,12,0:0:0:0:
466,92,13358,1,0,0:0:0:0:
479,94,13453,1,8,0:0:0:0:
480,88,13548,1,8,0:0:0:0:
480,88,13738,1,0,0:0:0:0:
480,88,13928,1,8,0:0:0:0:
477,80,14118,1,0,0:0:0:0:
433,112,14308,1,12,0:0:0:0:
441,102,14687,1,8,0:0:0:0:
449,81,14782,1,8,0:0:0:0:
451,87,14877,1,0,0:0:0:0:
456,89,15067,1,8,0:0:0:0:
456,89,15257,1,0,0:0:0:0:
472,89,15447,1,8,0:0:0:0:
469,77,15542,1,0,0:0:0:0:
475,85,15637,1,0,0:0:0:0:
461,85,15826,1,12,0:0:0:0:
473,86,16206,1,0,0:0:0:0:
483,85,16301,1,8,0:0:0:0:
483,85,16396,1,8,0:0:0:0:
486,86,16586,1,0,0:0:0:0:
486,86,16776,1,8,0:0:0:0:
477,91,16966,1,0,0:0:0:0:
480,92,17156,1,12,0:0:0:0:
487,95,17535,1,8,0:0:0:0:
487,95,17630,1,8,0:0:0:0:
487,95,17725,1,0,0:0:0:0:
460,91,17915,1,8,0:0:0:0:
448,91,18010,1,8,0:0:0:0:
449,96,18105,1,0,0:0:0:0:
469,87,18200,1,0,0:0:0:0:
481,95,18295,1,8,0:0:0:0:
487,95,18485,1,0,0:0:0:0:
487,95,18674,1,12,0:0:0:0:
483,92,19054,1,0,0:0:0:0:
480,90,19149,1,8,0:0:0:0:
480,90,19244,1,8,0:0:0:0:
487,95,19434,1,0,0:0:0:0:
487,95,19624,1,8,0:0:0:0:
480,89,19814,1,0,0:0:0:0:
483,92,20004,1,12,0:0:0:0:
478,92,20383,1,8,0:0:0:0:
478,91,20478,1,8,0:0:0:0:
477,92,20573,1,0,0:0:0:0:
480,89,20763,1,8,0:0:0:0:
483,92,20953,1,0,0:0:0:0:
487,91,21143,1,8,0:0:0:0:
487,91,21238,1,8,0:0:0:0:
487,91,21333,1,0,0:0:0:0:
477,97,21522,1,12,0:0:0:0:
491,89,21902,1,0,0:0:0:0:
487,91,21997,1,8,0:0:0:0:
487,91,22092,1,8,0:0:0:0:
487,91,22282,1,0,0:0:0:0:
498,85,22472,1,8,0:0:0:0:
499,85,22662,1,0,0:0:0:0:
485,91,22852,1,12,0:0:0:0:
503,87,23231,1,8,0:0:0:0:
504,85,23326,1,8,0:0:0:0:
508,84,23421,1,0,0:0:0:0:
508,84,23611,1,8,0:0:0:0:
508,84,23801,1,8,0:0:0:0:
503,88,23991,1,0,0:0:0:0:
503,87,24181,1,0,0:0:0:0:
484,90,24370,1,12,0:0:0:0:
487,91,25700,1,0,0:0:0:0:
487,91,25795,1,0,0:0:0:0:
487,91,25889,1,0,0:0:0:0:
487,91,26269,1,0,0:0:0:0:
487,91,26649,1,0,0:0:0:0:
487,91,26839,1,8,0:0:0:0:
487,91,26934,1,8,0:0:0:0:
487,91,27029,1,8,0:0:0:0:
476,93,27408,1,0,0:0:0:0:
474,91,27503,1,8,0:0:0:0:
459,94,27693,1,0,0:0:0:0:
466,98,27978,1,0,0:0:0:0:
466,98,28168,1,8,0:0:0:0:
468,98,28263,1,8,0:0:0:0:
468,98,28453,1,0,0:0:0:0:
465,102,28738,1,0,0:0:0:0:
464,104,28927,1,8,0:0:0:0:
466,98,29022,1,8,0:0:0:0:
464,104,29212,1,0,0:0:0:0:
463,104,29402,1,0,0:0:0:0:
474,101,29687,1,8,0:0:0:0:
474,101,29782,1,0,0:0:0:0:
472,102,29877,1,0,0:0:0:0:
475,103,29972,1,8,0:0:0:0:
475,103,30162,1,8,0:0:0:0:
475,97,30257,1,0,0:0:0:0:
477,100,30446,1,0,0:0:0:0:
474,91,30541,1,8,0:0:0:0:
466,90,30731,1,0,0:0:0:0:
475,92,31016,1,0,0:0:0:0:
475,97,31206,1,8,0:0:0:0:
475,97,31301,1,8,0:0:0:0:
477,100,31491,1,0,0:0:0:0:
474,98,31681,1,0,0:0:0:0:
474,97,31776,1,8,0:0:0:0:
474,97,31965,1,0,0:0:0:0:
475,92,32060,1,0,0:0:0:0:
453,89,32345,1,8,0:0:0:0:
478,88,32440,1,0,0:0:0:0:
477,89,32535,1,8,0:0:0:0:
453,98,32725,1,0,0:0:0:0:
468,89,32820,1,0,0:0:0:0:
474,97,32915,1,0,0:0:0:0:
461,91,33105,1,8,0:0:0:0:
463,92,33200,1,0,0:0:0:0:
464,89,33295,1,8,0:0:0:0:
477,89,33484,1,0,0:0:0:0:
472,78,33769,1,8,0:0:0:0:
472,78,33959,1,0,0:0:0:0:
474,77,34054,1,8,0:0:0:0:
485,76,34244,1,0,0:0:0:0:
485,63,34434,1,0,0:0:0:0:
486,65,34529,1,8,0:0:0:0:
468,73,34719,1,0,0:0:0:0:
472,78,34814,1,8,0:0:0:0:
481,71,35003,1,0,0:0:0:0:
470,66,35288,1,8,0:0:0:0:
470,66,35478,1,0,0:0:0:0:
471,65,35668,1,0,0:0:0:0:
472,64,35763,1,8,0:0:0:0:
483,60,35953,1,0,0:0:0:0:
482,60,36048,1,0,0:0:0:0:
482,60,36238,1,8,0:0:0:0:
481,62,36333,1,0,0:0:0:0:
478,64,36522,1,8,0:0:0:0:
469,55,36807,1,0,0:0:0:0:
472,57,36997,1,0,0:0:0:0:
475,60,37092,1,8,0:0:0:0:
471,61,37282,1,0,0:0:0:0:
465,60,37472,1,0,0:0:0:0:
469,55,37567,1,8,0:0:0:0:
469,55,37757,1,0,0:0:0:0:
469,55,37852,1,8,0:0:0:0:
465,50,38041,1,0,0:0:0:0:
477,51,38136,1,0,0:0:0:0:
466,50,38326,1,0,0:0:0:0:
469,55,38516,1,8,0:0:0:0:
469,55,38611,1,0,0:0:0:0:
465,45,38801,1,8,0:0:0:0:
465,50,38991,1,0,0:0:0:0:
442,61,39086,1,0,0:0:0:0:
446,55,39181,1,0,0:0:0:0:
469,55,39370,1,8,0:0:0:0:
469,55,39560,1,0,0:0:0:0:
488,50,39845,1,0,0:0:0:0:
489,50,40130,1,8,0:0:0:0:
492,50,40510,1,0,0:0:0:0:
500,51,40700,1,0,0:0:0:0:
497,51,40889,1,8,0:0:0:0:
500,50,40984,1,0,0:0:0:0:
503,42,41269,1,0,0:0:0:0:
503,42,41364,1,8,0:0:0:0:
503,42,41459,1,8,0:0:0:0:
500,51,41649,1,0,0:0:0:0:
501,44,41839,1,8,0:0:0:0:
500,45,42124,1,0,0:0:0:0:
503,42,42408,1,8,0:0:0:0:
474,51,42788,1,0,0:0:0:0:
500,45,42978,1,0,0:0:0:0:
508,47,43168,1,8,0:0:0:0:
509,46,43263,1,0,0:0:0:0:
509,46,43548,1,0,0:0:0:0:
509,43,43643,1,0,0:0:0:0:
453,61,43738,1,8,0:0:0:0:
453,61,43927,1,0,0:0:0:0:
461,60,44117,1,0,0:0:0:0:
463,60,44402,1,0,0:0:0:0:
463,60,44687,1,8,0:0:0:0:
461,73,44877,1,0,0:0:0:0:
461,73,45067,1,8,0:0:0:0:
461,73,45257,1,0,0:0:0:0:
469,66,45446,1,8,0:0:0:0:
470,66,45541,1,0,0:0:0:0:
453,61,45636,1,0,0:0:0:0:
469,66,45826,1,8,0:0:0:0:
461,73,45921,1,8,0:0:0:0:
470,65,46016,1,8,0:0:0:0:
466,53,46206,1,0,0:0:0:0:
466,53,46396,1,0,0:0:0:0:
466,53,46681,1,0,0:0:0:0:
466,53,46965,1,8,0:0:0:0:
453,57,47155,1,8,0:0:0:0:
460,61,47345,1,0,0:0:0:0:
466,53,47535,1,8,0:0:0:0:
466,53,47630,1,0,0:0:0:0:
466,53,47725,1,8,0:0:0:0:
458,53,47915,1,0,0:0:0:0:
453,57,48010,1,0,0:0:0:0:
453,57,48105,1,8,0:0:0:0:
476,48,48295,1,0,0:0:0:0:
471,47,48389,1,8,0:0:0:0:
471,47,48484,1,8,0:0:0:0:
359,94,48674,1,8,0:0:0:0:
395,85,48864,1,0,0:0:0:0:
395,85,48959,1,0,0:0:0:0:
406,78,49149,1,8,0:0:0:0:
391,78,49244,1,0,0:0:0:0:
398,77,49434,1,0,0:0:0:0:
395,78,49624,1,0,0:0:0:0:
404,75,49719,1,8,0:0:0:0:
400,64,50003,1,8,0:0:0:0:
405,64,50383,1,8,0:0:0:0:
401,66,50573,1,0,0:0:0:0:
410,64,50668,1,8,0:0:0:0:
422,68,50858,1,8,0:0:0:0:
423,67,50953,1,0,0:0:0:0:
422,63,51143,1,0,0:0:0:0:
425,88,51238,1,0,0:0:0:0:
425,62,51333,1,8,0:0:0:0:
422,61,51522,1,0,0:0:0:0:
422,60,51712,1,8,0:0:0:0:
423,67,51902,1,0,0:0:0:0:
423,67,51997,1,0,0:0:0:0:
426,62,52187,1,8,0:0:0:0:
432,67,52282,1,0,0:0:0:0:
414,57,52472,1,0,0:0:0:0:
426,66,52662,1,0,0:0:0:0:
428,66,52757,1,8,0:0:0:0:
453,66,53041,1,8,0:0:0:0:
432,67,53231,1,0,0:0:0:0:
429,61,53326,1,0,0:0:0:0:
439,60,53421,1,8,0:0:0:0:
439,60,53611,1,8,0:0:0:0:
439,60,53706,1,8,0:0:0:0:
437,58,53801,1,0,0:0:0:0:
437,58,53991,1,8,0:0:0:0:
435,59,54086,1,0,0:0:0:0:
435,59,54181,1,0,0:0:0:0:
440,65,54276,1,8,0:0:0:0:
439,60,54465,1,0,0:0:0:0:
439,60,54560,1,8,0:0:0:0:
437,58,54750,1,0,0:0:0:0:
426,67,54845,1,0,0:0:0:0:
422,63,54940,1,8,0:0:0:0:
434,76,55130,1,8,0:0:0:0:
450,60,55320,1,0,0:0:0:0:
449,56,55415,1,0,0:0:0:0:
449,56,55510,1,8,0:0:0:0:
447,61,55605,1,8,0:0:0:0:
451,58,55700,1,0,0:0:0:0:
447,65,55889,1,0,0:0:0:0:
457,54,55984,1,0,0:0:0:0:
462,61,56079,1,8,0:0:0:0:
460,60,56269,1,0,0:0:0:0:
462,60,56364,1,0,0:0:0:0:
455,66,56459,1,8,0:0:0:0:
451,58,56649,1,8,0:0:0:0:
456,68,56839,1,0,0:0:0:0:
453,63,56934,1,0,0:0:0:0:
453,63,57029,1,8,0:0:0:0:
453,63,57124,1,8,0:0:0:0:
452,66,57219,1,0,0:0:0:0:
455,66,57408,1,8,0:0:0:0:
458,58,57503,1,0,0:0:0:0:
458,58,57598,1,0,0:0:0:0:
466,59,57788,1,0,0:0:0:0:
466,59,57883,1,0,0:0:0:0:
453,63,57978,1,8,0:0:0:0:
449,57,58168,1,8,0:0:0:0:
451,58,58358,1,0,0:0:0:0:
451,58,58453,1,0,0:0:0:0:
459,65,58548,1,8,0:0:0:0:
467,63,58643,1,8,0:0:0:0:
466,59,58738,1,0,0:0:0:0:
466,61,58927,1,0,0:0:0:0:
470,62,59022,1,0,0:0:0:0:
466,64,59117,1,8,0:0:0:0:
463,69,59307,1,8,0:0:0:0:
471,72,59592,1,8,0:0:0:0:
466,71,59877,1,0,0:0:0:0:
463,69,60257,1,8,0:0:0:0:
437,58,60446,1,0,0:0:0:0:
426,67,60540,1,0,0:0:0:0:
422,63,60635,1,8,0:0:0:0:
434,76,60825,1,8,0:0:0:0:
450,60,61015,1,0,0:0:0:0:
449,56,61110,1,0,0:0:0:0:
449,56,61205,1,8,0:0:0:0:
447,61,61300,1,8,0:0:0:0:
451,58,61395,1,0,0:0:0:0:
447,65,61585,1,0,0:0:0:0:
457,54,61680,1,0,0:0:0:0:
462,61,61775,1,8,0:0:0:0:
460,60,61964,1,0,0:0:0:0:
462,60,62059,1,0,0:0:0:0:
455,66,62154,1,8,0:0:0:0:
451,58,62344,1,8,0:0:0:0:
456,68,62534,1,0,0:0:0:0:
453,63,62629,1,0,0:0:0:0:
453,63,62724,1,8,0:0:0:0:
453,63,62819,1,8,0:0:0:0:
452,66,62914,1,0,0:0:0:0:
455,66,63104,1,8,0:0:0:0:
458,58,63199,1,8,0:0:0:0:
458,58,63294,1,0,0:0:0:0:
466,59,63483,1,0,0:0:0:0:
466,59,63578,1,0,0:0:0:0:
453,63,63673,1,8,0:0:0:0:
449,57,63863,1,8,0:0:0:0:
451,58,64053,1,0,0:0:0:0:
451,58,64148,1,0,0:0:0:0:
459,65,64243,1,8,0:0:0:0:
467,63,64338,1,8,0:0:0:0:
466,59,64433,1,0,0:0:0:0:
466,61,64623,1,0,0:0:0:0:
466,64,64718,1,0,0:0:0:0:
386,94,64813,1,8,0:0:0:0:
463,69,65002,1,8,0:0:0:0:
471,72,65287,1,8,0:0:0:0:
466,71,65572,1,0,0:0:0:0:
463,69,65952,1,8,0:0:0:0:
436,81,66142,1,0,0:0:0:0:
425,108,66331,1,0,0:0:0:0:
475,79,66521,1,8,0:0:0:0:
476,77,66616,1,8,0:0:0:0:
476,77,66806,1,0,0:0:0:0:
452,78,66996,1,8,0:0:0:0:
452,78,67091,1,0,0:0:0:0:
447,88,67281,1,8,0:0:0:0:
476,77,67566,1,0,0:0:0:0:
496,85,67850,1,0,0:0:0:0:
481,84,68040,1,8,0:0:0:0:
481,84,68135,1,0,0:0:0:0:
489,90,68325,1,8,0:0:0:0:
487,90,68515,1,0,0:0:0:0:
481,92,68610,1,8,0:0:0:0:
481,92,68705,1,8,0:0:0:0:
486,93,68895,1,0,0:0:0:0:
486,93,68990,1,8,0:0:0:0:
486,91,69179,1,0,0:0:0:0:
482,85,69369,1,0,0:0:0:0:
487,90,69559,1,8,0:0:0:0:
481,92,69654,1,0,0:0:0:0:
479,90,69844,1,8,0:0:0:0:
491,100,70034,1,0,0:0:0:0:
491,100,70129,1,8,0:0:0:0:
489,99,70319,1,0,0:0:0:0:
489,94,70604,1,8,0:0:0:0:
491,100,70888,1,0,0:0:0:0:
491,100,71078,1,8,0:0:0:0:
489,99,71173,1,0,0:0:0:0:
489,99,71363,1,0,0:0:0:0:
489,93,71458,1,8,0:0:0:0:
484,91,71648,1,0,0:0:0:0:
483,79,71743,1,0,0:0:0:0:
483,79,71838,1,8,0:0:0:0:
493,91,71933,1,8,0:0:0:0:
476,82,72028,1,0,0:0:0:0:
496,86,72217,1,8,0:0:0:0:
488,86,72502,1,8,0:0:0:0:
492,81,72692,1,8,0:0:0:0:
492,81,72787,1,0,0:0:0:0:
492,81,72882,1,8,0:0:0:0:
494,81,73072,1,0,0:0:0:0:
494,78,73167,1,8,0:0:0:0:
499,73,73357,1,0,0:0:0:0:
508,84,73452,1,0,0:0:0:0:
491,66,73642,1,8,0:0:0:0:
493,72,73831,1,0,0:0:0:0:
503,78,74021,1,8,0:0:0:0:
499,73,74211,1,8,0:0:0:0:
499,73,74306,1,0,0:0:0:0:
499,73,74401,1,8,0:0:0:0:
505,73,74591,1,0,0:0:0:0:
504,73,74686,1,8,0:0:0:0:
505,69,74876,1,8,0:0:0:0:
503,78,74971,1,0,0:0:0:0:
508,71,75066,1,0,0:0:0:0:
504,67,75160,1,0,0:0:0:0:
511,67,75255,1,8,0:0:0:0:
505,73,75540,1,8,0:0:0:0:
504,73,75730,1,0,0:0:0:0:
506,77,75825,1,8,0:0:0:0:
505,69,75920,1,8,0:0:0:0:
497,79,76110,1,0,0:0:0:0:
496,79,76205,1,8,0:0:0:0:
499,84,76395,1,8,0:0:0:0:
499,84,76490,1,0,0:0:0:0:
498,85,76679,1,8,0:0:0:0:
499,82,76869,1,0,0:0:0:0:
497,79,77059,1,8,0:0:0:0:
499,86,77154,1,8,0:0:0:0:
499,84,77249,1,0,0:0:0:0:
499,84,77344,1,0,0:0:0:0:
499,84,77439,1,8,0:0:0:0:
498,85,77629,1,0,0:0:0:0:
493,87,77724,1,0,0:0:0:0:
494,87,77914,1,8,0:0:0:0:
494,87,78009,1,8,0:0:0:0:
499,84,78104,1,0,0:0:0:0:
492,88,78293,1,8,0:0:0:0:
459,91,78673,1,8,0:0:0:0:
485,92,78768,1,0,0:0:0:0:
474,96,78863,1,0,0:0:0:0:
474,96,78958,1,8,0:0:0:0:
478,101,79148,1,0,0:0:0:0:
470,95,79243,1,0,0:0:0:0:
470,95,79433,1,8,0:0:0:0:
470,95,79528,1,8,0:0:0:0:
474,99,79623,1,0,0:0:0:0:
474,99,79812,1,8,0:0:0:0:
476,98,80002,1,0,0:0:0:0:
474,98,80097,1,0,0:0:0:0:
470,95,80192,1,8,0:0:0:0:
477,97,80382,1,0,0:0:0:0:
477,97,80477,1,8,0:0:0:0:
481,108,80667,1,8,0:0:0:0:
474,99,80762,1,0,0:0:0:0:
474,99,80857,1,0,0:0:0:0:
476,98,80952,1,8,0:0:0:0:
479,104,81142,1,0,0:0:0:0:
484,90,81331,1,8,0:0:0:0:
486,107,81426,1,0,0:0:0:0:
479,112,81521,1,8,0:0:0:0:
481,108,81711,1,8,0:0:0:0:
475,114,81901,1,0,0:0:0:0:
475,114,81996,1,0,0:0:0:0:
474,110,82091,1,8,0:0:0:0:
474,112,82281,1,0,0:0:0:0:
478,115,82376,1,0,0:0:0:0:
470,108,82566,1,0,0:0:0:0:
470,109,82660,1,8,0:0:0:0:
482,110,82850,1,0,0:0:0:0:
488,111,83040,1,0,0:0:0:0:
488,112,83230,1,8,0:0:0:0:
489,113,83325,1,0,0:0:0:0:
489,113,83420,1,0,0:0:0:0:
488,113,83515,1,8,0:0:0:0:
482,110,83705,1,0,0:0:0:0:
476,113,83895,1,8,0:0:0:0:
476,113,83990,1,8,0:0:0:0:
469,108,84179,1,0,0:0:0:0:
468,109,84369,1,8,0:0:0:0:
465,103,84748,1,8,0:0:0:0:
465,103,84938,1,0,0:0:0:0:
469,108,85128,1,0,0:0:0:0:
469,108,85223,1,0,0:0:0:0:
468,109,85318,1,8,0:0:0:0:
465,103,85508,1,8,0:0:0:0:
465,103,85887,1,8,0:0:0:0:
457,101,86077,1,8,0:0:0:0:
457,101,86267,1,0,0:0:0:0:
457,101,86362,1,0,0:0:0:0:
457,101,86457,1,8,0:0:0:0:
465,103,86647,1,8,0:0:0:0:
457,101,87027,1,8,0:0:0:0:
489,104,87217,1,0,0:0:0:0:
477,106,87406,1,0,0:0:0:0:
477,104,87501,1,0,0:0:0:0:
477,106,87596,1,8,0:0:0:0:
476,106,87786,1,8,0:0:0:0:
473,113,88166,1,8,0:0:0:0:
469,108,88356,1,0,0:0:0:0:
466,114,88451,1,8,0:0:0:0:
466,114,88546,1,0,0:0:0:0:
466,114,88736,1,8,0:0:0:0:
477,106,88831,1,0,0:0:0:0:
477,106,88925,1,8,0:0:0:0:
466,119,89305,1,8,0:0:0:0:
466,114,89495,1,0,0:0:0:0:
469,107,89590,1,0,0:0:0:0:
466,114,89685,1,8,0:0:0:0:
453,109,89875,1,0,0:0:0:0:
452,106,90065,1,8,0:0:0:0:
466,114,90444,1,8,0:0:0:0:
457,104,90634,1,0,0:0:0:0:
457,104,90729,1,0,0:0:0:0:
460,108,90824,1,8,0:0:0:0:
468,107,91014,1,8,0:0:0:0:
465,113,91109,1,0,0:0:0:0:
465,111,91204,1,8,0:0:0:0:
466,113,91584,1,8,0:0:0:0:
466,113,91774,1,0,0:0:0:0:
468,114,91869,1,0,0:0:0:0:
468,114,91963,1,8,0:0:0:0:
465,111,92153,1,0,0:0:0:0:
466,113,92343,1,8,0:0:0:0:
450,85,92533,1,0,0:0:0:0:
475,120,92723,1,8,0:0:0:0:
482,117,92818,1,0,0:0:0:0:
472,119,92913,1,0,0:0:0:0:
465,120,93103,1,8,0:0:0:0:
465,120,93198,1,8,0:0:0:0:
480,117,93293,1,0,0:0:0:0:
475,115,93482,1,8,0:0:0:0:
471,111,93861,1,8,0:0:0:0:
471,112,93956,1,0,0:0:0:0:
465,120,94146,1,8,0:0:0:0:
465,115,94336,1,0,0:0:0:0:
465,115,94621,1,8,0:0:0:0:
471,111,94811,1,0,0:0:0:0:
471,111,94906,1,8,0:0:0:0:
479,125,95095,1,0,0:0:0:0:
479,125,95285,1,8,0:0:0:0:
465,125,95475,1,0,0:0:0:0:
471,120,95570,1,8,0:0:0:0:
472,124,95665,1,8,0:0:0:0:
470,125,95950,1,0,0:0:0:0:
465,121,96140,1,8,0:0:0:0:
486,118,96519,1,8,0:0:0:0:
488,113,96614,1,0,0:0:0:0:
472,125,96804,1,8,0:0:0:0:
470,125,96994,1,8,0:0:0:0:
475,118,97184,1,0,0:0:0:0:
480,115,97279,1,8,0:0:0:0:
491,118,97469,1,0,0:0:0:0:
478,111,97659,1,0,0:0:0:0:
477,110,97754,1,8,0:0:0:0:
479,109,97944,1,0,0:0:0:0:
479,109,98038,1,8,0:0:0:0:
491,107,98228,1,8,0:0:0:0:
485,111,98418,1,0,0:0:0:0:
482,103,98513,1,0,0:0:0:0:
478,111,98608,1,0,0:0:0:0:
482,115,98798,1,8,0:0:0:0:
500,114,99178,1,8,0:0:0:0:
485,102,99273,1,0,0:0:0:0:
487,104,99463,1,8,0:0:0:0:
498,117,99652,1,0,0:0:0:0:
489,112,99937,1,8,0:0:0:0:
489,112,100127,1,0,0:0:0:0:
489,112,100222,1,8,0:0:0:0:
489,110,100412,1,0,0:0:0:0:
491,109,100602,1,8,0:0:0:0:
499,96,100792,1,0,0:0:0:0:
499,96,100887,1,0,0:0:0:0:
499,101,100982,1,8,0:0:0:0:
502,108,101266,1,0,0:0:0:0:
503,109,101456,1,8,0:0:0:0:
509,112,101836,1,8,0:0:0:0:
509,112,101931,1,0,0:0:0:0:
509,112,102121,1,8,0:0:0:0:
510,112,102311,1,8,0:0:0:0:
510,112,102500,1,0,0:0:0:0:
510,116,102595,1,8,0:0:0:0:
505,100,102785,1,0,0:0:0:0:
508,103,102975,1,8,0:0:0:0:
484,97,103070,1,8,0:0:0:0:
497,91,103260,1,0,0:0:0:0:
501,89,103355,1,8,0:0:0:0:
501,94,103545,1,0,0:0:0:0:
502,97,103640,1,8,0:0:0:0:
505,100,103735,1,8,0:0:0:0:
501,97,103830,1,0,0:0:0:0:
509,92,103925,1,0,0:0:0:0:
454,87,104114,1,12,0:0:0:0:
466,89,104494,1,8,0:0:0:0:
471,72,104589,1,0,0:0:0:0:
473,73,104684,1,0,0:0:0:0:
493,84,104874,1,8,0:0:0:0:
488,86,105064,1,8,0:0:0:0:
488,86,105254,1,0,0:0:0:0:
492,86,105444,1,8,0:0:0:0:
496,86,105538,1,8,0:0:0:0:
494,84,105728,1,0,0:0:0:0:
493,84,105823,1,0,0:0:0:0:
495,84,106013,1,8,0:0:0:0:
496,85,106203,1,0,0:0:0:0:
502,83,106298,1,8,0:0:0:0:
492,86,106393,1,0,0:0:0:0:
494,84,106583,1,8,0:0:0:0:
493,84,106773,1,0,0:0:0:0:
503,75,106868,1,0,0:0:0:0:
503,75,106963,1,8,0:0:0:0:
502,76,107152,1,0,0:0:0:0:
496,85,107247,1,8,0:0:0:0:
496,80,107532,1,8,0:0:0:0:
500,77,107627,1,8,0:0:0:0:
500,74,107722,1,0,0:0:0:0:
503,75,107817,1,0,0:0:0:0:
503,75,107912,1,8,0:0:0:0:
503,75,108102,1,0,0:0:0:0:
500,79,108292,1,8,0:0:0:0:
496,80,108387,1,8,0:0:0:0:
487,79,108576,1,0,0:0:0:0:
500,74,108671,1,8,0:0:0:0:
503,75,108861,1,8,0:0:0:0:
503,75,108956,1,8,0:0:0:0:
503,75,109051,1,0,0:0:0:0:
500,79,109241,1,0,0:0:0:0:
501,84,109431,1,8,0:0:0:0:
511,83,109811,1,0,0:0:0:0:
510,81,110000,1,8,0:0:0:0:
489,67,110190,1,8,0:0:0:0:
497,71,110380,1,0,0:0:0:0:
489,73,110475,1,0,0:0:0:0:
438,78,110570,1,8,0:0:0:0:
482,63,110760,1,0,0:0:0:0:
482,67,110950,1,8,0:0:0:0:
489,67,111203,1,0,0:0:0:0:
484,64,111330,1,8,0:0:0:0:
484,64,111583,1,0,0:0:0:0:
477,81,111709,1,0,0:0:0:0:
482,67,111899,1,8,0:0:0:0:
477,61,111994,1,0,0:0:0:0:
479,61,112089,1,8,0:0:0:0:
424,104,112279,1,0,0:0:0:0:
424,104,112469,1,0,0:0:0:0:
424,104,112564,1,0,0:0:0:0:
418,98,112659,1,8,0:0:0:0:
420,92,112849,1,0,0:0:0:0:
420,92,112944,1,0,0:0:0:0:
424,89,113038,1,8,0:0:0:0:
424,90,113228,1,8,0:0:0:0:
424,90,113323,1,8,0:0:0:0:
424,90,113418,1,0,0:0:0:0:
429,66,113608,1,8,0:0:0:0:
428,76,113798,1,0,0:0:0:0:
425,76,113988,1,8,0:0:0:0:
425,76,114083,1,8,0:0:0:0:
425,76,114178,1,0,0:0:0:0:
423,75,114273,1,0,0:0:0:0:
423,75,114368,1,8,0:0:0:0:
425,71,114557,1,0,0:0:0:0:
431,62,114747,1,12,0:0:0:0:
