osu file format v14

[General]
AudioFilename: audio.mp3
AudioLeadIn: 0
PreviewTime: 60398
Countdown: 0
SampleSet: Normal
StackLeniency: 0.7
Mode: 1
LetterboxInBreaks: 0
WidescreenStoryboard: 0

[Editor]
DistanceSpacing: 1.3
BeatDivisor: 4
GridSize: 32
TimelineZoom: 2

[Metadata]
Title:Formless Canvas
TitleUnicode:Formless Canvas
Artist:Toromaru
ArtistUnicode:とろまる
Creator:Nifty
Version:Kantan
Source:
Tags:electronic instrumental jazz retromgp progressive prog piano
BeatmapID:3247373
BeatmapSetID:1589862

[Difficulty]
HPDrainRate:7
CircleSize:2
OverallDifficulty:3
ApproachRate:10
SliderMultiplier:1.4
SliderTickRate:1

[Events]
//Background and Video events
0,0,"matisse.jpg",0,0
//Break Periods
//Storyboard Layer 0 (Background)
//Storyboard Layer 1 (Fail)
//Storyboard Layer 2 (Pass)
//Storyboard Layer 3 (Foreground)
//Storyboard Layer 4 (Overlay)
//Storyboard Sound Samples

[TimingPoints]
827,379.746835443038,4,1,0,100,1,0
14308,379.746835443038,4,1,0,100,1,0
17156,379.746835443038,4,1,0,100,1,0
20004,379.746835443038,4,1,0,100,1,0
22852,379.746835443038,4,1,0,100,1,0
60446,379.746835443038,4,1,0,100,1,0
66142,379.746835443038,4,1,0,100,1,0
84369,379.746835443038,3,1,0,100,1,0
93482,379.746835443038,7,1,0,100,1,0

[HitObjects]
400,117,827,5,8,0:0:0:0:
418,107,1396,1,8,0:0:0:0:
399,116,1966,1,8,0:0:0:0:
400,117,2725,1,8,0:0:0:0:
404,101,3105,1,0,0:0:0:0:
405,101,3485,1,8,0:0:0:0:
405,102,3864,1,0,0:0:0:0:
416,101,4434,1,8,0:0:0:0:
422,102,5004,1,8,0:0:0:0:
420,110,6143,1,8,0:0:0:0:
413,103,6523,1,0,0:0:0:0:
441,94,6902,1,8,0:0:0:0:
429,82,7472,1,0,0:0:0:0:
423,95,8042,1,8,0:0:0:0:
430,88,8421,1,8,0:0:0:0:
435,85,8991,1,0,0:0:0:0:
435,83,9561,1,8,0:0:0:0:
436,83,9940,1,0,0:0:0:0:
446,81,10510,1,8,0:0:0:0:
456,91,11080,1,8,0:0:0:0:
449,91,11459,1,8,0:0:0:0:
456,91,12029,1,0,0:0:0:0:
423,103,12599,1,8,0:0:0:0:
467,89,12978,1,12,0:0:0:0:
480,88,13928,1,8,0:0:0:0:
433,112,14308,1,12,0:0:0:0:
456,89,14877,1,0,0:0:0:0:
456,89,15257,1,0,0:0:0:0:
461,85,15826,1,12,0:0:0:0:
486,86,16776,1,8,0:0:0:0:
480,92,17156,1,12,0:0:0:0:
487,95,17725,1,0,0:0:0:0:
481,95,18105,1,8,0:0:0:0:
487,95,18674,1,12,0:0:0:0:
487,95,19624,1,8,0:0:0:0:
483,92,20004,1,12,0:0:0:0:
477,92,20573,1,0,0:0:0:0:
483,92,20953,1,0,0:0:0:0:
477,97,21522,1,12,0:0:0:0:
498,85,22472,1,8,0:0:0:0:
485,91,22852,1,12,0:0:0:0:
508,84,23421,1,0,0:0:0:0:
508,84,23801,1,8,0:0:0:0:
484,90,24370,1,12,0:0:0:0:
487,91,25889,1,0,0:0:0:0:
487,91,26269,1,0,0:0:0:0:
487,91,26649,1,0,0:0:0:0:
476,93,27408,1,8,0:0:0:0:
466,98,27788,1,0,0:0:0:0:
466,98,28168,1,8,0:0:0:0:
468,98,28548,1,8,0:0:0:0:
464,104,28927,1,8,0:0:0:0:
477,100,30446,1,8,0:0:0:0:
466,90,30826,1,0,0:0:0:0:
475,97,31206,1,8,0:0:0:0:
477,100,31586,1,8,0:0:0:0:
474,97,31965,1,0,0:0:0:0:
453,98,32725,1,0,0:0:0:0:
477,89,33484,1,0,0:0:0:0:
472,78,33864,1,8,0:0:0:0:
485,76,34244,1,0,0:0:0:0:
486,65,34624,1,8,0:0:0:0:
481,71,35003,1,0,0:0:0:0:
478,64,36522,1,8,0:0:0:0:
469,55,36902,1,0,0:0:0:0:
471,61,37282,1,8,0:0:0:0:
469,55,37662,1,8,0:0:0:0:
465,50,38041,1,0,0:0:0:0:
465,45,38801,1,8,0:0:0:0:
446,55,39181,1,0,0:0:0:0:
469,55,39560,1,0,0:0:0:0:
489,50,40130,1,8,0:0:0:0:
500,51,40700,1,0,0:0:0:0:
503,42,41269,1,8,0:0:0:0:
501,44,41839,1,8,0:0:0:0:
503,42,42408,1,0,0:0:0:0:
500,45,42978,1,0,0:0:0:0:
461,60,44117,1,8,0:0:0:0:
463,60,44687,1,8,0:0:0:0:
461,73,45257,1,0,0:0:0:0:
469,66,45826,1,8,0:0:0:0:
466,53,46396,1,0,0:0:0:0:
466,53,47535,1,8,0:0:0:0:
453,57,47915,1,0,0:0:0:0:
476,48,48295,1,8,0:0:0:0:
359,94,48674,1,8,0:0:0:0:
398,77,49434,1,0,0:0:0:0:
400,64,50003,1,8,0:0:0:0:
401,66,50573,1,8,0:0:0:0:
423,67,50953,1,0,0:0:0:0:
422,60,51712,1,8,0:0:0:0:
414,57,52472,1,0,0:0:0:0:
453,66,53041,1,8,0:0:0:0:
439,60,53611,1,0,0:0:0:0:
437,58,53991,1,8,0:0:0:0:
454,64,54370,1,8,0:0:0:0:
437,58,54750,1,0,0:0:0:0:
449,56,55510,1,0,0:0:0:0:
447,65,55889,1,8,0:0:0:0:
460,60,56269,1,0,0:0:0:0:
453,63,57029,1,8,0:0:0:0:
455,66,57408,1,0,0:0:0:0:
466,59,57788,1,0,0:0:0:0:
459,65,58548,1,0,0:0:0:0:
466,61,58927,1,8,0:0:0:0:
463,69,59307,1,8,0:0:0:0:
437,58,60446,1,0,0:0:0:0:
449,56,61205,1,0,0:0:0:0:
447,65,61585,1,8,0:0:0:0:
462,60,61964,1,0,0:0:0:0:
453,63,62724,1,8,0:0:0:0:
455,66,63104,1,8,0:0:0:0:
466,59,63483,1,0,0:0:0:0:
459,65,64243,1,0,0:0:0:0:
466,61,64623,1,8,0:0:0:0:
463,69,65002,1,8,0:0:0:0:
436,81,66142,1,0,0:0:0:0:
476,77,66806,1,0,0:0:0:0:
476,77,67566,1,8,0:0:0:0:
458,96,68325,1,0,0:0:0:0:
486,91,69179,1,0,0:0:0:0:
479,90,69844,1,0,0:0:0:0:
489,94,70604,1,8,0:0:0:0:
483,79,71838,1,8,0:0:0:0:
496,86,72217,1,8,0:0:0:0:
497,93,72882,1,0,0:0:0:0:
499,73,73357,1,0,0:0:0:0:
491,66,73736,1,8,0:0:0:0:
499,73,74401,1,0,0:0:0:0:
505,69,74876,1,0,0:0:0:0:
511,67,75255,1,8,0:0:0:0:
505,69,75920,1,8,0:0:0:0:
499,84,76395,1,0,0:0:0:0:
498,85,76774,1,8,0:0:0:0:
499,84,77154,1,0,0:0:0:0:
477,91,77534,1,0,0:0:0:0:
494,87,77914,1,8,0:0:0:0:
492,88,78293,1,8,0:0:0:0:
478,101,79053,1,8,0:0:0:0:
470,95,79433,1,8,0:0:0:0:
474,99,79812,1,0,0:0:0:0:
476,98,80952,1,8,0:0:0:0:
484,90,81331,1,8,0:0:0:0:
474,110,82091,1,0,0:0:0:0:
470,108,82471,1,8,0:0:0:0:
482,110,82850,1,0,0:0:0:0:
488,112,83230,1,8,0:0:0:0:
468,109,84369,1,8,0:0:0:0:
465,103,84938,1,0,0:0:0:0:
465,103,85508,1,8,0:0:0:0:
457,101,86267,1,0,0:0:0:0:
465,103,86647,1,8,0:0:0:0:
489,104,87217,1,0,0:0:0:0:
476,106,87786,1,8,0:0:0:0:
477,106,88925,1,8,0:0:0:0:
466,114,89495,1,0,0:0:0:0:
452,106,90065,1,8,0:0:0:0:
466,114,90444,1,8,0:0:0:0:
460,108,90824,1,0,0:0:0:0:
465,111,91204,1,8,0:0:0:0:
468,114,91774,1,0,0:0:0:0:
466,113,92343,1,8,0:0:0:0:
475,115,93482,1,8,0:0:0:0:
457,104,94146,1,0,0:0:0:0:
465,115,94621,1,8,0:0:0:0:
472,124,95760,1,0,0:0:0:0:
465,121,96140,1,8,0:0:0:0:
472,125,96804,1,0,0:0:0:0:
480,115,97279,1,8,0:0:0:0:
472,125,97659,1,0,0:0:0:0:
485,111,98418,1,0,0:0:0:0:
482,115,98798,1,8,0:0:0:0:
487,104,99463,1,0,0:0:0:0:
489,112,99937,1,8,0:0:0:0:
499,101,101076,1,0,0:0:0:0:
503,109,101456,1,8,0:0:0:0:
509,112,102121,1,0,0:0:0:0:
510,116,102595,1,0,0:0:0:0:
508,103,102975,1,8,0:0:0:0:
501,89,103355,1,0,0:0:0:0:
454,87,104114,1,12,0:0:0:0:
493,84,104874,1,8,0:0:0:0:
492,86,105444,1,8,0:0:0:0:
495,84,106013,1,8,0:0:0:0:
492,86,106393,1,0,0:0:0:0:
493,84,106773,1,8,0:0:0:0:
496,80,107532,1,0,0:0:0:0:
503,75,107912,1,8,0:0:0:0:
500,79,108292,1,8,0:0:0:0:
503,75,108861,1,0,0:0:0:0:
501,84,109431,1,8,0:0:0:0:
438,78,110570,1,0,0:0:0:0:
482,67,110950,1,8,0:0:0:0:
477,81,111709,1,0,0:0:0:0:
479,61,112089,1,8,0:0:0:0:
420,92,112849,1,0,0:0:0:0:
424,90,113228,1,0,0:0:0:0:
429,66,113608,1,8,0:0:0:0:
423,75,114368,1,0,0:0:0:0:
431,62,114747,1,12,0:0:0:0:
