osu file format v14

[General]
AudioFilename: audio.mp3
AudioLeadIn: 0
PreviewTime: 54741
Countdown: 0
SampleSet: Normal
StackLeniency: 0.7
Mode: 3
LetterboxInBreaks: 0
SpecialStyle: 0
WidescreenStoryboard: 0

[Editor]
DistanceSpacing: 1.5
BeatDivisor: 4
GridSize: 16
TimelineZoom: 2

[Metadata]
Title:Formless Canvas
TitleUnicode:Formless Canvas
Artist:Toromaru
ArtistUnicode:とろまる
Creator:-mint-
Version:elexire's Insane
Source:
Tags:retromgp parasol pig jazz piano prog progressive elexire osu!mania 4k world cup 2022 mwc22 mwc 4k 2022 round of 16 ro16 long note ln3 mappers' guild mpg mg fa featured artist electronic instrumental
BeatmapID:4345089
BeatmapSetID:1796612

[Difficulty]
HPDrainRate:7.5
CircleSize:4
OverallDifficulty:7.3
ApproachRate:5
SliderMultiplier:1.4
SliderTickRate:1

[Events]
//Background and Video events
0,0,"bg.jpg",0,0
//Break Periods
//Storyboard Layer 0 (Background)
//Storyboard Layer 1 (Fail)
//Storyboard Layer 2 (Pass)
//Storyboard Layer 3 (Foreground)
//Storyboard Layer 4 (Overlay)
//Storyboard Sound Samples

[TimingPoints]
820,379.746835443038,4,1,1,50,1,0
14301,379.746835443038,4,1,1,50,1,0
17149,379.746835443038,4,1,1,50,1,0
19997,379.746835443038,4,1,1,50,1,0
22845,379.746835443038,4,1,1,50,1,0
39553,379.746835443038,3,1,1,50,1,0
48666,379.746835443038,4,1,1,50,1,0
60438,379.746835443038,4,1,1,50,1,0
66134,379.746835443038,4,1,1,50,1,0
84361,379.746835443038,3,1,1,50,1,0
93474,379.746835443038,7,1,1,50,1,0

[HitObjects]
448,192,250,5,0,0:0:0:0:
320,192,345,1,0,0:0:0:0:
192,192,440,1,0,0:0:0:0:
64,192,440,1,0,0:0:0:0:
448,192,820,128,0,914:0:0:0:0:
64,192,820,128,0,1009:0:0:0:0:
192,192,914,128,0,1009:0:0:0:0:
320,192,1009,128,0,1104:0:0:0:0:
448,192,1104,128,0,1199:0:0:0:0:
64,192,1199,128,0,1294:0:0:0:0:
320,192,1294,128,0,1389:0:0:0:0:
64,192,1389,128,0,1484:0:0:0:0:
448,192,1389,1,0,0:0:0:0:
192,192,1484,128,0,1579:0:0:0:0:
320,192,1579,128,0,1674:0:0:0:0:
448,192,1674,128,0,1864:0:0:0:0:
64,192,1769,128,0,1959:0:0:0:0:
320,192,1864,128,0,1959:0:0:0:0:
192,192,1959,128,0,2149:0:0:0:0:
448,192,1959,1,0,0:0:0:0:
64,192,2054,128,0,2149:0:0:0:0:
320,192,2149,128,0,2338:0:0:0:0:
448,192,2244,128,0,2338:0:0:0:0:
64,192,2338,128,0,2528:0:0:0:0:
320,192,2433,128,0,2528:0:0:0:0:
192,192,2528,128,0,2718:0:0:0:0:
320,192,2623,128,0,2718:0:0:0:0:
64,192,2718,128,0,2813:0:0:0:0:
448,192,2718,1,0,0:0:0:0:
192,192,2813,128,0,2908:0:0:0:0:
320,192,2908,128,0,3003:0:0:0:0:
64,192,3003,128,0,3098:0:0:0:0:
192,192,3098,128,0,3288:0:0:0:0:
448,192,3193,128,0,3288:0:0:0:0:
64,192,3288,128,0,3478:0:0:0:0:
320,192,3383,128,0,3478:0:0:0:0:
448,192,3478,128,0,3668:0:0:0:0:
192,192,3478,1,0,0:0:0:0:
64,192,3573,128,0,3668:0:0:0:0:
320,192,3668,1,0,0:0:0:0:
192,192,3763,1,0,0:0:0:0:
448,192,3857,128,0,3952:0:0:0:0:
64,192,3857,128,0,4047:0:0:0:0:
192,192,3952,128,0,4047:0:0:0:0:
320,192,4047,128,0,4237:0:0:0:0:
448,192,4142,128,0,4237:0:0:0:0:
64,192,4237,128,0,4332:0:0:0:0:
320,192,4332,128,0,4427:0:0:0:0:
64,192,4427,128,0,4617:0:0:0:0:
448,192,4427,1,0,0:0:0:0:
192,192,4522,128,0,4617:0:0:0:0:
320,192,4617,128,0,4712:0:0:0:0:
448,192,4712,128,0,4902:0:0:0:0:
64,192,4807,128,0,4997:0:0:0:0:
320,192,4902,128,0,4997:0:0:0:0:
192,192,4997,128,0,5187:0:0:0:0:
448,192,4997,1,0,0:0:0:0:
64,192,5092,128,0,5187:0:0:0:0:
320,192,5187,128,0,5376:0:0:0:0:
448,192,5282,128,0,5376:0:0:0:0:
64,192,5376,128,0,5566:0:0:0:0:
320,192,5471,128,0,5566:0:0:0:0:
448,192,5566,1,0,0:0:0:0:
192,192,5566,128,0,5756:0:0:0:0:
320,192,5661,128,0,5756:0:0:0:0:
448,192,5756,128,0,5851:0:0:0:0:
64,192,5756,1,0,0:0:0:0:
192,192,5851,128,0,5946:0:0:0:0:
320,192,5946,128,0,6041:0:0:0:0:
64,192,6041,128,0,6136:0:0:0:0:
320,192,6136,1,0,0:0:0:0:
192,192,6136,128,0,6326:0:0:0:0:
448,192,6231,128,0,6326:0:0:0:0:
64,192,6326,1,0,0:0:0:0:
320,192,6389,1,0,0:0:0:0:
192,192,6452,1,0,0:0:0:0:
448,192,6516,128,0,6706:0:0:0:0:
64,192,6516,1,0,0:0:0:0:
320,192,6611,128,0,6706:0:0:0:0:
192,192,6706,128,0,6895:0:0:0:0:
64,192,6801,128,0,6895:0:0:0:0:
320,192,6895,128,0,6990:0:0:0:0:
448,192,6895,128,0,7085:0:0:0:0:
192,192,6990,128,0,7180:0:0:0:0:
320,192,7085,128,0,7180:0:0:0:0:
448,192,7180,128,0,7275:0:0:0:0:
64,192,7275,128,0,7465:0:0:0:0:
192,192,7370,128,0,7465:0:0:0:0:
448,192,7465,1,0,0:0:0:0:
320,192,7465,128,0,7655:0:0:0:0:
64,192,7560,128,0,7655:0:0:0:0:
192,192,7655,128,0,7845:0:0:0:0:
448,192,7750,128,0,7845:0:0:0:0:
64,192,7845,128,0,8035:0:0:0:0:
448,192,7940,128,0,8035:0:0:0:0:
320,192,8035,1,0,0:0:0:0:
192,192,8035,128,0,8225:0:0:0:0:
64,192,8130,128,0,8225:0:0:0:0:
320,192,8225,128,0,8414:0:0:0:0:
64,192,8320,128,0,8414:0:0:0:0:
192,192,8414,128,0,8509:0:0:0:0:
448,192,8414,128,0,8604:0:0:0:0:
320,192,8509,128,0,8699:0:0:0:0:
192,192,8604,128,0,8699:0:0:0:0:
448,192,8699,128,0,8794:0:0:0:0:
192,192,8794,1,0,0:0:0:0:
64,192,8794,128,0,8984:0:0:0:0:
320,192,8889,128,0,8984:0:0:0:0:
192,192,8984,128,0,9174:0:0:0:0:
64,192,9079,128,0,9174:0:0:0:0:
320,192,9174,128,0,9364:0:0:0:0:
448,192,9269,128,0,9364:0:0:0:0:
64,192,9364,128,0,9554:0:0:0:0:
448,192,9459,128,0,9554:0:0:0:0:
320,192,9554,1,0,0:0:0:0:
192,192,9554,128,0,9744:0:0:0:0:
64,192,9649,128,0,9744:0:0:0:0:
448,192,9744,128,0,9933:0:0:0:0:
64,192,9838,128,0,9933:0:0:0:0:
320,192,9933,128,0,10123:0:0:0:0:
192,192,9933,128,0,10028:0:0:0:0:
448,192,10028,128,0,10218:0:0:0:0:
192,192,10123,128,0,10218:0:0:0:0:
320,192,10218,128,0,10313:0:0:0:0:
64,192,10313,128,0,10503:0:0:0:0:
448,192,10408,128,0,10503:0:0:0:0:
192,192,10503,128,0,10693:0:0:0:0:
320,192,10503,1,0,0:0:0:0:
64,192,10598,128,0,10693:0:0:0:0:
448,192,10693,128,0,10883:0:0:0:0:
320,192,10788,128,0,10883:0:0:0:0:
64,192,10883,128,0,11073:0:0:0:0:
320,192,10978,128,0,11073:0:0:0:0:
192,192,11073,128,0,11263:0:0:0:0:
448,192,11073,1,0,0:0:0:0:
64,192,11168,128,0,11263:0:0:0:0:
448,192,11263,128,0,11452:0:0:0:0:
320,192,11357,128,0,11452:0:0:0:0:
192,192,11452,128,0,11547:0:0:0:0:
64,192,11452,128,0,11642:0:0:0:0:
320,192,11547,128,0,11737:0:0:0:0:
192,192,11642,128,0,11737:0:0:0:0:
64,192,11737,128,0,11832:0:0:0:0:
192,192,11832,1,0,0:0:0:0:
448,192,11832,128,0,12022:0:0:0:0:
320,192,11927,128,0,12022:0:0:0:0:
64,192,12022,1,0,0:0:0:0:
192,192,12085,1,0,0:0:0:0:
448,192,12149,1,0,0:0:0:0:
320,192,12212,128,0,12402:0:0:0:0:
64,192,12307,128,0,12402:0:0:0:0:
448,192,12402,128,0,12592:0:0:0:0:
64,192,12497,128,0,12592:0:0:0:0:
320,192,12592,1,0,0:0:0:0:
192,192,12592,128,0,12782:0:0:0:0:
448,192,12687,128,0,12782:0:0:0:0:
320,192,12782,128,0,12971:0:0:0:0:
448,192,12876,128,0,12971:0:0:0:0:
64,192,12971,128,0,13351:0:0:0:0:
192,192,12971,128,0,13161:0:0:0:0:
448,192,13351,1,0,0:0:0:0:
320,192,13351,1,0,0:0:0:0:
192,192,13446,128,0,13541:0:0:0:0:
448,192,13541,128,0,13731:0:0:0:0:
320,192,13541,128,0,13731:0:0:0:0:
64,192,13731,128,0,13826:0:0:0:0:
320,192,13826,128,0,13921:0:0:0:0:
64,192,13921,128,0,14111:0:0:0:0:
448,192,13921,128,0,14111:0:0:0:0:
192,192,14111,1,0,0:0:0:0:
192,192,14301,128,0,14490:0:0:0:0:
448,192,14301,128,0,14680:0:0:0:0:
320,192,14680,128,0,14775:0:0:0:0:
64,192,14680,1,0,0:0:0:0:
192,192,14775,128,0,14870:0:0:0:0:
448,192,14870,128,0,15060:0:0:0:0:
64,192,14870,128,0,15060:0:0:0:0:
192,192,15060,128,0,15155:0:0:0:0:
448,192,15155,1,0,0:0:0:0:
192,192,15250,128,0,15440:0:0:0:0:
64,192,15250,128,0,15440:0:0:0:0:
448,192,15440,128,0,15535:0:0:0:0:
320,192,15440,128,0,15535:0:0:0:0:
64,192,15630,1,0,0:0:0:0:
320,192,15630,128,0,15819:0:0:0:0:
64,192,15819,128,0,16199:0:0:0:0:
192,192,15819,128,0,16009:0:0:0:0:
448,192,16199,1,0,0:0:0:0:
320,192,16199,1,0,0:0:0:0:
192,192,16294,128,0,16389:0:0:0:0:
448,192,16389,128,0,16579:0:0:0:0:
320,192,16389,128,0,16579:0:0:0:0:
64,192,16579,128,0,16674:0:0:0:0:
320,192,16674,128,0,16769:0:0:0:0:
64,192,16769,128,0,16959:0:0:0:0:
448,192,16769,128,0,16959:0:0:0:0:
192,192,16959,1,0,0:0:0:0:
192,192,17149,128,0,17338:0:0:0:0:
448,192,17149,128,0,17528:0:0:0:0:
320,192,17528,128,0,17623:0:0:0:0:
64,192,17528,1,0,0:0:0:0:
192,192,17623,128,0,17718:0:0:0:0:
448,192,17718,128,0,17908:0:0:0:0:
64,192,17718,128,0,17908:0:0:0:0:
192,192,17908,1,0,0:0:0:0:
320,192,17971,1,0,0:0:0:0:
448,192,18035,1,0,0:0:0:0:
64,192,18098,128,0,18193:0:0:0:0:
192,192,18193,1,0,0:0:0:0:
448,192,18288,128,0,18478:0:0:0:0:
64,192,18478,1,0,0:0:0:0:
320,192,18478,128,0,18667:0:0:0:0:
192,192,18667,128,0,18857:0:0:0:0:
64,192,18667,128,0,19047:0:0:0:0:
320,192,19047,128,0,19142:0:0:0:0:
448,192,19047,1,0,0:0:0:0:
192,192,19142,128,0,19237:0:0:0:0:
320,192,19237,128,0,19427:0:0:0:0:
448,192,19237,128,0,19427:0:0:0:0:
64,192,19427,128,0,19522:0:0:0:0:
320,192,19522,128,0,19617:0:0:0:0:
448,192,19617,128,0,19807:0:0:0:0:
64,192,19617,128,0,19807:0:0:0:0:
192,192,19807,1,0,0:0:0:0:
448,192,19997,128,0,20376:0:0:0:0:
192,192,19997,128,0,20186:0:0:0:0:
64,192,20376,1,0,0:0:0:0:
320,192,20376,128,0,20471:0:0:0:0:
192,192,20471,128,0,20566:0:0:0:0:
64,192,20566,128,0,20756:0:0:0:0:
448,192,20566,128,0,20756:0:0:0:0:
192,192,20756,128,0,20851:0:0:0:0:
448,192,20851,128,0,20946:0:0:0:0:
64,192,20946,128,0,21136:0:0:0:0:
192,192,20946,128,0,21136:0:0:0:0:
448,192,21136,128,0,21326:0:0:0:0:
320,192,21136,128,0,21231:0:0:0:0:
192,192,21231,1,0,0:0:0:0:
320,192,21326,128,0,21515:0:0:0:0:
64,192,21326,1,0,0:0:0:0:
192,192,21515,128,0,21705:0:0:0:0:
64,192,21515,128,0,21895:0:0:0:0:
320,192,21895,128,0,21990:0:0:0:0:
448,192,21895,1,0,0:0:0:0:
192,192,21990,128,0,22085:0:0:0:0:
320,192,22085,128,0,22275:0:0:0:0:
448,192,22085,128,0,22275:0:0:0:0:
64,192,22275,128,0,22370:0:0:0:0:
320,192,22370,128,0,22465:0:0:0:0:
448,192,22465,128,0,22655:0:0:0:0:
64,192,22465,128,0,22655:0:0:0:0:
192,192,22655,1,0,0:0:0:0:
448,192,22845,128,0,23224:0:0:0:0:
192,192,22845,128,0,23034:0:0:0:0:
64,192,23224,1,0,0:0:0:0:
320,192,23224,128,0,23319:0:0:0:0:
192,192,23319,128,0,23414:0:0:0:0:
64,192,23414,128,0,23604:0:0:0:0:
448,192,23414,128,0,23604:0:0:0:0:
192,192,23604,128,0,23699:0:0:0:0:
448,192,23699,128,0,23794:0:0:0:0:
64,192,23794,128,0,23984:0:0:0:0:
192,192,23794,128,0,23984:0:0:0:0:
448,192,23984,128,0,24174:0:0:0:0:
320,192,23984,128,0,24079:0:0:0:0:
64,192,24174,128,0,24269:0:0:0:0:
320,192,24174,128,0,24363:0:0:0:0:
192,192,24363,128,0,25123:0:0:0:0:
448,192,24363,128,0,25882:0:0:0:0:
320,192,25693,1,0,0:0:0:0:
192,192,25788,1,0,0:0:0:0:
64,192,25882,1,0,0:0:0:0:
192,192,26072,128,0,26262:0:0:0:0:
320,192,26262,128,0,26452:0:0:0:0:
448,192,26452,128,0,26642:0:0:0:0:
192,192,26642,128,0,26832:0:0:0:0:
320,192,26832,1,0,0:0:0:0:
192,192,26927,1,0,0:0:0:0:
64,192,27022,128,0,27212:0:0:0:0:
320,192,27022,128,0,27212:0:0:0:0:
448,192,27212,128,0,27401:0:0:0:0:
192,192,27401,1,0,0:0:0:0:
64,192,27401,128,0,27496:0:0:0:0:
320,192,27496,128,0,27591:0:0:0:0:
192,192,27686,128,0,27876:0:0:0:0:
448,192,27781,1,0,0:0:0:0:
64,192,27876,128,0,28066:0:0:0:0:
320,192,27971,128,0,28066:0:0:0:0:
320,192,28161,1,0,0:0:0:0:
64,192,28161,128,0,28256:0:0:0:0:
448,192,28256,128,0,28351:0:0:0:0:
192,192,28446,128,0,28636:0:0:0:0:
448,192,28446,128,0,28636:0:0:0:0:
64,192,28636,128,0,28731:0:0:0:0:
448,192,28731,128,0,28920:0:0:0:0:
320,192,28731,128,0,28920:0:0:0:0:
64,192,28920,1,0,0:0:0:0:
192,192,28920,128,0,29015:0:0:0:0:
320,192,29015,128,0,29110:0:0:0:0:
320,192,29205,128,0,29395:0:0:0:0:
64,192,29205,128,0,29395:0:0:0:0:
448,192,29300,1,0,0:0:0:0:
192,192,29395,128,0,29490:0:0:0:0:
448,192,29490,128,0,29680:0:0:0:0:
192,192,29680,128,0,29775:0:0:0:0:
320,192,29775,128,0,29870:0:0:0:0:
64,192,29870,128,0,29965:0:0:0:0:
320,192,29965,1,0,0:0:0:0:
448,192,29965,128,0,30060:0:0:0:0:
192,192,30155,128,0,30250:0:0:0:0:
448,192,30155,1,0,0:0:0:0:
320,192,30250,128,0,30439:0:0:0:0:
192,192,30439,1,0,0:0:0:0:
64,192,30439,128,0,30534:0:0:0:0:
320,192,30534,128,0,30629:0:0:0:0:
192,192,30724,128,0,30914:0:0:0:0:
448,192,30819,1,0,0:0:0:0:
64,192,30914,128,0,31104:0:0:0:0:
320,192,31009,128,0,31104:0:0:0:0:
64,192,31199,128,0,31294:0:0:0:0:
320,192,31199,1,0,0:0:0:0:
448,192,31294,128,0,31389:0:0:0:0:
64,192,31484,128,0,31674:0:0:0:0:
448,192,31484,128,0,31674:0:0:0:0:
192,192,31674,128,0,31769:0:0:0:0:
320,192,31769,128,0,31958:0:0:0:0:
448,192,31769,128,0,31958:0:0:0:0:
64,192,31958,128,0,32053:0:0:0:0:
192,192,31958,128,0,32053:0:0:0:0:
448,192,32053,128,0,32148:0:0:0:0:
320,192,32053,128,0,32148:0:0:0:0:
64,192,32243,1,0,0:0:0:0:
192,192,32338,128,0,32433:0:0:0:0:
320,192,32433,128,0,32528:0:0:0:0:
448,192,32528,128,0,32623:0:0:0:0:
192,192,32623,128,0,32718:0:0:0:0:
64,192,32718,128,0,32813:0:0:0:0:
320,192,32813,128,0,32908:0:0:0:0:
192,192,32908,128,0,33003:0:0:0:0:
320,192,33003,128,0,33098:0:0:0:0:
448,192,33098,128,0,33193:0:0:0:0:
64,192,33193,128,0,33288:0:0:0:0:
320,192,33288,128,0,33382:0:0:0:0:
192,192,33382,128,0,33477:0:0:0:0:
64,192,33477,128,0,33572:0:0:0:0:
448,192,33477,1,0,0:0:0:0:
320,192,33572,128,0,33667:0:0:0:0:
192,192,33667,128,0,33762:0:0:0:0:
64,192,33762,1,0,0:0:0:0:
320,192,33857,1,0,0:0:0:0:
192,192,33952,128,0,34047:0:0:0:0:
448,192,34047,128,0,34237:0:0:0:0:
64,192,34237,128,0,34332:0:0:0:0:
320,192,34332,128,0,34427:0:0:0:0:
192,192,34427,128,0,34522:0:0:0:0:
448,192,34522,128,0,34712:0:0:0:0:
64,192,34617,1,0,0:0:0:0:
320,192,34712,128,0,34807:0:0:0:0:
192,192,34807,1,0,0:0:0:0:
64,192,34807,128,0,34901:0:0:0:0:
448,192,34901,128,0,34996:0:0:0:0:
320,192,34996,128,0,35091:0:0:0:0:
64,192,35091,128,0,35186:0:0:0:0:
64,192,35281,128,0,35471:0:0:0:0:
320,192,35376,1,0,0:0:0:0:
192,192,35471,128,0,35661:0:0:0:0:
448,192,35566,1,0,0:0:0:0:
64,192,35661,128,0,35756:0:0:0:0:
320,192,35756,128,0,35946:0:0:0:0:
192,192,35851,128,0,35946:0:0:0:0:
64,192,35946,128,0,36136:0:0:0:0:
448,192,36041,128,0,36136:0:0:0:0:
320,192,36136,128,0,36326:0:0:0:0:
64,192,36231,128,0,36326:0:0:0:0:
192,192,36326,128,0,36420:0:0:0:0:
320,192,36420,128,0,36515:0:0:0:0:
64,192,36515,128,0,36610:0:0:0:0:
448,192,36515,1,0,0:0:0:0:
320,192,36610,128,0,36705:0:0:0:0:
192,192,36705,128,0,36800:0:0:0:0:
64,192,36800,1,0,0:0:0:0:
320,192,36895,1,0,0:0:0:0:
192,192,36990,128,0,37085:0:0:0:0:
448,192,37085,128,0,37275:0:0:0:0:
64,192,37275,128,0,37370:0:0:0:0:
320,192,37370,128,0,37465:0:0:0:0:
192,192,37465,128,0,37560:0:0:0:0:
448,192,37560,128,0,37750:0:0:0:0:
64,192,37655,1,0,0:0:0:0:
320,192,37750,128,0,37845:0:0:0:0:
192,192,37845,1,0,0:0:0:0:
64,192,37845,128,0,37939:0:0:0:0:
448,192,37939,128,0,38034:0:0:0:0:
64,192,38034,128,0,38129:0:0:0:0:
192,192,38034,128,0,38129:0:0:0:0:
448,192,38129,128,0,38224:0:0:0:0:
320,192,38129,128,0,38224:0:0:0:0:
192,192,38319,1,0,0:0:0:0:
448,192,38414,128,0,38509:0:0:0:0:
320,192,38509,128,0,38604:0:0:0:0:
192,192,38604,128,0,38699:0:0:0:0:
64,192,38699,128,0,38794:0:0:0:0:
320,192,38794,128,0,38889:0:0:0:0:
64,192,38889,128,0,38984:0:0:0:0:
192,192,38984,1,0,0:0:0:0:
448,192,39047,1,0,0:0:0:0:
320,192,39110,1,0,0:0:0:0:
64,192,39174,128,0,39269:0:0:0:0:
192,192,39269,128,0,39363:0:0:0:0:
448,192,39363,128,0,39458:0:0:0:0:
320,192,39363,1,0,0:0:0:0:
192,192,39458,128,0,39553:0:0:0:0:
448,192,39553,128,0,39837:0:0:0:0:
64,192,39553,128,0,39837:0:0:0:0:
192,192,39837,128,0,40122:0:0:0:0:
448,192,40122,128,0,40502:0:0:0:0:
64,192,40122,1,0,0:0:0:0:
320,192,40502,128,0,40692:0:0:0:0:
192,192,40692,128,0,40977:0:0:0:0:
448,192,40882,1,0,0:0:0:0:
320,192,40977,128,0,41261:0:0:0:0:
448,192,41261,128,0,41641:0:0:0:0:
64,192,41356,1,0,0:0:0:0:
192,192,41451,1,0,0:0:0:0:
320,192,41641,128,0,41831:0:0:0:0:
192,192,41831,128,0,42116:0:0:0:0:
320,192,42116,128,0,42401:0:0:0:0:
448,192,42401,1,0,0:0:0:0:
64,192,42401,128,0,42780:0:0:0:0:
448,192,42780,128,0,42970:0:0:0:0:
192,192,42970,128,0,43255:0:0:0:0:
64,192,43160,1,0,0:0:0:0:
320,192,43255,128,0,43540:0:0:0:0:
64,192,43540,128,0,43730:0:0:0:0:
192,192,43635,1,0,0:0:0:0:
448,192,43730,1,0,0:0:0:0:
320,192,43730,128,0,43920:0:0:0:0:
192,192,43920,128,0,44109:0:0:0:0:
320,192,44015,1,0,0:0:0:0:
448,192,44109,1,0,0:0:0:0:
64,192,44109,128,0,44394:0:0:0:0:
320,192,44394,128,0,44679:0:0:0:0:
192,192,44679,128,0,44869:0:0:0:0:
448,192,44679,1,0,0:0:0:0:
64,192,44869,128,0,45059:0:0:0:0:
448,192,45059,128,0,45249:0:0:0:0:
192,192,45249,128,0,45439:0:0:0:0:
320,192,45249,1,0,0:0:0:0:
448,192,45439,128,0,45628:0:0:0:0:
64,192,45439,1,0,0:0:0:0:
320,192,45628,128,0,45818:0:0:0:0:
64,192,45723,1,0,0:0:0:0:
192,192,45818,128,0,46103:0:0:0:0:
448,192,45913,128,0,46008:0:0:0:0:
64,192,46008,128,0,46388:0:0:0:0:
320,192,46008,128,0,46103:0:0:0:0:
448,192,46198,128,0,46388:0:0:0:0:
192,192,46388,128,0,46673:0:0:0:0:
320,192,46388,1,0,0:0:0:0:
64,192,46673,128,0,46958:0:0:0:0:
448,192,46768,1,0,0:0:0:0:
320,192,46958,128,0,47147:0:0:0:0:
192,192,46958,1,0,0:0:0:0:
448,192,47147,128,0,47337:0:0:0:0:
320,192,47337,1,0,0:0:0:0:
192,192,47337,128,0,47527:0:0:0:0:
448,192,47527,1,0,0:0:0:0:
64,192,47527,128,0,47622:0:0:0:0:
320,192,47622,128,0,47717:0:0:0:0:
64,192,47717,1,0,0:0:0:0:
192,192,47717,128,0,47812:0:0:0:0:
448,192,47812,128,0,47907:0:0:0:0:
64,192,47907,128,0,48002:0:0:0:0:
320,192,48002,128,0,48097:0:0:0:0:
448,192,48097,128,0,48192:0:0:0:0:
192,192,48192,128,0,48287:0:0:0:0:
64,192,48287,128,0,48382:0:0:0:0:
320,192,48287,1,0,0:0:0:0:
448,192,48382,128,0,48477:0:0:0:0:
320,192,48477,1,0,0:0:0:0:
192,192,48477,128,0,48666:0:0:0:0:
64,192,48666,128,0,48760:0:0:0:0:
448,192,48666,128,0,48855:0:0:0:0:
320,192,48760,128,0,48855:0:0:0:0:
192,192,48855,128,0,48950:0:0:0:0:
64,192,48950,128,0,49045:0:0:0:0:
448,192,49140,128,0,49235:0:0:0:0:
320,192,49235,128,0,49330:0:0:0:0:
64,192,49425,128,0,49520:0:0:0:0:
192,192,49520,128,0,49615:0:0:0:0:
320,192,49615,128,0,49710:0:0:0:0:
448,192,49710,128,0,49805:0:0:0:0:
192,192,49900,1,0,0:0:0:0:
448,192,49995,128,0,50184:0:0:0:0:
320,192,49995,128,0,50184:0:0:0:0:
64,192,50184,1,0,0:0:0:0:
320,192,50374,128,0,50469:0:0:0:0:
192,192,50469,128,0,50564:0:0:0:0:
64,192,50564,128,0,50659:0:0:0:0:
448,192,50564,1,0,0:0:0:0:
320,192,50659,128,0,50754:0:0:0:0:
448,192,50849,128,0,50944:0:0:0:0:
192,192,50944,128,0,51039:0:0:0:0:
64,192,51134,128,0,51229:0:0:0:0:
320,192,51229,128,0,51324:0:0:0:0:
448,192,51324,128,0,51419:0:0:0:0:
64,192,51324,1,0,0:0:0:0:
192,192,51419,128,0,51514:0:0:0:0:
320,192,51514,128,0,51703:0:0:0:0:
192,192,51609,128,0,51703:0:0:0:0:
64,192,51703,128,0,51798:0:0:0:0:
448,192,51703,128,0,51893:0:0:0:0:
320,192,51798,128,0,51893:0:0:0:0:
192,192,51893,128,0,51988:0:0:0:0:
64,192,51988,128,0,52083:0:0:0:0:
448,192,52178,128,0,52273:0:0:0:0:
320,192,52273,128,0,52368:0:0:0:0:
64,192,52463,128,0,52558:0:0:0:0:
192,192,52558,128,0,52653:0:0:0:0:
320,192,52653,128,0,52748:0:0:0:0:
448,192,52748,128,0,52843:0:0:0:0:
192,192,52938,1,0,0:0:0:0:
448,192,53033,128,0,53222:0:0:0:0:
320,192,53033,128,0,53222:0:0:0:0:
64,192,53222,128,0,53412:0:0:0:0:
192,192,53317,128,0,53412:0:0:0:0:
320,192,53412,128,0,53602:0:0:0:0:
448,192,53507,128,0,53602:0:0:0:0:
64,192,53602,128,0,53697:0:0:0:0:
320,192,53697,128,0,53792:0:0:0:0:
64,192,53792,128,0,53887:0:0:0:0:
192,192,53887,128,0,53982:0:0:0:0:
448,192,53982,128,0,54172:0:0:0:0:
64,192,54077,128,0,54172:0:0:0:0:
192,192,54172,128,0,54362:0:0:0:0:
448,192,54267,128,0,54362:0:0:0:0:
64,192,54362,128,0,54457:0:0:0:0:
320,192,54457,128,0,54552:0:0:0:0:
192,192,54552,128,0,54647:0:0:0:0:
448,192,54647,128,0,54741:0:0:0:0:
64,192,54741,128,0,54931:0:0:0:0:
320,192,54741,128,0,54836:0:0:0:0:
192,192,54836,128,0,54931:0:0:0:0:
320,192,54931,128,0,55121:0:0:0:0:
64,192,55026,128,0,55121:0:0:0:0:
448,192,55121,128,0,55216:0:0:0:0:
192,192,55121,128,0,55311:0:0:0:0:
320,192,55216,128,0,55311:0:0:0:0:
448,192,55311,128,0,55501:0:0:0:0:
192,192,55406,128,0,55501:0:0:0:0:
320,192,55501,128,0,55691:0:0:0:0:
192,192,55596,128,0,55691:0:0:0:0:
64,192,55691,128,0,55786:0:0:0:0:
320,192,55786,128,0,55881:0:0:0:0:
448,192,55881,1,0,0:0:0:0:
192,192,55881,128,0,55976:0:0:0:0:
64,192,55976,128,0,56166:0:0:0:0:
320,192,56071,128,0,56166:0:0:0:0:
448,192,56166,128,0,56260:0:0:0:0:
320,192,56260,128,0,56355:0:0:0:0:
64,192,56260,128,0,56450:0:0:0:0:
192,192,56355,128,0,56450:0:0:0:0:
320,192,56450,128,0,56640:0:0:0:0:
64,192,56545,128,0,56640:0:0:0:0:
192,192,56640,128,0,56735:0:0:0:0:
448,192,56640,128,0,56830:0:0:0:0:
320,192,56735,128,0,56830:0:0:0:0:
64,192,56830,128,0,56925:0:0:0:0:
192,192,56925,128,0,57020:0:0:0:0:
448,192,57020,128,0,57115:0:0:0:0:
320,192,57020,128,0,57210:0:0:0:0:
64,192,57115,128,0,57210:0:0:0:0:
192,192,57210,128,0,57400:0:0:0:0:
320,192,57305,128,0,57400:0:0:0:0:
448,192,57400,128,0,57495:0:0:0:0:
64,192,57400,128,0,57590:0:0:0:0:
320,192,57495,128,0,57590:0:0:0:0:
192,192,57590,128,0,57684:0:0:0:0:
448,192,57684,128,0,57779:0:0:0:0:
320,192,57779,128,0,57874:0:0:0:0:
64,192,57779,128,0,57969:0:0:0:0:
192,192,57874,128,0,57969:0:0:0:0:
320,192,57969,128,0,58159:0:0:0:0:
64,192,58064,128,0,58159:0:0:0:0:
448,192,58159,128,0,58254:0:0:0:0:
192,192,58159,128,0,58349:0:0:0:0:
320,192,58254,128,0,58349:0:0:0:0:
448,192,58349,128,0,58539:0:0:0:0:
192,192,58444,128,0,58539:0:0:0:0:
320,192,58539,128,0,58729:0:0:0:0:
192,192,58634,128,0,58729:0:0:0:0:
64,192,58729,128,0,58824:0:0:0:0:
320,192,58824,128,0,58919:0:0:0:0:
448,192,58919,1,0,0:0:0:0:
192,192,58919,128,0,59014:0:0:0:0:
64,192,59014,128,0,59203:0:0:0:0:
320,192,59109,128,0,59203:0:0:0:0:
448,192,59203,128,0,59298:0:0:0:0:
192,192,59298,128,0,59488:0:0:0:0:
64,192,59298,128,0,59488:0:0:0:0:
448,192,59488,1,0,0:0:0:0:
320,192,59583,128,0,59773:0:0:0:0:
64,192,59583,128,0,59773:0:0:0:0:
448,192,59773,1,0,0:0:0:0:
320,192,59868,128,0,60058:0:0:0:0:
192,192,59868,128,0,60058:0:0:0:0:
64,192,60058,1,0,0:0:0:0:
448,192,60248,128,0,60343:0:0:0:0:
320,192,60248,128,0,60343:0:0:0:0:
64,192,60438,128,0,60627:0:0:0:0:
320,192,60438,128,0,60532:0:0:0:0:
192,192,60532,128,0,60627:0:0:0:0:
320,192,60627,128,0,60817:0:0:0:0:
64,192,60722,128,0,60817:0:0:0:0:
448,192,60817,128,0,60912:0:0:0:0:
192,192,60817,128,0,61007:0:0:0:0:
320,192,60912,128,0,61007:0:0:0:0:
448,192,61007,128,0,61197:0:0:0:0:
192,192,61102,128,0,61197:0:0:0:0:
320,192,61197,128,0,61387:0:0:0:0:
192,192,61292,128,0,61387:0:0:0:0:
64,192,61387,128,0,61482:0:0:0:0:
320,192,61482,128,0,61577:0:0:0:0:
448,192,61577,1,0,0:0:0:0:
192,192,61577,128,0,61672:0:0:0:0:
64,192,61672,128,0,61862:0:0:0:0:
320,192,61767,128,0,61862:0:0:0:0:
448,192,61862,128,0,61956:0:0:0:0:
320,192,61956,128,0,62146:0:0:0:0:
64,192,61956,128,0,62051:0:0:0:0:
192,192,62051,128,0,62146:0:0:0:0:
448,192,62146,128,0,62241:0:0:0:0:
64,192,62241,128,0,62336:0:0:0:0:
320,192,62336,128,0,62526:0:0:0:0:
192,192,62336,1,0,0:0:0:0:
448,192,62431,128,0,62526:0:0:0:0:
64,192,62526,128,0,62621:0:0:0:0:
320,192,62621,128,0,62716:0:0:0:0:
192,192,62716,128,0,62906:0:0:0:0:
448,192,62811,1,0,0:0:0:0:
64,192,62811,128,0,62906:0:0:0:0:
320,192,62906,128,0,63096:0:0:0:0:
192,192,63001,128,0,63096:0:0:0:0:
448,192,63096,128,0,63191:0:0:0:0:
64,192,63096,128,0,63286:0:0:0:0:
320,192,63191,128,0,63286:0:0:0:0:
192,192,63286,128,0,63381:0:0:0:0:
448,192,63381,128,0,63475:0:0:0:0:
64,192,63475,128,0,63665:0:0:0:0:
320,192,63475,128,0,63570:0:0:0:0:
192,192,63570,128,0,63665:0:0:0:0:
320,192,63665,128,0,63855:0:0:0:0:
64,192,63760,128,0,63855:0:0:0:0:
192,192,63855,128,0,64045:0:0:0:0:
448,192,63855,128,0,63950:0:0:0:0:
320,192,63950,128,0,64045:0:0:0:0:
448,192,64045,128,0,64235:0:0:0:0:
192,192,64140,128,0,64235:0:0:0:0:
320,192,64235,128,0,64425:0:0:0:0:
192,192,64330,128,0,64425:0:0:0:0:
64,192,64425,128,0,64520:0:0:0:0:
448,192,64520,128,0,64615:0:0:0:0:
64,192,64615,1,0,0:0:0:0:
192,192,64615,128,0,64710:0:0:0:0:
448,192,64710,128,0,64805:0:0:0:0:
192,192,64805,1,0,0:0:0:0:
320,192,64868,1,0,0:0:0:0:
448,192,64931,1,0,0:0:0:0:
64,192,64994,128,0,65184:0:0:0:0:
192,192,64994,128,0,65184:0:0:0:0:
448,192,65184,1,0,0:0:0:0:
64,192,65279,128,0,65469:0:0:0:0:
320,192,65279,128,0,65469:0:0:0:0:
448,192,65469,1,0,0:0:0:0:
192,192,65564,128,0,65754:0:0:0:0:
320,192,65564,128,0,65754:0:0:0:0:
64,192,65754,1,0,0:0:0:0:
320,192,65944,128,0,66039:0:0:0:0:
448,192,65944,128,0,66039:0:0:0:0:
64,192,66039,1,0,0:0:0:0:
320,192,66134,128,0,66323:0:0:0:0:
192,192,66134,128,0,66323:0:0:0:0:
64,192,66323,1,0,0:0:0:0:
320,192,66418,128,0,66513:0:0:0:0:
192,192,66513,128,0,66703:0:0:0:0:
64,192,66608,128,0,66703:0:0:0:0:
448,192,66703,1,0,0:0:0:0:
320,192,66798,128,0,66893:0:0:0:0:
192,192,66988,128,0,67273:0:0:0:0:
448,192,67083,128,0,67273:0:0:0:0:
320,192,67273,1,0,0:0:0:0:
64,192,67273,128,0,67463:0:0:0:0:
448,192,67368,128,0,67463:0:0:0:0:
320,192,67558,128,0,67747:0:0:0:0:
192,192,67558,128,0,67747:0:0:0:0:
192,192,67842,1,0,0:0:0:0:
320,192,67937,128,0,68032:0:0:0:0:
448,192,68032,128,0,68222:0:0:0:0:
64,192,68032,128,0,68127:0:0:0:0:
192,192,68127,128,0,68412:0:0:0:0:
448,192,68317,1,0,0:0:0:0:
320,192,68412,1,0,0:0:0:0:
64,192,68507,128,0,68602:0:0:0:0:
320,192,68602,128,0,68697:0:0:0:0:
192,192,68697,128,0,68792:0:0:0:0:
448,192,68792,128,0,68982:0:0:0:0:
64,192,68792,1,0,0:0:0:0:
320,192,68887,128,0,68982:0:0:0:0:
192,192,68982,1,0,0:0:0:0:
448,192,69077,1,0,0:0:0:0:
320,192,69171,128,0,69361:0:0:0:0:
192,192,69171,128,0,69361:0:0:0:0:
64,192,69361,1,0,0:0:0:0:
320,192,69456,128,0,69551:0:0:0:0:
192,192,69551,128,0,69741:0:0:0:0:
64,192,69646,128,0,69741:0:0:0:0:
448,192,69741,1,0,0:0:0:0:
320,192,69836,128,0,69931:0:0:0:0:
192,192,70026,128,0,70311:0:0:0:0:
448,192,70121,128,0,70311:0:0:0:0:
320,192,70311,1,0,0:0:0:0:
64,192,70311,128,0,70501:0:0:0:0:
448,192,70406,128,0,70501:0:0:0:0:
320,192,70596,128,0,70785:0:0:0:0:
192,192,70596,128,0,70785:0:0:0:0:
192,192,70880,1,0,0:0:0:0:
320,192,70975,128,0,71070:0:0:0:0:
448,192,71070,128,0,71260:0:0:0:0:
64,192,71070,128,0,71165:0:0:0:0:
192,192,71165,128,0,71450:0:0:0:0:
448,192,71355,1,0,0:0:0:0:
320,192,71450,1,0,0:0:0:0:
64,192,71545,128,0,71640:0:0:0:0:
448,192,71640,1,0,0:0:0:0:
320,192,71703,1,0,0:0:0:0:
192,192,71766,1,0,0:0:0:0:
448,192,71830,128,0,72020:0:0:0:0:
64,192,71830,1,0,0:0:0:0:
320,192,71925,128,0,72020:0:0:0:0:
64,192,72020,128,0,72209:0:0:0:0:
192,192,72115,128,0,72209:0:0:0:0:
448,192,72209,128,0,72399:0:0:0:0:
320,192,72209,128,0,72399:0:0:0:0:
64,192,72399,1,0,0:0:0:0:
448,192,72494,128,0,72589:0:0:0:0:
192,192,72589,1,0,0:0:0:0:
320,192,72684,128,0,72779:0:0:0:0:
64,192,72779,128,0,72874:0:0:0:0:
448,192,72779,1,0,0:0:0:0:
192,192,72874,128,0,73064:0:0:0:0:
64,192,73064,128,0,73159:0:0:0:0:
448,192,73064,128,0,73159:0:0:0:0:
320,192,73159,128,0,73254:0:0:0:0:
192,192,73254,128,0,73349:0:0:0:0:
448,192,73349,128,0,73444:0:0:0:0:
320,192,73349,128,0,73539:0:0:0:0:
64,192,73444,128,0,73539:0:0:0:0:
448,192,73634,128,0,73823:0:0:0:0:
192,192,73634,1,0,0:0:0:0:
64,192,73823,128,0,73918:0:0:0:0:
320,192,73918,128,0,74013:0:0:0:0:
192,192,74013,128,0,74108:0:0:0:0:
448,192,74108,1,0,0:0:0:0:
320,192,74203,128,0,74298:0:0:0:0:
192,192,74298,128,0,74393:0:0:0:0:
64,192,74393,128,0,74583:0:0:0:0:
448,192,74488,1,0,0:0:0:0:
320,192,74583,128,0,74773:0:0:0:0:
448,192,74678,128,0,74773:0:0:0:0:
64,192,74773,128,0,74868:0:0:0:0:
320,192,74868,128,0,75058:0:0:0:0:
192,192,74868,1,0,0:0:0:0:
64,192,74963,128,0,75058:0:0:0:0:
192,192,75058,128,0,75247:0:0:0:0:
320,192,75152,128,0,75247:0:0:0:0:
64,192,75247,128,0,75342:0:0:0:0:
448,192,75247,128,0,75342:0:0:0:0:
64,192,75437,1,0,0:0:0:0:
448,192,75532,128,0,75627:0:0:0:0:
192,192,75627,128,0,75722:0:0:0:0:
448,192,75722,128,0,75817:0:0:0:0:
64,192,75817,128,0,76007:0:0:0:0:
320,192,75817,1,0,0:0:0:0:
192,192,75912,128,0,76007:0:0:0:0:
64,192,76102,128,0,76197:0:0:0:0:
448,192,76102,128,0,76292:0:0:0:0:
192,192,76197,128,0,76292:0:0:0:0:
320,192,76292,128,0,76387:0:0:0:0:
64,192,76387,128,0,76482:0:0:0:0:
448,192,76387,1,0,0:0:0:0:
320,192,76482,128,0,76577:0:0:0:0:
192,192,76577,128,0,76671:0:0:0:0:
320,192,76671,128,0,76861:0:0:0:0:
64,192,76766,1,0,0:0:0:0:
192,192,76861,128,0,77051:0:0:0:0:
320,192,76956,1,0,0:0:0:0:
448,192,77051,128,0,77241:0:0:0:0:
192,192,77146,1,0,0:0:0:0:
64,192,77146,128,0,77241:0:0:0:0:
320,192,77241,128,0,77336:0:0:0:0:
64,192,77336,1,0,0:0:0:0:
448,192,77399,1,0,0:0:0:0:
192,192,77463,1,0,0:0:0:0:
320,192,77526,128,0,77621:0:0:0:0:
64,192,77621,128,0,77811:0:0:0:0:
448,192,77716,128,0,77811:0:0:0:0:
320,192,77811,128,0,77906:0:0:0:0:
448,192,77906,128,0,78001:0:0:0:0:
192,192,77906,128,0,78096:0:0:0:0:
64,192,78001,128,0,78096:0:0:0:0:
320,192,78096,128,0,78285:0:0:0:0:
192,192,78190,128,0,78285:0:0:0:0:
448,192,78285,128,0,78380:0:0:0:0:
64,192,78285,128,0,78475:0:0:0:0:
192,192,78380,128,0,78475:0:0:0:0:
320,192,78475,128,0,78570:0:0:0:0:
64,192,78570,128,0,78665:0:0:0:0:
448,192,78665,128,0,78760:0:0:0:0:
320,192,78665,1,0,0:0:0:0:
192,192,78760,128,0,78855:0:0:0:0:
64,192,78855,128,0,78950:0:0:0:0:
448,192,78950,128,0,79045:0:0:0:0:
64,192,79045,128,0,79140:0:0:0:0:
320,192,79140,128,0,79235:0:0:0:0:
448,192,79235,128,0,79330:0:0:0:0:
192,192,79330,128,0,79425:0:0:0:0:
64,192,79330,1,0,0:0:0:0:
320,192,79425,128,0,79520:0:0:0:0:
448,192,79425,1,0,0:0:0:0:
64,192,79520,128,0,79615:0:0:0:0:
320,192,79615,128,0,79709:0:0:0:0:
192,192,79709,128,0,79804:0:0:0:0:
64,192,79804,128,0,79994:0:0:0:0:
448,192,79899,128,0,79994:0:0:0:0:
192,192,79994,128,0,80089:0:0:0:0:
320,192,80089,128,0,80184:0:0:0:0:
448,192,80184,1,0,0:0:0:0:
64,192,80184,128,0,80279:0:0:0:0:
192,192,80279,128,0,80374:0:0:0:0:
448,192,80374,128,0,80469:0:0:0:0:
64,192,80469,128,0,80564:0:0:0:0:
320,192,80564,128,0,80659:0:0:0:0:
192,192,80659,128,0,80754:0:0:0:0:
448,192,80754,128,0,80849:0:0:0:0:
192,192,80849,1,0,0:0:0:0:
64,192,80849,1,0,0:0:0:0:
320,192,80944,128,0,81039:0:0:0:0:
448,192,80944,1,0,0:0:0:0:
64,192,81039,128,0,81134:0:0:0:0:
320,192,81134,128,0,81228:0:0:0:0:
192,192,81228,128,0,81323:0:0:0:0:
448,192,81323,128,0,81513:0:0:0:0:
64,192,81323,128,0,81418:0:0:0:0:
320,192,81418,128,0,81513:0:0:0:0:
64,192,81513,128,0,81608:0:0:0:0:
448,192,81608,128,0,81703:0:0:0:0:
192,192,81703,128,0,81798:0:0:0:0:
320,192,81703,1,0,0:0:0:0:
64,192,81798,128,0,81893:0:0:0:0:
320,192,81893,128,0,81988:0:0:0:0:
192,192,81988,128,0,82083:0:0:0:0:
64,192,82083,128,0,82178:0:0:0:0:
448,192,82178,128,0,82273:0:0:0:0:
192,192,82273,128,0,82368:0:0:0:0:
320,192,82368,128,0,82463:0:0:0:0:
448,192,82368,1,0,0:0:0:0:
64,192,82463,128,0,82558:0:0:0:0:
192,192,82463,1,0,0:0:0:0:
320,192,82558,128,0,82652:0:0:0:0:
448,192,82652,128,0,82747:0:0:0:0:
64,192,82747,128,0,82842:0:0:0:0:
192,192,82842,128,0,83032:0:0:0:0:
320,192,82937,128,0,83032:0:0:0:0:
64,192,83032,128,0,83127:0:0:0:0:
448,192,83127,128,0,83222:0:0:0:0:
192,192,83222,128,0,83317:0:0:0:0:
320,192,83317,128,0,83412:0:0:0:0:
192,192,83412,1,0,0:0:0:0:
64,192,83412,1,0,0:0:0:0:
448,192,83507,1,0,0:0:0:0:
320,192,83507,1,0,0:0:0:0:
64,192,83602,128,0,83697:0:0:0:0:
320,192,83697,128,0,83792:0:0:0:0:
192,192,83697,1,0,0:0:0:0:
448,192,83792,128,0,83887:0:0:0:0:
192,192,83887,128,0,83982:0:0:0:0:
320,192,83982,1,0,0:0:0:0:
64,192,83982,128,0,84077:0:0:0:0:
448,192,84077,128,0,84171:0:0:0:0:
320,192,84171,128,0,84266:0:0:0:0:
192,192,84266,128,0,84361:0:0:0:0:
448,192,84361,128,0,84455:0:0:0:0:
64,192,84361,128,0,84550:0:0:0:0:
320,192,84455,128,0,84550:0:0:0:0:
192,192,84550,128,0,84740:0:0:0:0:
320,192,84645,128,0,84740:0:0:0:0:
64,192,84740,1,0,0:0:0:0:
448,192,84740,128,0,84835:0:0:0:0:
192,192,84930,128,0,85025:0:0:0:0:
64,192,85025,128,0,85120:0:0:0:0:
448,192,85120,128,0,85310:0:0:0:0:
64,192,85215,128,0,85310:0:0:0:0:
320,192,85310,128,0,85500:0:0:0:0:
192,192,85405,128,0,85500:0:0:0:0:
64,192,85500,128,0,85690:0:0:0:0:
448,192,85500,128,0,85595:0:0:0:0:
320,192,85595,128,0,85690:0:0:0:0:
192,192,85690,128,0,85879:0:0:0:0:
320,192,85785,128,0,85879:0:0:0:0:
448,192,85879,128,0,85974:0:0:0:0:
320,192,86069,1,0,0:0:0:0:
64,192,86069,128,0,86164:0:0:0:0:
448,192,86164,128,0,86259:0:0:0:0:
192,192,86259,128,0,86449:0:0:0:0:
448,192,86354,128,0,86449:0:0:0:0:
320,192,86449,128,0,86639:0:0:0:0:
64,192,86449,1,0,0:0:0:0:
192,192,86544,128,0,86639:0:0:0:0:
448,192,86639,128,0,86734:0:0:0:0:
64,192,86639,128,0,86829:0:0:0:0:
320,192,86734,128,0,86829:0:0:0:0:
192,192,86829,128,0,87019:0:0:0:0:
320,192,86924,128,0,87019:0:0:0:0:
448,192,87019,128,0,87114:0:0:0:0:
64,192,87019,1,0,0:0:0:0:
192,192,87209,128,0,87304:0:0:0:0:
64,192,87304,128,0,87398:0:0:0:0:
448,192,87398,128,0,87588:0:0:0:0:
64,192,87493,128,0,87588:0:0:0:0:
320,192,87588,128,0,87778:0:0:0:0:
192,192,87683,128,0,87778:0:0:0:0:
64,192,87778,128,0,87968:0:0:0:0:
448,192,87778,128,0,87873:0:0:0:0:
320,192,87873,128,0,87968:0:0:0:0:
192,192,87968,128,0,88158:0:0:0:0:
320,192,88063,128,0,88158:0:0:0:0:
64,192,88158,128,0,88253:0:0:0:0:
448,192,88158,128,0,88253:0:0:0:0:
448,192,88348,1,0,0:0:0:0:
192,192,88348,128,0,88443:0:0:0:0:
64,192,88443,128,0,88538:0:0:0:0:
192,192,88538,128,0,88633:0:0:0:0:
320,192,88538,1,0,0:0:0:0:
448,192,88633,128,0,88728:0:0:0:0:
192,192,88728,1,0,0:0:0:0:
64,192,88728,128,0,88823:0:0:0:0:
320,192,88823,128,0,88917:0:0:0:0:
64,192,88917,128,0,89107:0:0:0:0:
448,192,88917,128,0,89012:0:0:0:0:
320,192,89012,128,0,89107:0:0:0:0:
192,192,89107,128,0,89297:0:0:0:0:
320,192,89202,128,0,89297:0:0:0:0:
64,192,89297,128,0,89392:0:0:0:0:
448,192,89297,128,0,89392:0:0:0:0:
192,192,89487,128,0,89582:0:0:0:0:
64,192,89582,128,0,89677:0:0:0:0:
320,192,89677,1,0,0:0:0:0:
448,192,89677,128,0,89867:0:0:0:0:
64,192,89772,128,0,89867:0:0:0:0:
320,192,89867,128,0,90057:0:0:0:0:
192,192,89962,128,0,90057:0:0:0:0:
64,192,90057,128,0,90247:0:0:0:0:
448,192,90057,128,0,90152:0:0:0:0:
320,192,90152,128,0,90247:0:0:0:0:
192,192,90247,128,0,90436:0:0:0:0:
320,192,90342,128,0,90436:0:0:0:0:
64,192,90436,128,0,90531:0:0:0:0:
448,192,90436,128,0,90531:0:0:0:0:
64,192,90626,128,0,90721:0:0:0:0:
448,192,90721,128,0,90816:0:0:0:0:
320,192,90816,1,0,0:0:0:0:
192,192,90816,128,0,91006:0:0:0:0:
448,192,90911,128,0,91006:0:0:0:0:
320,192,91006,128,0,91196:0:0:0:0:
64,192,91006,1,0,0:0:0:0:
192,192,91101,128,0,91196:0:0:0:0:
448,192,91196,128,0,91291:0:0:0:0:
64,192,91196,128,0,91386:0:0:0:0:
320,192,91291,128,0,91386:0:0:0:0:
192,192,91386,128,0,91576:0:0:0:0:
320,192,91481,128,0,91576:0:0:0:0:
64,192,91576,128,0,91671:0:0:0:0:
448,192,91576,128,0,91671:0:0:0:0:
192,192,91766,128,0,91861:0:0:0:0:
64,192,91861,128,0,91955:0:0:0:0:
320,192,91955,1,0,0:0:0:0:
448,192,91955,128,0,92145:0:0:0:0:
64,192,92050,128,0,92145:0:0:0:0:
320,192,92145,128,0,92335:0:0:0:0:
192,192,92240,128,0,92335:0:0:0:0:
64,192,92335,128,0,92525:0:0:0:0:
448,192,92335,128,0,92430:0:0:0:0:
320,192,92430,128,0,92525:0:0:0:0:
192,192,92525,128,0,92620:0:0:0:0:
448,192,92620,128,0,92715:0:0:0:0:
64,192,92715,128,0,92810:0:0:0:0:
320,192,92810,1,0,0:0:0:0:
448,192,92905,1,0,0:0:0:0:
192,192,92905,1,0,0:0:0:0:
64,192,93000,1,0,0:0:0:0:
320,192,93095,128,0,93285:0:0:0:0:
192,192,93190,128,0,93474:0:0:0:0:
448,192,93285,128,0,93379:0:0:0:0:
64,192,93379,128,0,93474:0:0:0:0:
448,192,93474,128,0,93663:0:0:0:0:
320,192,93474,128,0,93663:0:0:0:0:
64,192,93663,128,0,93853:0:0:0:0:
192,192,93758,1,0,0:0:0:0:
320,192,93853,128,0,93948:0:0:0:0:
448,192,93853,1,0,0:0:0:0:
64,192,94043,1,0,0:0:0:0:
192,192,94138,1,0,0:0:0:0:
448,192,94138,128,0,94233:0:0:0:0:
320,192,94328,1,0,0:0:0:0:
192,192,94328,128,0,94423:0:0:0:0:
64,192,94423,128,0,94518:0:0:0:0:
448,192,94613,128,0,94708:0:0:0:0:
64,192,94613,128,0,94803:0:0:0:0:
192,192,94803,128,0,94898:0:0:0:0:
320,192,94898,128,0,94992:0:0:0:0:
64,192,94992,1,0,0:0:0:0:
448,192,95087,128,0,95182:0:0:0:0:
192,192,95182,1,0,0:0:0:0:
64,192,95277,128,0,95467:0:0:0:0:
320,192,95372,1,0,0:0:0:0:
192,192,95467,128,0,95657:0:0:0:0:
448,192,95562,128,0,95752:0:0:0:0:
64,192,95657,128,0,95752:0:0:0:0:
320,192,95752,128,0,95942:0:0:0:0:
192,192,95847,128,0,96132:0:0:0:0:
64,192,95942,128,0,96132:0:0:0:0:
448,192,96132,128,0,96322:0:0:0:0:
320,192,96132,128,0,96322:0:0:0:0:
64,192,96322,128,0,96511:0:0:0:0:
192,192,96417,1,0,0:0:0:0:
320,192,96511,128,0,96606:0:0:0:0:
448,192,96511,1,0,0:0:0:0:
64,192,96701,1,0,0:0:0:0:
192,192,96796,1,0,0:0:0:0:
448,192,96796,128,0,96891:0:0:0:0:
192,192,96986,128,0,97081:0:0:0:0:
320,192,96986,1,0,0:0:0:0:
64,192,97081,128,0,97176:0:0:0:0:
320,192,97176,128,0,97271:0:0:0:0:
448,192,97271,128,0,97366:0:0:0:0:
64,192,97271,128,0,97461:0:0:0:0:
192,192,97461,128,0,97556:0:0:0:0:
320,192,97556,1,0,0:0:0:0:
64,192,97651,128,0,97841:0:0:0:0:
448,192,97651,1,0,0:0:0:0:
192,192,97746,128,0,97841:0:0:0:0:
320,192,97841,128,0,98030:0:0:0:0:
64,192,97936,128,0,98030:0:0:0:0:
192,192,98030,128,0,98220:0:0:0:0:
448,192,98030,128,0,98125:0:0:0:0:
320,192,98125,128,0,98220:0:0:0:0:
64,192,98220,128,0,98315:0:0:0:0:
320,192,98315,1,0,0:0:0:0:
448,192,98315,128,0,98410:0:0:0:0:
192,192,98410,128,0,98600:0:0:0:0:
64,192,98505,128,0,98600:0:0:0:0:
320,192,98600,128,0,98695:0:0:0:0:
64,192,98695,128,0,98790:0:0:0:0:
320,192,98790,128,0,98980:0:0:0:0:
448,192,98790,128,0,98980:0:0:0:0:
64,192,98980,128,0,99170:0:0:0:0:
192,192,99075,1,0,0:0:0:0:
448,192,99170,1,0,0:0:0:0:
320,192,99170,128,0,99265:0:0:0:0:
64,192,99360,1,0,0:0:0:0:
192,192,99455,1,0,0:0:0:0:
448,192,99455,128,0,99549:0:0:0:0:
320,192,99644,1,0,0:0:0:0:
192,192,99644,128,0,99739:0:0:0:0:
64,192,99739,128,0,99834:0:0:0:0:
64,192,99929,128,0,100119:0:0:0:0:
448,192,99929,128,0,100024:0:0:0:0:
192,192,100119,128,0,100214:0:0:0:0:
320,192,100214,128,0,100309:0:0:0:0:
64,192,100309,1,0,0:0:0:0:
448,192,100404,128,0,100499:0:0:0:0:
192,192,100499,1,0,0:0:0:0:
64,192,100594,128,0,100784:0:0:0:0:
320,192,100689,1,0,0:0:0:0:
192,192,100784,128,0,100974:0:0:0:0:
448,192,100879,128,0,101068:0:0:0:0:
64,192,100974,128,0,101068:0:0:0:0:
320,192,101068,128,0,101258:0:0:0:0:
192,192,101163,128,0,101448:0:0:0:0:
64,192,101258,128,0,101448:0:0:0:0:
448,192,101448,128,0,101638:0:0:0:0:
320,192,101448,128,0,101638:0:0:0:0:
64,192,101638,128,0,101828:0:0:0:0:
192,192,101733,1,0,0:0:0:0:
320,192,101828,128,0,101923:0:0:0:0:
448,192,101828,1,0,0:0:0:0:
64,192,102018,1,0,0:0:0:0:
192,192,102113,1,0,0:0:0:0:
448,192,102113,128,0,102208:0:0:0:0:
192,192,102303,128,0,102398:0:0:0:0:
320,192,102303,1,0,0:0:0:0:
64,192,102398,128,0,102492:0:0:0:0:
320,192,102492,128,0,102587:0:0:0:0:
448,192,102587,128,0,102682:0:0:0:0:
64,192,102587,128,0,102777:0:0:0:0:
192,192,102777,128,0,102872:0:0:0:0:
320,192,102872,1,0,0:0:0:0:
448,192,102967,128,0,103157:0:0:0:0:
64,192,102967,128,0,103157:0:0:0:0:
192,192,103062,128,0,103157:0:0:0:0:
320,192,103157,128,0,103347:0:0:0:0:
64,192,103252,128,0,103347:0:0:0:0:
192,192,103347,128,0,103537:0:0:0:0:
320,192,103442,128,0,103537:0:0:0:0:
64,192,103537,128,0,103632:0:0:0:0:
448,192,103632,128,0,103727:0:0:0:0:
320,192,103727,1,0,0:0:0:0:
192,192,103727,128,0,103917:0:0:0:0:
64,192,103822,128,0,103917:0:0:0:0:
448,192,103917,128,0,104011:0:0:0:0:
192,192,104011,128,0,104106:0:0:0:0:
320,192,104106,128,0,104486:0:0:0:0:
64,192,104106,128,0,104391:0:0:0:0:
448,192,104486,128,0,104676:0:0:0:0:
64,192,104486,128,0,104676:0:0:0:0:
320,192,104581,128,0,104676:0:0:0:0:
192,192,104676,128,0,104866:0:0:0:0:
320,192,104866,128,0,105056:0:0:0:0:
448,192,104866,128,0,105056:0:0:0:0:
64,192,104961,1,0,0:0:0:0:
192,192,105056,128,0,105246:0:0:0:0:
448,192,105151,1,0,0:0:0:0:
64,192,105246,128,0,105436:0:0:0:0:
320,192,105246,1,0,0:0:0:0:
320,192,105436,128,0,105625:0:0:0:0:
192,192,105530,128,0,105625:0:0:0:0:
64,192,105625,1,0,0:0:0:0:
448,192,105720,128,0,105815:0:0:0:0:
192,192,105815,128,0,106005:0:0:0:0:
320,192,105910,1,0,0:0:0:0:
64,192,106005,128,0,106195:0:0:0:0:
448,192,106005,1,0,0:0:0:0:
192,192,106100,128,0,106195:0:0:0:0:
320,192,106195,128,0,106290:0:0:0:0:
448,192,106290,128,0,106385:0:0:0:0:
64,192,106385,128,0,106575:0:0:0:0:
320,192,106480,128,0,106575:0:0:0:0:
192,192,106575,128,0,106765:0:0:0:0:
448,192,106670,1,0,0:0:0:0:
320,192,106765,1,0,0:0:0:0:
64,192,106765,128,0,106955:0:0:0:0:
192,192,106860,128,0,106955:0:0:0:0:
448,192,106955,128,0,107144:0:0:0:0:
64,192,107049,128,0,107334:0:0:0:0:
320,192,107144,1,0,0:0:0:0:
192,192,107239,128,0,107334:0:0:0:0:
448,192,107334,1,0,0:0:0:0:
192,192,107429,128,0,107524:0:0:0:0:
320,192,107524,128,0,107714:0:0:0:0:
448,192,107619,128,0,107714:0:0:0:0:
64,192,107619,1,0,0:0:0:0:
192,192,107714,128,0,107904:0:0:0:0:
64,192,107809,128,0,107904:0:0:0:0:
320,192,107904,128,0,108094:0:0:0:0:
448,192,107904,1,0,0:0:0:0:
192,192,107999,128,0,108094:0:0:0:0:
64,192,108094,128,0,108189:0:0:0:0:
320,192,108189,128,0,108284:0:0:0:0:
192,192,108284,128,0,108379:0:0:0:0:
64,192,108379,128,0,108568:0:0:0:0:
448,192,108379,1,0,0:0:0:0:
320,192,108474,128,0,108568:0:0:0:0:
192,192,108568,128,0,108663:0:0:0:0:
64,192,108663,1,0,0:0:0:0:
448,192,108663,128,0,108853:0:0:0:0:
320,192,108758,128,0,108853:0:0:0:0:
64,192,108853,128,0,109043:0:0:0:0:
192,192,108948,128,0,109043:0:0:0:0:
320,192,109043,128,0,109233:0:0:0:0:
64,192,109138,1,0,0:0:0:0:
192,192,109233,128,0,109328:0:0:0:0:
320,192,109328,128,0,109423:0:0:0:0:
448,192,109423,1,0,0:0:0:0:
64,192,109423,1,0,0:0:0:0:
192,192,109518,128,0,109708:0:0:0:0:
448,192,109708,128,0,109803:0:0:0:0:
64,192,109803,128,0,109992:0:0:0:0:
320,192,109803,1,0,0:0:0:0:
192,192,109898,128,0,109992:0:0:0:0:
448,192,109992,128,0,110087:0:0:0:0:
320,192,110087,128,0,110182:0:0:0:0:
64,192,110182,128,0,110372:0:0:0:0:
320,192,110277,1,0,0:0:0:0:
192,192,110372,128,0,110467:0:0:0:0:
448,192,110467,128,0,110562:0:0:0:0:
320,192,110562,1,0,0:0:0:0:
64,192,110562,1,0,0:0:0:0:
192,192,110625,1,0,0:0:0:0:
448,192,110689,1,0,0:0:0:0:
320,192,110752,1,0,0:0:0:0:
64,192,110815,1,0,0:0:0:0:
192,192,110879,1,0,0:0:0:0:
320,192,110942,128,0,111068:0:0:0:0:
448,192,110942,1,0,0:0:0:0:
64,192,111068,128,0,111195:0:0:0:0:
192,192,111195,128,0,111448:0:0:0:0:
448,192,111322,128,0,111448:0:0:0:0:
64,192,111322,1,0,0:0:0:0:
320,192,111448,128,0,111701:0:0:0:0:
192,192,111575,128,0,111701:0:0:0:0:
64,192,111701,128,0,111891:0:0:0:0:
448,192,111796,1,0,0:0:0:0:
320,192,111891,128,0,111986:0:0:0:0:
64,192,111986,128,0,112081:0:0:0:0:
448,192,112081,1,0,0:0:0:0:
192,192,112081,128,0,112271:0:0:0:0:
320,192,112176,128,0,112271:0:0:0:0:
64,192,112271,128,0,112461:0:0:0:0:
192,192,112366,128,0,112461:0:0:0:0:
320,192,112461,128,0,112651:0:0:0:0:
448,192,112461,1,0,0:0:0:0:
64,192,112556,128,0,112651:0:0:0:0:
192,192,112651,128,0,112746:0:0:0:0:
448,192,112746,128,0,112841:0:0:0:0:
64,192,112841,128,0,113030:0:0:0:0:
320,192,112936,128,0,113030:0:0:0:0:
192,192,113030,128,0,113220:0:0:0:0:
448,192,113125,128,0,113220:0:0:0:0:
320,192,113220,128,0,113410:0:0:0:0:
64,192,113220,1,0,0:0:0:0:
192,192,113315,128,0,113410:0:0:0:0:
64,192,113410,128,0,113505:0:0:0:0:
448,192,113505,128,0,113600:0:0:0:0:
192,192,113600,128,0,113695:0:0:0:0:
64,192,113600,128,0,113790:0:0:0:0:
320,192,113695,128,0,113790:0:0:0:0:
448,192,113790,128,0,113885:0:0:0:0:
192,192,113885,128,0,113980:0:0:0:0:
448,192,113980,128,0,114170:0:0:0:0:
320,192,114075,128,0,114170:0:0:0:0:
64,192,114170,128,0,114265:0:0:0:0:
192,192,114265,128,0,114455:0:0:0:0:
320,192,114360,128,0,114455:0:0:0:0:
448,192,114360,1,0,0:0:0:0:
64,192,114455,128,0,114549:0:0:0:0:
320,192,114549,128,0,114739:0:0:0:0:
448,192,114644,128,0,114739:0:0:0:0:
64,192,114739,128,0,117777:0:0:0:0:
192,192,114739,128,0,115499:0:0:0:0:
