osu file format v14

[General]
AudioFilename: audio.mp3
AudioLeadIn: 0
PreviewTime: 54741
Countdown: 0
SampleSet: Normal
StackLeniency: 0.7
Mode: 3
LetterboxInBreaks: 0
SpecialStyle: 0
WidescreenStoryboard: 1

[Editor]
DistanceSpacing: 1.5
BeatDivisor: 4
GridSize: 16
TimelineZoom: 2

[Metadata]
Title:Formless Canvas
TitleUnicode:Formless Canvas
Artist:Toromaru
ArtistUnicode:とろまる
Creator:-mint-
Version:Normal
Source:
Tags:retromgp parasol pig jazz piano prog progressive elexire osu!mania 4k world cup 2022 mwc22 mwc 4k 2022 round of 16 ro16 long note ln3 mappers' guild mpg mg fa featured artist electronic instrumental
BeatmapID:4374098
BeatmapSetID:1796612

[Difficulty]
HPDrainRate:7
CircleSize:4
OverallDifficulty:6.5
ApproachRate:5
SliderMultiplier:1.4
SliderTickRate:1

[Events]
//Background and Video events
0,0,"bg.jpg",0,0
//Break Periods
//Storyboard Layer 0 (Background)
//Storyboard Layer 1 (Fail)
//Storyboard Layer 2 (Pass)
//Storyboard Layer 3 (Foreground)
//Storyboard Layer 4 (Overlay)
//Storyboard Sound Samples

[TimingPoints]
820,379.746835443038,4,1,1,50,1,0
14301,379.746835443038,4,1,1,50,1,0
17149,379.746835443038,4,1,1,50,1,0
19997,379.746835443038,4,1,1,50,1,0
22845,379.746835443038,4,1,1,50,1,0
39553,379.746835443038,3,1,1,50,1,0
48666,379.746835443038,4,1,1,50,1,0
60438,379.746835443038,4,1,1,50,1,0
66134,379.746835443038,4,1,1,50,1,0
84361,379.746835443038,3,1,1,50,1,0
93474,379.746835443038,7,1,1,50,1,0

[HitObjects]
64,192,250,5,0,0:0:0:0:
320,192,345,1,0,0:0:0:0:
192,192,440,1,0,0:0:0:0:
448,192,820,1,0,0:0:0:0:
64,192,820,1,0,0:0:0:0:
320,192,1009,1,0,0:0:0:0:
192,192,1199,1,0,0:0:0:0:
448,192,1389,1,0,0:0:0:0:
64,192,1579,1,0,0:0:0:0:
448,192,1769,1,0,0:0:0:0:
320,192,1959,1,0,0:0:0:0:
64,192,2338,1,0,0:0:0:0:
192,192,2528,1,0,0:0:0:0:
448,192,2718,1,0,0:0:0:0:
192,192,2908,1,0,0:0:0:0:
320,192,3003,1,0,0:0:0:0:
64,192,3098,1,0,0:0:0:0:
320,192,3288,1,0,0:0:0:0:
448,192,3383,1,0,0:0:0:0:
192,192,3478,1,0,0:0:0:0:
320,192,3668,1,0,0:0:0:0:
64,192,3763,1,0,0:0:0:0:
448,192,3857,1,0,0:0:0:0:
192,192,4047,1,0,0:0:0:0:
320,192,4237,1,0,0:0:0:0:
64,192,4427,1,0,0:0:0:0:
448,192,4617,1,0,0:0:0:0:
64,192,4807,1,0,0:0:0:0:
192,192,4997,1,0,0:0:0:0:
448,192,5376,1,0,0:0:0:0:
320,192,5566,1,0,0:0:0:0:
64,192,5756,1,0,0:0:0:0:
448,192,5851,1,0,0:0:0:0:
192,192,6041,1,0,0:0:0:0:
320,192,6136,1,0,0:0:0:0:
448,192,6231,1,0,0:0:0:0:
192,192,6326,1,0,0:0:0:0:
64,192,6516,1,0,0:0:0:0:
320,192,6706,1,0,0:0:0:0:
64,192,6895,1,0,0:0:0:0:
448,192,6895,1,0,0:0:0:0:
192,192,7085,1,0,0:0:0:0:
320,192,7275,1,0,0:0:0:0:
64,192,7465,1,0,0:0:0:0:
448,192,7655,1,0,0:0:0:0:
64,192,7845,1,0,0:0:0:0:
192,192,8035,1,0,0:0:0:0:
448,192,8414,1,0,0:0:0:0:
320,192,8604,1,0,0:0:0:0:
64,192,8794,1,0,0:0:0:0:
320,192,8984,1,0,0:0:0:0:
192,192,9079,1,0,0:0:0:0:
448,192,9174,1,0,0:0:0:0:
192,192,9364,1,0,0:0:0:0:
64,192,9459,1,0,0:0:0:0:
320,192,9554,1,0,0:0:0:0:
192,192,9744,1,0,0:0:0:0:
448,192,9838,1,0,0:0:0:0:
64,192,9933,1,0,0:0:0:0:
320,192,10123,1,0,0:0:0:0:
192,192,10313,1,0,0:0:0:0:
448,192,10503,1,0,0:0:0:0:
64,192,10693,1,0,0:0:0:0:
448,192,10883,1,0,0:0:0:0:
320,192,11073,1,0,0:0:0:0:
64,192,11452,1,0,0:0:0:0:
192,192,11642,1,0,0:0:0:0:
448,192,11832,1,0,0:0:0:0:
64,192,12022,1,0,0:0:0:0:
192,192,12117,1,0,0:0:0:0:
320,192,12212,1,0,0:0:0:0:
64,192,12402,1,0,0:0:0:0:
448,192,12497,1,0,0:0:0:0:
192,192,12592,1,0,0:0:0:0:
320,192,12782,1,0,0:0:0:0:
192,192,12971,1,0,0:0:0:0:
448,192,12971,128,0,13351:0:0:0:0:
192,192,13351,1,0,0:0:0:0:
320,192,13446,1,0,0:0:0:0:
64,192,13541,128,0,13731:0:0:0:0:
448,192,13731,1,0,0:0:0:0:
320,192,13921,128,0,14111:0:0:0:0:
64,192,14111,1,0,0:0:0:0:
320,192,14301,1,0,0:0:0:0:
192,192,14301,128,0,14680:0:0:0:0:
320,192,14680,1,0,0:0:0:0:
64,192,14775,1,0,0:0:0:0:
448,192,14870,128,0,15060:0:0:0:0:
192,192,15060,1,0,0:0:0:0:
64,192,15250,128,0,15440:0:0:0:0:
448,192,15440,1,0,0:0:0:0:
320,192,15440,1,0,0:0:0:0:
192,192,15630,1,0,0:0:0:0:
64,192,15819,1,0,0:0:0:0:
320,192,15819,128,0,16199:0:0:0:0:
64,192,16199,1,0,0:0:0:0:
448,192,16294,1,0,0:0:0:0:
192,192,16389,128,0,16579:0:0:0:0:
320,192,16579,1,0,0:0:0:0:
448,192,16769,128,0,16959:0:0:0:0:
192,192,16959,1,0,0:0:0:0:
448,192,17149,1,0,0:0:0:0:
64,192,17149,128,0,17528:0:0:0:0:
448,192,17528,1,0,0:0:0:0:
192,192,17623,1,0,0:0:0:0:
320,192,17718,128,0,17908:0:0:0:0:
64,192,17908,1,0,0:0:0:0:
192,192,18098,128,0,18288:0:0:0:0:
320,192,18288,1,0,0:0:0:0:
448,192,18288,1,0,0:0:0:0:
64,192,18478,1,0,0:0:0:0:
192,192,18667,1,0,0:0:0:0:
448,192,18667,128,0,19047:0:0:0:0:
192,192,19047,1,0,0:0:0:0:
320,192,19142,1,0,0:0:0:0:
64,192,19237,128,0,19427:0:0:0:0:
448,192,19427,1,0,0:0:0:0:
320,192,19617,128,0,19807:0:0:0:0:
64,192,19807,1,0,0:0:0:0:
320,192,19997,1,0,0:0:0:0:
192,192,19997,128,0,20376:0:0:0:0:
320,192,20376,1,0,0:0:0:0:
64,192,20471,1,0,0:0:0:0:
448,192,20566,128,0,20756:0:0:0:0:
192,192,20756,1,0,0:0:0:0:
64,192,20946,128,0,21136:0:0:0:0:
448,192,21136,1,0,0:0:0:0:
320,192,21136,1,0,0:0:0:0:
192,192,21326,1,0,0:0:0:0:
64,192,21515,1,0,0:0:0:0:
320,192,21515,128,0,21895:0:0:0:0:
64,192,21895,1,0,0:0:0:0:
448,192,21990,1,0,0:0:0:0:
192,192,22085,128,0,22275:0:0:0:0:
320,192,22275,1,0,0:0:0:0:
448,192,22465,128,0,22655:0:0:0:0:
192,192,22655,1,0,0:0:0:0:
448,192,22845,1,0,0:0:0:0:
64,192,22845,128,0,23224:0:0:0:0:
448,192,23224,1,0,0:0:0:0:
192,192,23319,1,0,0:0:0:0:
320,192,23414,128,0,23604:0:0:0:0:
64,192,23604,1,0,0:0:0:0:
192,192,23794,128,0,23984:0:0:0:0:
320,192,23984,1,0,0:0:0:0:
448,192,23984,1,0,0:0:0:0:
64,192,24174,1,0,0:0:0:0:
192,192,24363,1,0,0:0:0:0:
320,192,24363,128,0,25693:0:0:0:0:
64,192,25693,1,0,0:0:0:0:
192,192,25788,1,0,0:0:0:0:
448,192,25882,1,0,0:0:0:0:
64,192,26072,1,0,0:0:0:0:
448,192,26262,1,0,0:0:0:0:
192,192,26452,1,0,0:0:0:0:
320,192,26642,1,0,0:0:0:0:
64,192,26832,1,0,0:0:0:0:
448,192,26927,1,0,0:0:0:0:
320,192,27022,1,0,0:0:0:0:
192,192,27212,1,0,0:0:0:0:
64,192,27401,1,0,0:0:0:0:
448,192,27401,1,0,0:0:0:0:
192,192,27686,1,0,0:0:0:0:
320,192,27971,1,0,0:0:0:0:
64,192,28161,1,0,0:0:0:0:
448,192,28446,1,0,0:0:0:0:
192,192,28731,1,0,0:0:0:0:
64,192,28920,1,0,0:0:0:0:
320,192,29205,1,0,0:0:0:0:
192,192,29395,1,0,0:0:0:0:
448,192,29680,1,0,0:0:0:0:
320,192,29965,1,0,0:0:0:0:
64,192,30155,1,0,0:0:0:0:
448,192,30439,1,0,0:0:0:0:
192,192,30439,1,0,0:0:0:0:
320,192,30724,1,0,0:0:0:0:
64,192,31009,1,0,0:0:0:0:
448,192,31199,1,0,0:0:0:0:
192,192,31484,1,0,0:0:0:0:
64,192,31769,1,0,0:0:0:0:
320,192,31958,1,0,0:0:0:0:
192,192,32053,1,0,0:0:0:0:
448,192,32338,1,0,0:0:0:0:
320,192,32528,1,0,0:0:0:0:
64,192,32718,1,0,0:0:0:0:
448,192,32908,1,0,0:0:0:0:
192,192,33098,1,0,0:0:0:0:
64,192,33193,1,0,0:0:0:0:
448,192,33288,1,0,0:0:0:0:
192,192,33477,1,0,0:0:0:0:
320,192,33477,1,0,0:0:0:0:
64,192,33762,1,0,0:0:0:0:
448,192,34047,1,0,0:0:0:0:
192,192,34237,1,0,0:0:0:0:
320,192,34522,1,0,0:0:0:0:
64,192,34807,1,0,0:0:0:0:
192,192,34996,1,0,0:0:0:0:
448,192,35281,1,0,0:0:0:0:
64,192,35471,1,0,0:0:0:0:
320,192,35756,1,0,0:0:0:0:
448,192,36041,1,0,0:0:0:0:
192,192,36231,1,0,0:0:0:0:
320,192,36515,1,0,0:0:0:0:
64,192,36515,1,0,0:0:0:0:
448,192,36800,1,0,0:0:0:0:
192,192,37085,1,0,0:0:0:0:
320,192,37275,1,0,0:0:0:0:
64,192,37560,1,0,0:0:0:0:
192,192,37845,1,0,0:0:0:0:
448,192,38034,1,0,0:0:0:0:
64,192,38129,1,0,0:0:0:0:
320,192,38319,1,0,0:0:0:0:
192,192,38509,1,0,0:0:0:0:
448,192,38604,1,0,0:0:0:0:
64,192,38794,1,0,0:0:0:0:
320,192,38984,1,0,0:0:0:0:
192,192,39079,1,0,0:0:0:0:
64,192,39174,1,0,0:0:0:0:
448,192,39363,1,0,0:0:0:0:
192,192,39553,1,0,0:0:0:0:
64,192,39553,128,0,39837:0:0:0:0:
320,192,39837,1,0,0:0:0:0:
448,192,40122,128,0,40502:0:0:0:0:
64,192,40502,1,0,0:0:0:0:
192,192,40692,128,0,40977:0:0:0:0:
448,192,40977,1,0,0:0:0:0:
320,192,41261,128,0,41641:0:0:0:0:
192,192,41641,1,0,0:0:0:0:
448,192,41831,128,0,42116:0:0:0:0:
320,192,42116,1,0,0:0:0:0:
192,192,42401,128,0,42780:0:0:0:0:
64,192,42780,1,0,0:0:0:0:
320,192,42970,128,0,43255:0:0:0:0:
448,192,43255,128,0,43540:0:0:0:0:
64,192,43540,1,0,0:0:0:0:
192,192,43730,128,0,43920:0:0:0:0:
320,192,43920,1,0,0:0:0:0:
192,192,44109,1,0,0:0:0:0:
64,192,44109,128,0,44394:0:0:0:0:
448,192,44394,128,0,44679:0:0:0:0:
320,192,44679,1,0,0:0:0:0:
192,192,44869,128,0,45059:0:0:0:0:
448,192,45059,1,0,0:0:0:0:
64,192,45249,128,0,45439:0:0:0:0:
320,192,45439,1,0,0:0:0:0:
192,192,45628,1,0,0:0:0:0:
448,192,45818,128,0,46198:0:0:0:0:
64,192,46198,1,0,0:0:0:0:
320,192,46388,128,0,46673:0:0:0:0:
192,192,46673,1,0,0:0:0:0:
64,192,46958,128,0,47147:0:0:0:0:
320,192,47147,128,0,47337:0:0:0:0:
192,192,47337,1,0,0:0:0:0:
448,192,47527,1,0,0:0:0:0:
320,192,47717,1,0,0:0:0:0:
64,192,47907,1,0,0:0:0:0:
320,192,48097,1,0,0:0:0:0:
192,192,48287,1,0,0:0:0:0:
64,192,48477,1,0,0:0:0:0:
320,192,48666,1,0,0:0:0:0:
448,192,48666,1,0,0:0:0:0:
192,192,48950,1,0,0:0:0:0:
320,192,49140,1,0,0:0:0:0:
64,192,49425,1,0,0:0:0:0:
192,192,49710,1,0,0:0:0:0:
448,192,49995,128,0,50184:0:0:0:0:
64,192,50184,1,0,0:0:0:0:
320,192,50374,1,0,0:0:0:0:
192,192,50564,1,0,0:0:0:0:
448,192,50849,1,0,0:0:0:0:
64,192,51134,1,0,0:0:0:0:
320,192,51324,1,0,0:0:0:0:
448,192,51514,1,0,0:0:0:0:
192,192,51703,1,0,0:0:0:0:
64,192,51703,1,0,0:0:0:0:
320,192,51988,1,0,0:0:0:0:
192,192,52178,1,0,0:0:0:0:
448,192,52463,1,0,0:0:0:0:
320,192,52748,1,0,0:0:0:0:
64,192,53033,128,0,53222:0:0:0:0:
448,192,53222,1,0,0:0:0:0:
192,192,53412,1,0,0:0:0:0:
320,192,53602,1,0,0:0:0:0:
192,192,53792,1,0,0:0:0:0:
448,192,53887,1,0,0:0:0:0:
64,192,53982,1,0,0:0:0:0:
320,192,54172,1,0,0:0:0:0:
448,192,54267,1,0,0:0:0:0:
192,192,54362,1,0,0:0:0:0:
320,192,54552,1,0,0:0:0:0:
64,192,54741,128,0,55121:0:0:0:0:
448,192,54741,1,0,0:0:0:0:
320,192,55121,1,0,0:0:0:0:
192,192,55311,1,0,0:0:0:0:
320,192,55501,1,0,0:0:0:0:
64,192,55691,1,0,0:0:0:0:
448,192,55881,1,0,0:0:0:0:
64,192,56071,1,0,0:0:0:0:
320,192,56260,128,0,56640:0:0:0:0:
192,192,56640,1,0,0:0:0:0:
64,192,56830,1,0,0:0:0:0:
448,192,57020,1,0,0:0:0:0:
192,192,57210,1,0,0:0:0:0:
448,192,57400,1,0,0:0:0:0:
320,192,57590,1,0,0:0:0:0:
64,192,57779,128,0,58159:0:0:0:0:
320,192,58159,1,0,0:0:0:0:
192,192,58349,1,0,0:0:0:0:
320,192,58539,1,0,0:0:0:0:
64,192,58729,1,0,0:0:0:0:
448,192,58919,1,0,0:0:0:0:
64,192,59109,1,0,0:0:0:0:
192,192,59298,1,0,0:0:0:0:
320,192,59298,1,0,0:0:0:0:
448,192,59583,1,0,0:0:0:0:
192,192,59868,1,0,0:0:0:0:
64,192,59868,1,0,0:0:0:0:
320,192,60058,1,0,0:0:0:0:
192,192,60248,1,0,0:0:0:0:
448,192,60438,128,0,60817:0:0:0:0:
64,192,60438,1,0,0:0:0:0:
192,192,60817,1,0,0:0:0:0:
320,192,61007,1,0,0:0:0:0:
192,192,61197,1,0,0:0:0:0:
448,192,61387,1,0,0:0:0:0:
64,192,61577,1,0,0:0:0:0:
448,192,61767,1,0,0:0:0:0:
192,192,61956,128,0,62336:0:0:0:0:
64,192,62336,1,0,0:0:0:0:
448,192,62526,1,0,0:0:0:0:
320,192,62716,1,0,0:0:0:0:
192,192,62906,1,0,0:0:0:0:
320,192,63096,1,0,0:0:0:0:
64,192,63286,1,0,0:0:0:0:
448,192,63475,128,0,63855:0:0:0:0:
192,192,63855,1,0,0:0:0:0:
320,192,64045,1,0,0:0:0:0:
192,192,64235,1,0,0:0:0:0:
448,192,64425,1,0,0:0:0:0:
64,192,64615,1,0,0:0:0:0:
448,192,64805,1,0,0:0:0:0:
320,192,64994,1,0,0:0:0:0:
192,192,64994,1,0,0:0:0:0:
64,192,65279,1,0,0:0:0:0:
320,192,65564,1,0,0:0:0:0:
448,192,65564,1,0,0:0:0:0:
192,192,65754,1,0,0:0:0:0:
320,192,65944,1,0,0:0:0:0:
64,192,66134,1,0,0:0:0:0:
448,192,66134,1,0,0:0:0:0:
192,192,66323,1,0,0:0:0:0:
320,192,66513,1,0,0:0:0:0:
64,192,66798,1,0,0:0:0:0:
448,192,66988,1,0,0:0:0:0:
192,192,67273,1,0,0:0:0:0:
64,192,67558,128,0,67842:0:0:0:0:
448,192,67842,1,0,0:0:0:0:
192,192,68032,1,0,0:0:0:0:
320,192,68317,1,0,0:0:0:0:
64,192,68507,1,0,0:0:0:0:
448,192,68602,1,0,0:0:0:0:
192,192,68792,1,0,0:0:0:0:
64,192,68982,1,0,0:0:0:0:
448,192,69171,1,0,0:0:0:0:
192,192,69361,1,0,0:0:0:0:
320,192,69551,1,0,0:0:0:0:
64,192,69836,1,0,0:0:0:0:
448,192,70026,1,0,0:0:0:0:
192,192,70311,1,0,0:0:0:0:
64,192,70596,128,0,70880:0:0:0:0:
448,192,70880,1,0,0:0:0:0:
192,192,71070,1,0,0:0:0:0:
320,192,71355,1,0,0:0:0:0:
64,192,71450,1,0,0:0:0:0:
448,192,71640,1,0,0:0:0:0:
192,192,71830,1,0,0:0:0:0:
320,192,72020,1,0,0:0:0:0:
64,192,72209,1,0,0:0:0:0:
448,192,72209,1,0,0:0:0:0:
192,192,72494,1,0,0:0:0:0:
448,192,72684,1,0,0:0:0:0:
64,192,72874,128,0,73064:0:0:0:0:
320,192,73064,1,0,0:0:0:0:
192,192,73349,1,0,0:0:0:0:
320,192,73634,128,0,73823:0:0:0:0:
192,192,73823,1,0,0:0:0:0:
320,192,74013,1,0,0:0:0:0:
448,192,74203,1,0,0:0:0:0:
64,192,74393,128,0,74583:0:0:0:0:
320,192,74583,1,0,0:0:0:0:
192,192,74868,1,0,0:0:0:0:
448,192,75058,1,0,0:0:0:0:
64,192,75247,1,0,0:0:0:0:
320,192,75532,1,0,0:0:0:0:
192,192,75722,1,0,0:0:0:0:
448,192,75912,128,0,76102:0:0:0:0:
64,192,76102,1,0,0:0:0:0:
320,192,76387,1,0,0:0:0:0:
192,192,76671,1,0,0:0:0:0:
448,192,76766,1,0,0:0:0:0:
64,192,76956,1,0,0:0:0:0:
448,192,77146,1,0,0:0:0:0:
320,192,77336,1,0,0:0:0:0:
192,192,77431,1,0,0:0:0:0:
64,192,77621,1,0,0:0:0:0:
448,192,77716,1,0,0:0:0:0:
192,192,77906,1,0,0:0:0:0:
320,192,78001,1,0,0:0:0:0:
448,192,78096,1,0,0:0:0:0:
192,192,78285,1,0,0:0:0:0:
64,192,78285,1,0,0:0:0:0:
320,192,78475,1,0,0:0:0:0:
64,192,78665,1,0,0:0:0:0:
448,192,78855,1,0,0:0:0:0:
192,192,79045,1,0,0:0:0:0:
320,192,79235,1,0,0:0:0:0:
64,192,79330,1,0,0:0:0:0:
448,192,79425,1,0,0:0:0:0:
320,192,79615,1,0,0:0:0:0:
64,192,79804,1,0,0:0:0:0:
448,192,79899,1,0,0:0:0:0:
192,192,79994,1,0,0:0:0:0:
320,192,80184,1,0,0:0:0:0:
64,192,80374,1,0,0:0:0:0:
448,192,80564,1,0,0:0:0:0:
192,192,80754,1,0,0:0:0:0:
64,192,80944,1,0,0:0:0:0:
320,192,81039,1,0,0:0:0:0:
192,192,81228,1,0,0:0:0:0:
448,192,81323,1,0,0:0:0:0:
64,192,81513,1,0,0:0:0:0:
448,192,81703,1,0,0:0:0:0:
192,192,81893,1,0,0:0:0:0:
320,192,82083,1,0,0:0:0:0:
64,192,82273,1,0,0:0:0:0:
448,192,82368,1,0,0:0:0:0:
192,192,82463,1,0,0:0:0:0:
64,192,82652,1,0,0:0:0:0:
448,192,82842,1,0,0:0:0:0:
192,192,82937,1,0,0:0:0:0:
320,192,83032,1,0,0:0:0:0:
64,192,83222,1,0,0:0:0:0:
448,192,83317,1,0,0:0:0:0:
192,192,83507,1,0,0:0:0:0:
320,192,83697,1,0,0:0:0:0:
448,192,83982,1,0,0:0:0:0:
64,192,84077,1,0,0:0:0:0:
192,192,84171,1,0,0:0:0:0:
320,192,84361,1,0,0:0:0:0:
448,192,84361,128,0,84740:0:0:0:0:
192,192,84740,1,0,0:0:0:0:
320,192,84930,1,0,0:0:0:0:
64,192,85120,1,0,0:0:0:0:
448,192,85310,1,0,0:0:0:0:
192,192,85500,128,0,85879:0:0:0:0:
320,192,85879,1,0,0:0:0:0:
64,192,86069,1,0,0:0:0:0:
448,192,86259,1,0,0:0:0:0:
192,192,86354,1,0,0:0:0:0:
64,192,86449,1,0,0:0:0:0:
320,192,86639,128,0,87019:0:0:0:0:
64,192,87019,1,0,0:0:0:0:
448,192,87209,1,0,0:0:0:0:
192,192,87398,1,0,0:0:0:0:
320,192,87588,1,0,0:0:0:0:
64,192,87778,128,0,88158:0:0:0:0:
448,192,88063,1,0,0:0:0:0:
192,192,88158,1,0,0:0:0:0:
320,192,88348,1,0,0:0:0:0:
64,192,88538,1,0,0:0:0:0:
320,192,88728,1,0,0:0:0:0:
192,192,88917,1,0,0:0:0:0:
448,192,88917,1,0,0:0:0:0:
64,192,89107,1,0,0:0:0:0:
448,192,89297,1,0,0:0:0:0:
64,192,89487,1,0,0:0:0:0:
320,192,89677,1,0,0:0:0:0:
192,192,89867,1,0,0:0:0:0:
448,192,90057,1,0,0:0:0:0:
64,192,90057,1,0,0:0:0:0:
320,192,90247,1,0,0:0:0:0:
64,192,90436,1,0,0:0:0:0:
320,192,90626,1,0,0:0:0:0:
192,192,90816,1,0,0:0:0:0:
448,192,91006,1,0,0:0:0:0:
64,192,91196,1,0,0:0:0:0:
192,192,91386,1,0,0:0:0:0:
320,192,91386,1,0,0:0:0:0:
448,192,91576,1,0,0:0:0:0:
192,192,91766,1,0,0:0:0:0:
64,192,91766,1,0,0:0:0:0:
320,192,91955,1,0,0:0:0:0:
64,192,92145,1,0,0:0:0:0:
320,192,92335,1,0,0:0:0:0:
192,192,92525,1,0,0:0:0:0:
448,192,92525,1,0,0:0:0:0:
64,192,92715,1,0,0:0:0:0:
320,192,92810,1,0,0:0:0:0:
448,192,92905,1,0,0:0:0:0:
192,192,93095,1,0,0:0:0:0:
64,192,93190,1,0,0:0:0:0:
320,192,93285,1,0,0:0:0:0:
192,192,93474,1,0,0:0:0:0:
448,192,93474,1,0,0:0:0:0:
64,192,93663,1,0,0:0:0:0:
448,192,93853,1,0,0:0:0:0:
192,192,94138,1,0,0:0:0:0:
320,192,94328,1,0,0:0:0:0:
64,192,94423,1,0,0:0:0:0:
448,192,94613,1,0,0:0:0:0:
192,192,94803,1,0,0:0:0:0:
320,192,94898,1,0,0:0:0:0:
64,192,95087,1,0,0:0:0:0:
320,192,95277,1,0,0:0:0:0:
192,192,95467,1,0,0:0:0:0:
448,192,95562,1,0,0:0:0:0:
64,192,95752,1,0,0:0:0:0:
192,192,95847,1,0,0:0:0:0:
320,192,95942,1,0,0:0:0:0:
448,192,96132,1,0,0:0:0:0:
64,192,96132,1,0,0:0:0:0:
320,192,96322,1,0,0:0:0:0:
64,192,96511,1,0,0:0:0:0:
448,192,96796,1,0,0:0:0:0:
192,192,96986,1,0,0:0:0:0:
320,192,97176,1,0,0:0:0:0:
64,192,97271,1,0,0:0:0:0:
448,192,97461,1,0,0:0:0:0:
192,192,97651,1,0,0:0:0:0:
320,192,97746,1,0,0:0:0:0:
64,192,97936,1,0,0:0:0:0:
448,192,98030,1,0,0:0:0:0:
320,192,98220,1,0,0:0:0:0:
192,192,98410,1,0,0:0:0:0:
64,192,98505,1,0,0:0:0:0:
320,192,98600,1,0,0:0:0:0:
192,192,98790,1,0,0:0:0:0:
448,192,98790,1,0,0:0:0:0:
64,192,98980,1,0,0:0:0:0:
448,192,99170,1,0,0:0:0:0:
192,192,99455,1,0,0:0:0:0:
320,192,99644,1,0,0:0:0:0:
64,192,99739,1,0,0:0:0:0:
448,192,99929,1,0,0:0:0:0:
192,192,100119,1,0,0:0:0:0:
320,192,100214,1,0,0:0:0:0:
64,192,100404,1,0,0:0:0:0:
320,192,100594,1,0,0:0:0:0:
192,192,100784,1,0,0:0:0:0:
448,192,100879,1,0,0:0:0:0:
64,192,101068,1,0,0:0:0:0:
192,192,101163,1,0,0:0:0:0:
320,192,101258,1,0,0:0:0:0:
448,192,101448,1,0,0:0:0:0:
64,192,101448,1,0,0:0:0:0:
320,192,101638,1,0,0:0:0:0:
64,192,101828,1,0,0:0:0:0:
448,192,102113,1,0,0:0:0:0:
192,192,102303,1,0,0:0:0:0:
320,192,102492,1,0,0:0:0:0:
64,192,102587,1,0,0:0:0:0:
448,192,102777,1,0,0:0:0:0:
192,192,102967,1,0,0:0:0:0:
320,192,102967,1,0,0:0:0:0:
64,192,103157,1,0,0:0:0:0:
448,192,103347,1,0,0:0:0:0:
192,192,103537,1,0,0:0:0:0:
320,192,103632,1,0,0:0:0:0:
64,192,103727,1,0,0:0:0:0:
192,192,103917,1,0,0:0:0:0:
320,192,104106,1,0,0:0:0:0:
448,192,104106,1,0,0:0:0:0:
64,192,104486,1,0,0:0:0:0:
192,192,104581,1,0,0:0:0:0:
320,192,104676,1,0,0:0:0:0:
64,192,104866,1,0,0:0:0:0:
448,192,105056,1,0,0:0:0:0:
192,192,105246,1,0,0:0:0:0:
320,192,105436,1,0,0:0:0:0:
192,192,105720,1,0,0:0:0:0:
448,192,106005,1,0,0:0:0:0:
64,192,106195,1,0,0:0:0:0:
320,192,106385,1,0,0:0:0:0:
192,192,106575,1,0,0:0:0:0:
448,192,106765,1,0,0:0:0:0:
64,192,106765,1,0,0:0:0:0:
320,192,106955,1,0,0:0:0:0:
64,192,107144,1,0,0:0:0:0:
448,192,107334,1,0,0:0:0:0:
192,192,107524,1,0,0:0:0:0:
448,192,107714,1,0,0:0:0:0:
320,192,107904,1,0,0:0:0:0:
192,192,108094,1,0,0:0:0:0:
64,192,108284,1,0,0:0:0:0:
448,192,108379,1,0,0:0:0:0:
192,192,108568,1,0,0:0:0:0:
320,192,108663,1,0,0:0:0:0:
64,192,108853,1,0,0:0:0:0:
448,192,109043,1,0,0:0:0:0:
320,192,109138,1,0,0:0:0:0:
192,192,109233,1,0,0:0:0:0:
448,192,109423,1,0,0:0:0:0:
64,192,109423,1,0,0:0:0:0:
192,192,109708,1,0,0:0:0:0:
448,192,109803,1,0,0:0:0:0:
64,192,109992,1,0,0:0:0:0:
320,192,110182,1,0,0:0:0:0:
192,192,110372,1,0,0:0:0:0:
448,192,110562,128,0,110942:0:0:0:0:
64,192,110942,1,0,0:0:0:0:
192,192,111068,1,0,0:0:0:0:
320,192,111195,1,0,0:0:0:0:
448,192,111322,1,0,0:0:0:0:
64,192,111511,1,0,0:0:0:0:
320,192,111701,1,0,0:0:0:0:
448,192,111796,1,0,0:0:0:0:
192,192,111891,1,0,0:0:0:0:
64,192,112081,1,0,0:0:0:0:
320,192,112081,1,0,0:0:0:0:
448,192,112271,1,0,0:0:0:0:
64,192,112461,1,0,0:0:0:0:
320,192,112651,1,0,0:0:0:0:
192,192,112841,1,0,0:0:0:0:
448,192,113030,1,0,0:0:0:0:
64,192,113220,1,0,0:0:0:0:
192,192,113410,1,0,0:0:0:0:
448,192,113600,1,0,0:0:0:0:
320,192,113695,1,0,0:0:0:0:
64,192,113790,1,0,0:0:0:0:
448,192,113980,1,0,0:0:0:0:
192,192,114170,1,0,0:0:0:0:
320,192,114360,1,0,0:0:0:0:
64,192,114455,1,0,0:0:0:0:
192,192,114549,1,0,0:0:0:0:
320,192,114739,1,0,0:0:0:0:
448,192,114739,128,0,117777:0:0:0:0:
