osu file format v14

[General]
AudioFilename: audio.mp3
AudioLeadIn: 0
PreviewTime: 63074
Countdown: 0
SampleSet: Drum
StackLeniency: 0.7
Mode: 2
LetterboxInBreaks: 0
WidescreenStoryboard: 1

[Editor]
DistanceSpacing: 1
BeatDivisor: 2
GridSize: 8
TimelineZoom: 1.2

[Metadata]
Title:Erinyes
TitleUnicode:Erinyes
Artist:Toromaru
ArtistUnicode:とろまる
Creator:autofanboy
Version:fayew's Cup
Source:osu!catch World Cup 2023
Tags:alienflybot AFB fayew skill issue lol Verti Stardust Prism -Rustyy ZiRoX Amphy Kaetwo CWC2023 CWC 2023 Quarterfinals QF HR3 HardRock3 Hard Rock featured artist FA Mappers’ Guild MPG MG Parasol Pig osu! original piano Electronic Instrumental
BeatmapID:4254570
BeatmapSetID:2000438

[Difficulty]
HPDrainRate:2
CircleSize:2.2
OverallDifficulty:6
ApproachRate:6
SliderMultiplier:1.11
SliderTickRate:1

[Events]
//Background and Video events
0,0,"flowr.jpg",0,0
//Break Periods
2,50966,52178
2,53428,54639
2,95273,97407
//Storyboard Layer 0 (Background)
//Storyboard Layer 1 (Fail)
//Storyboard Layer 2 (Pass)
//Storyboard Layer 3 (Foreground)
//Storyboard Layer 4 (Overlay)
//Storyboard Sound Samples

[TimingPoints]
1230,307.692307692308,3,3,1,70,1,0
4922,-100,3,3,1,75,0,0
6768,-100,3,3,1,70,0,0
8614,307.692307692308,4,3,1,65,1,0
11075,-100,4,3,1,60,0,0
13998,-100,4,3,2,60,0,0
14075,-100,4,3,1,60,0,0
17383,-100,4,3,2,60,0,0
17460,-100,4,3,1,60,0,0
17690,-100,4,3,2,60,0,0
17767,-100,4,3,1,60,0,0
17998,-100,4,3,2,60,0,0
18075,-100,4,3,1,60,0,0
20844,-100,4,3,1,30,0,0
20921,-100,4,3,1,60,0,0
27229,-100,4,3,2,60,0,0
27306,-100,4,3,1,60,0,0
27537,-100,4,3,2,60,0,0
27614,-100,4,3,1,60,0,0
27844,-100,4,3,2,60,0,0
27921,-100,4,3,1,60,0,0
29537,-100,4,3,1,65,0,0
30152,-100,4,3,1,70,0,0
30767,307.692307692308,3,3,1,60,1,0
31228,-100,3,3,2,60,0,0
31305,-100,3,3,1,60,0,0
33074,-100,3,3,2,60,0,0
33151,-100,3,3,1,60,0,0
33228,-100,3,3,1,65,0,0
33843,-100,3,3,1,70,0,0
34459,-100,3,3,1,60,0,0
34920,-100,3,3,2,60,0,0
34997,-100,3,3,1,60,0,0
36767,-100,3,3,2,60,0,0
36843,-100,3,3,1,60,0,0
37228,307.692307692308,4,3,1,65,1,0
37843,-100,4,3,1,70,0,0
38458,-100,4,3,1,60,0,0
40920,-100,4,3,1,65,0,0
43381,-100,4,3,1,60,0,0
48304,-100,4,3,1,65,0,0
49535,-100,4,3,1,70,0,0
50151,-100,4,3,1,75,0,0
50766,-100,4,3,1,80,0,0
51074,-100,4,2,10,50,0,0
51997,-100,4,3,10,50,0,0
52304,-100,4,2,10,50,0,0
53228,-100,4,3,1,55,0,0
53535,-100,4,2,10,55,0,0
54151,-100,4,3,1,55,0,0
55689,-100,4,3,1,60,0,0
55997,-100,4,3,2,60,0,0
56074,-100,4,3,1,60,0,0
56612,-100,4,3,2,60,0,0
56689,-100,4,3,1,60,0,0
56843,-100,4,3,1,30,0,0
56920,-100,4,3,1,60,0,0
57228,-100,4,3,2,60,0,0
57304,-100,4,3,1,60,0,0
57843,-100,4,3,2,60,0,0
57920,-100,4,3,1,60,0,0
58458,-100,4,3,2,60,0,0
58535,-100,4,3,1,60,0,0
59074,-100,4,3,2,60,0,0
59151,-100,4,3,1,60,0,0
59304,-100,4,3,1,30,0,0
59381,-100,4,3,1,65,0,0
59997,-100,4,3,1,70,0,0
60612,-100,4,3,1,75,0,0
61843,-100,4,3,1,80,0,0
63074,-100,4,2,10,60,0,0
63304,-100,4,3,1,30,0,0
63381,-100,4,3,1,80,0,1
64766,-100,4,3,2,80,0,1
64843,-100,4,3,1,80,0,1
65074,-100,4,3,2,80,0,1
65151,-100,4,3,1,80,0,1
65997,-100,4,3,2,80,0,1
66074,-100,4,3,1,80,0,1
66920,-100,4,3,2,80,0,1
66997,-100,4,3,1,80,0,1
67535,-100,4,3,2,80,0,1
67612,-100,4,3,1,80,0,1
69689,-100,4,3,2,80,0,1
69766,-100,4,3,1,80,0,1
69997,-100,4,3,2,80,0,1
70074,-100,4,3,1,80,0,1
70458,-100,4,3,1,85,0,1
70689,-100,4,3,1,30,0,1
70766,-100,4,3,1,85,0,1
71689,-100,4,3,1,90,0,0
72920,-100,4,3,1,80,0,1
73228,-100,4,3,1,80,0,1
74304,-100,4,3,2,80,0,1
74381,-100,4,3,1,80,0,1
74920,-100,4,3,2,80,0,1
74997,-100,4,3,1,80,0,1
75843,-100,4,3,2,80,0,1
75920,-100,4,3,1,80,0,1
76151,-100,4,3,2,80,0,1
76228,-100,4,3,1,80,0,1
76766,-100,4,3,2,80,0,1
76843,-100,4,3,1,80,0,1
77074,-100,4,3,2,80,0,1
77151,-100,4,3,1,80,0,1
79228,-100,4,3,2,80,0,1
79304,-100,4,3,1,80,0,1
79843,-100,4,3,2,80,0,1
79920,-100,4,3,1,80,0,1
80304,-100,4,3,1,85,0,1
81535,-100,4,3,1,90,0,1
82458,-100,4,2,10,60,0,1
82689,-100,4,3,1,30,0,1
82766,307.692307692308,3,3,1,70,1,0
86458,-100,3,3,1,75,0,0
89535,-100,3,3,1,80,0,0
90150,307.692307692308,4,3,1,60,1,0
92611,-100,4,3,1,65,0,0
92842,-100,4,3,1,30,0,0
92919,-100,4,3,1,65,0,0
93842,-100,4,3,1,70,0,0
94457,-100,4,3,1,75,0,0
95073,307.692307692308,3,3,1,80,1,0
95380,-100,3,3,1,70,0,0
95996,-100,3,3,1,60,0,0
96919,-100,3,3,1,50,0,0
98149,-100,3,3,1,40,0,0
98919,-100,3,3,20,50,0,0
99226,-100,3,3,20,60,0,0
99688,-100,3,3,1,70,0,0
100611,-100,3,3,2,70,0,0
100688,-100,3,3,1,70,0,0
102457,-100,3,3,2,70,0,0
102534,-100,3,3,1,70,0,0
103073,-100,3,3,2,70,0,0
103149,-100,3,3,1,70,0,0
104303,-100,3,3,2,70,0,0
104380,-100,3,3,1,70,0,0
105534,-100,3,3,2,65,0,0
105637,-100,3,3,1,65,0,0
106149,-100,3,3,2,65,0,0
106226,-100,3,3,1,65,0,0
107073,-100,3,3,1,70,0,0
107996,-100,3,3,2,70,0,0
108073,-100,3,3,1,70,0,0
109842,-100,3,3,2,65,0,0
109919,-100,3,3,1,65,0,0
110457,-100,3,3,2,65,0,0
110534,-100,3,3,1,65,0,0
110765,-100,3,3,1,70,0,0
111380,-100,3,3,2,70,0,0
111457,-100,3,3,1,70,0,0
111688,-100,3,3,1,75,0,0
111996,-100,3,3,2,75,0,0
112073,-100,3,3,1,75,0,0
112303,-100,3,3,2,75,0,0
112380,-100,3,3,1,75,0,0
112611,-100,3,3,1,80,0,0
113226,-100,3,3,2,80,0,0
113303,-100,3,3,1,80,0,0
113534,-100,3,3,1,85,0,0
114149,-100,3,3,2,85,0,0
114226,-100,3,3,1,85,0,0
114457,307.692307692308,4,2,10,60,1,0
114687,-100,4,3,1,30,0,0
114764,-100,4,3,1,85,0,1
116303,-100,4,3,1,90,0,1
116457,-100,4,3,2,90,0,1
116533,-100,4,3,1,90,0,1
116764,-100,4,3,2,90,0,1
116841,-100,4,3,1,90,0,1
116918,-100,4,3,1,60,0,0
117149,-100,4,3,1,30,0,0
117226,-100,4,3,1,85,0,1
118303,-100,4,3,2,85,0,1
118380,-100,4,3,1,85,0,1
118764,-100,4,3,1,90,0,1
118918,-100,4,3,2,90,0,1
118995,-100,4,3,1,90,0,1
119226,-100,4,3,2,90,0,1
119303,-100,4,3,1,90,0,1
119380,-100,4,3,1,60,0,0
119610,-100,4,3,1,30,0,0
119687,-100,4,3,1,85,0,1
121226,-100,4,3,1,90,0,1
121380,-100,4,3,2,90,0,1
121457,-100,4,3,1,90,0,1
121687,-100,4,3,2,90,0,1
121764,-100,4,3,1,90,0,1
121841,-100,4,3,1,60,0,0
122072,-100,4,3,1,30,0,0
122149,-100,4,3,1,85,0,1
123226,-100,4,3,2,85,0,1
123303,-100,4,3,1,85,0,1
123687,-100,4,3,1,90,0,1
123841,-100,4,3,2,90,0,1
123918,-100,4,3,1,90,0,1
124149,-100,4,3,2,90,0,1
124226,-100,4,3,1,90,0,1
124303,-100,4,3,1,60,0,0
125533,-100,4,3,1,65,0,0
126764,307.692307692308,3,3,1,70,1,0
130456,-100,3,3,1,75,0,0
130969,-100,3,3,2,75,0,0
131020,-100,3,3,1,75,0,0
131276,-100,3,3,2,75,0,0
131328,-100,3,3,1,75,0,0
131584,-100,3,3,2,75,0,0
131635,-100,3,3,1,75,0,0
131892,-100,3,3,2,75,0,0
131943,-100,3,3,1,75,0,0
132199,-100,3,3,2,75,0,0
132251,-100,3,3,1,75,0,0
132507,-100,3,3,2,75,0,0
132558,-100,3,3,1,75,0,0
132815,-100,3,3,2,75,0,0
132866,-100,3,3,1,75,0,0
133122,-100,3,3,2,75,0,0
133174,-100,3,3,1,75,0,0
133225,-100,3,3,1,80,0,0
133840,-100,3,3,1,85,0,0
134148,307.692307692308,4,3,1,90,1,0
134455,-100,4,3,1,60,0,0
136609,307.692307692308,3,3,1,60,1,0
136916,-100,3,3,1,65,0,0
138147,-100,3,3,1,60,0,0
138378,-100,3,3,1,30,0,0
138455,-100,3,3,1,90,0,1
138609,-100,3,3,20,80,0,0
139378,-100,3,3,20,70,0,0
140301,-100,3,3,20,60,0,0
141224,-100,3,3,20,50,0,0
142147,-100,3,3,20,40,0,0
143070,-100,3,3,20,30,0,0

[Colours]
Combo1 : 193,208,241
Combo2 : 255,227,150
Combo3 : 217,187,223
Combo4 : 168,181,109

[HitObjects]
120,336,1230,6,0,L|304:336,2,166.5,6|6|2,3:1|3:1|3:3,0:0:0:0:
240,334,2460,2,0,L|368:334,1,111,0|0,2:3|2:3,0:0:0:0:
216,334,3076,6,0,L|10:334,2,166.5,6|6|2,3:1|3:1|3:3,0:0:0:0:
336,334,4306,2,0,L|352:206,1,111,2|2,2:3|2:3,0:0:0:0:
200,144,4922,5,6,3:1:0:0:
200,144,5230,2,0,L|344:144,1,111,2|2,2:3|3:3,0:0:0:0:
184,144,5845,2,0,P|152:192|184:192,1,111,2|2,3:3|2:3,0:0:0:0:
240,193,6306,1,6,2:1:0:0:
456,384,6768,6,0,B|456:0|272:384|216:0|168:200|456:192,1,555,6|2,3:1|2:3,0:0:0:0:
304,192,8614,1,2,2:3:0:0:
304,192,8921,1,2,2:3:0:0:
160,192,9229,1,2,2:3:0:0:
160,192,9537,1,2,2:3:0:0:
16,192,9844,5,6,2:1:0:0:
256,192,10152,8,0,10767,2:3:0:0:
112,352,11075,6,0,P|80:320|120:280,1,111,6|10,3:3|2:3,0:0:0:0:
224,272,11690,2,0,L|280:272,2,55.5,2|0|10,3:3|1:3|2:3,0:0:0:0:
64,208,12306,6,0,L|64:88,1,111,2|10,3:3|2:3,0:0:0:0:
176,64,12921,2,0,L|304:64,1,111,2|10,3:3|2:3,0:0:0:0:
448,176,13537,6,0,L|504:176,2,55.5,2|0|10,3:3|1:3|3:3,0:0:0:0:
320,256,14152,2,0,L|440:256,1,111,2|10,2:3|3:3,0:0:0:0:
304,224,14767,6,0,L|304:104,1,111,2|10,2:3|3:3,0:0:0:0:
304,104,15229,1,2,1:3:0:0:
240,96,15383,2,0,L|112:96,1,111,6|6,3:2|3:2,0:0:0:0:
264,176,15998,6,0,L|384:176,1,111,6|10,3:1|2:3,0:0:0:0:
376,184,16614,2,0,L|256:184,1,111,2|10,3:3|2:3,0:0:0:0:
136,232,17229,6,0,P|64:144|208:40,1,333,2|10,3:3|2:3,0:0:0:0:
360,88,18460,5,6,2:1:0:0:
360,144,18767,2,0,L|248:144,1,111,10|2,3:3|2:3,0:0:0:0:
136,144,19383,2,0,L|80:144,1,55.5,10|2,2:3|2:3,0:0:0:0:
24,232,19690,6,0,L|184:232,3,111,6|14|6|14,2:1|2:1|2:1|2:1,0:0:0:0:
256,232,20921,6,0,B|312:232|312:232|256:232,1,111,6|10,3:3|3:3,0:0:0:0:
135,232,21537,2,0,L|79:232,2,55.5,2|0|10,3:3|1:3|2:3,0:0:0:0:
248,176,22152,6,0,L|392:176,1,111,2|10,3:3|3:3,0:0:0:0:
448,120,22767,2,0,L|328:120,1,111,2|10,3:3|2:3,0:0:0:0:
200,208,23383,6,0,L|136:208,2,55.5,2|0|10,3:3|1:3|3:3,0:0:0:0:
312,224,23998,2,0,L|168:224,1,111,2|10,2:3|3:3,0:0:0:0:
328,288,24614,6,0,L|472:288,2,111,2|10|6,2:3|2:3|3:2,0:0:0:0:
200,296,25537,1,6,3:2:0:0:
72,312,25844,6,0,L|72:184,1,111,6|10,3:1|2:3,0:0:0:0:
184,136,26460,2,0,L|64:136,1,111,2|10,3:3|2:3,0:0:0:0:
200,304,27075,6,0,P|256:264|112:120,1,333,2|10,2:3|2:3,0:0:0:0:
264,160,28306,6,0,L|424:160,1,111,6|10,3:1|3:3,0:0:0:0:
264,216,28921,2,0,L|144:216,1,111,2|10,2:3|2:3,0:0:0:0:
288,304,29537,6,0,L|368:304,2,55.5,6|2|10,2:1|3:3|2:3,0:0:0:0:
176,248,30152,2,0,L|88:248,1,55.5,6|2,2:1|3:3,0:0:0:0:
64,248,30460,1,10,2:3:0:0:
200,328,30767,6,0,P|288:296|288:200,1,166.5,6|0,2:3|1:3,0:0:0:0:
248,216,31382,1,2,2:3:0:0:
112,208,31690,6,0,P|48:160|120:112,1,166.5,10|2,2:3|2:3,0:0:0:0:
144,104,32305,1,10,2:3:0:0:
280,96,32613,6,0,L|416:96,1,111,2|10,2:3|3:3,0:0:0:0:
280,176,33228,2,0,L|200:176,1,55.5,2|2,2:3|2:3,0:0:0:0:
296,240,33536,6,0,L|464:240,1,166.5,2|10,2:3|2:3,0:0:0:0:
240,328,34459,6,0,P|200:256|272:176,1,166.5,6|0,2:1|1:3,0:0:0:0:
296,184,35074,1,2,2:3:0:0:
176,256,35382,6,0,P|136:184|208:104,1,166.5,10|2,2:3|2:3,0:0:0:0:
232,112,35997,1,10,2:3:0:0:
376,104,36305,6,0,L|192:104,1,166.5,2|0,2:3|1:3,0:0:0:0:
152,96,36920,1,2,2:3:0:0:
264,280,37228,6,0,L|336:280,1,55.5,2|10,2:3|2:3,0:0:0:0:
432,208,37689,1,10,2:3:0:0:
432,160,37843,2,0,L|240:160,1,166.5,2|10,2:3|2:3,0:0:0:0:
192,160,38458,6,0,P|144:200|208:280,1,166.5,6|2,3:3|3:3,0:0:0:0:
240,280,39074,2,0,L|368:280,1,111,0|10,2:3|3:3,0:0:0:0:
224,336,39689,6,0,L|24:336,1,166.5,2|2,2:3|3:3,0:0:0:0:
112,272,40304,2,0,L|248:272,1,111,0|10,2:3|3:3,0:0:0:0:
360,232,40920,5,6,2:1:0:0:
360,232,41228,1,10,2:3:0:0:
232,200,41535,1,2,2:3:0:0:
232,200,41843,1,10,2:3:0:0:
104,184,42151,6,0,P|112:128|264:48,1,222,2|2,2:3|2:3,0:0:0:0:
352,48,43074,1,10,2:3:0:0:
216,208,43381,6,0,P|160:160|232:112,1,166.5,6|2,2:1|3:3,0:0:0:0:
272,112,43997,1,0,2:3:0:0:
384,112,44304,1,10,3:3:0:0:
248,240,44612,6,0,L|96:240,1,111,2|10,2:3|3:3,0:0:0:0:
248,240,45228,2,0,L|320:240,2,55.5,0|2|10,2:3|3:3|3:3,0:0:0:0:
112,272,45843,6,0,L|112:120,1,111,6|10,2:3|2:3,0:0:0:0:
224,144,46458,2,0,L|224:24,1,111,2|10,2:3|2:3,0:0:0:0:
336,264,47074,6,0,L|336:112,1,111,2|10,2:3|2:3,0:0:0:0:
448,136,47689,2,0,L|448:16,1,111,2|10,2:3|2:3,0:0:0:0:
312,304,48304,6,0,L|312:152,1,111,6|10,2:1|2:3,0:0:0:0:
200,176,48919,2,0,L|200:56,1,111,2|10,2:3|2:3,0:0:0:0:
256,64,49381,1,0,0:0:0:0:
312,80,49535,6,0,L|448:80,1,111,6|10,2:1|2:3,0:0:0:0:
304,144,50151,2,0,L|168:144,1,111,6|14,2:1|2:1,0:0:0:0:
56,192,50766,5,6,2:3:0:0:
256,192,53228,5,4,3:1:0:0:
456,208,55689,6,0,L|192:208,1,222,6|10,2:3|2:3,0:0:0:0:
16,216,56920,1,0,2:3:0:0:
32,160,57228,2,0,L|168:160,1,111,2|10,1:3|2:3,0:0:0:0:
312,160,57997,1,2,3:3:0:0:
256,104,58151,6,0,P|168:160|240:248,1,222,2|10,2:3|3:3,0:0:0:0:
456,272,59381,2,0,L|456:144,1,111,6|2,2:1|2:3,0:0:0:0:
328,160,59997,1,14,2:1:0:0:
384,160,60304,1,2,2:3:0:0:
224,240,60612,5,6,2:1:0:0:
256,192,60920,8,2,62766,2:3:0:0:
391,320,63074,5,0,2:3:0:0:
392,320,63381,2,0,L|504:320,1,111,14|2,2:3|2:3,0:0:0:0:
392,320,63997,2,0,L|392:232,1,55.5,10|2,2:3|2:3,2:3:0:0:
452,252,64304,5,2,2:3:0:0:
328,216,64612,2,0,L|256:216,1,55.5,10|0,2:3|1:3,0:0:0:0:
328,280,64920,2,0,P|408:240|320:208,1,222,2|2,2:3|2:3,0:0:0:0:
168,128,65843,6,0,L|48:128,1,111,10|2,2:3|2:3,0:0:0:0:
168,128,66458,2,0,L|168:56,1,55.5,10|2,2:3|2:3,0:0:0:0:
112,128,66766,6,0,P|48:180|144:272,1,222,2|2,2:3|2:3,0:0:0:0:
232,272,67689,1,10,2:3:0:0:
72,296,67997,6,0,L|72:145,1,111,6|10,2:3|2:3,0:0:0:0:
128,176,68458,1,0,2:3:0:0:
184,176,68612,1,2,2:3:0:0:
296,168,68920,2,0,L|296:96,1,55.5,10|2,2:3|2:3,2:3:0:0:
240,104,69228,5,2,2:3:0:0:
128,96,69535,2,0,L|56:96,1,55.5,10|0,2:3|1:3,0:0:0:0:
128,96,69843,2,0,P|208:128|128:184,1,222,2|6,2:3|2:3,0:0:0:0:
288,168,70766,6,0,P|296:256|80:360,1,333,10|2,2:3|2:3,0:0:0:0:
112,352,71997,1,10,2:3:0:0:
216,200,72304,1,2,2:3:0:0:
216,200,72612,1,10,2:3:0:0:
56,104,72920,5,6,2:3:0:0:
56,160,73228,2,0,L|160:160,1,55.5,10|0,2:3|2:3,0:0:0:0:
167,160,73535,2,0,L|47:160,1,111,2|10,2:3|2:3,0:0:0:0:
176,336,74151,5,2,2:3:0:0:
208,280,74304,1,0,1:3:0:0:
176,225,74458,1,10,2:3:0:0:
64,216,74766,2,0,L|208:216,1,111,2|10,2:3|2:3,0:0:0:0:
328,224,75381,6,0,P|368:192|312:160,1,111,2|10,2:3|2:3,0:0:0:0:
280,152,75843,1,0,1:3:0:0:
224,152,75997,2,0,L|336:152,1,111,2|10,2:3|2:3,0:0:0:0:
208,232,76612,6,0,L|64:232,1,111,2|10,2:3|2:3,0:0:0:0:
208,288,77228,2,0,L|320:288,1,111,2|10,2:3|2:3,0:0:0:0:
319,288,77689,1,2,2:3:0:0:
240,224,77843,6,0,L|112:224,1,111,6|10,2:3|2:3,0:0:0:0:
72,176,78304,2,0,L|192:176,1,111
240,176,78766,1,10,2:3:0:0:
360,176,79074,5,2,2:3:0:0:
384,120,79227,1,0,1:3:0:0:
360,65,79381,1,10,2:3:0:0:
240,72,79689,2,0,L|120:72,1,111,2|10,2:3|2:3,0:0:0:0:
280,296,80304,6,0,P|384:240|216:56,1,444,6|2,2:3|2:3,0:0:0:0:
120,48,81843,1,2,2:3:0:0:
226,47,82151,2,0,L|346:47,1,111,2|0,2:3|2:3,0:0:0:0:
336,152,82766,6,0,L|184:152,1,111,6|10,3:3|3:3,0:0:0:0:
280,144,83227,2,0,L|344:144,1,55.5,0|2,2:3|2:3,0:0:0:0:
208,112,83689,6,0,L|48:112,2,111,10|2|10,3:3|2:3|2:3,0:0:0:0:
336,112,84612,6,0,L|416:112,1,55.5,2|0,3:3|0:0,0:0:0:0:
392,56,85073,2,0,L|328:56,1,55.5,0|2,2:3|2:3,0:0:0:0:
208,88,85535,6,0,L|72:88,1,111,10|2,3:3|2:3,0:0:0:0:
208,104,86150,1,10,2:3:0:0:
344,208,86458,6,0,L|344:64,1,111,6|10,3:1|3:3,0:0:0:0:
288,64,86919,2,0,L|208:64,1,55.5,0|2,2:3|2:3,0:0:0:0:
360,248,87381,6,0,L|488:248,2,111,10|2|10,3:3|2:3|2:3,0:0:0:0:
232,336,88304,6,0,L|160:336,1,55.5,2|0,3:3|0:0,0:0:0:0:
288,264,88766,2,0,L|360:264,1,55.5,0|2,2:3|2:3,0:0:0:0:
216,200,89227,6,0,L|88:200,2,111,10|2|10,3:3|2:3|2:3,0:0:0:0:
352,208,90150,5,6,2:3:0:0:
256,192,90457,8,0,91226,0:0:0:0:
256,192,91380,8,2,91534,3:3:0:0:
256,192,91688,8,2,91842,3:3:0:0:
256,192,91996,8,2,92457,3:3:0:0:
256,192,92611,8,2,94765,2:3:0:0:
352,208,95073,5,6,3:3:0:0:
256,192,98457,12,0,99380,0:0:0:0:
104,288,99688,6,0,L|288:288,1,166.5,6|2,2:3|3:3,0:0:0:0:
160,208,100457,2,0,L|80:208,1,55.5,2|6,2:3|1:1,0:0:0:0:
216,136,100919,1,0,2:3:0:0:
384,136,101380,1,2,2:3:0:0:
312,192,101534,6,0,L|128:192,1,166.5,2|2,2:3|3:3,0:0:0:0:
256,128,102303,2,0,L|336:128,1,55.5,2|6,2:3|1:1,0:0:0:0:
432,128,102765,1,2,2:3:0:0:
264,88,103226,1,2,3:3:0:0:
192,88,103380,6,0,P|136:152|208:152,1,166.5,2|2,2:3|3:3,0:0:0:0:
296,176,104149,1,2,2:3:0:0:
352,176,104303,2,0,L|208:176,1,111,6|0,1:1|2:3,0:0:0:0:
72,176,105073,1,2,2:3:0:0:
136,176,105226,6,0,P|192:256|128:296,1,166.5,2|0,2:3|0:0,0:0:0:0:
104,296,105842,1,2,2:3:0:0:
216,320,106149,2,0,L|352:320,2,111,2|2|2,1:3|2:3|2:3,0:0:0:0:
360,320,107073,6,0,P|416:272|352:224,1,166.5,6|2,3:3|3:3,0:0:0:0:
248,192,107842,2,0,L|312:192,1,55.5,2|6,2:3|1:1,0:0:0:0:
416,192,108303,1,0,2:3:0:0:
240,184,108765,1,2,2:3:0:0:
168,176,108919,6,0,P|168:120|272:72,1,166.5,2|2,2:3|3:3,0:0:0:0:
368,80,109688,2,0,L|304:80,1,55.5,2|4,2:3|1:1,0:0:0:0:
200,112,110149,2,0,L|336:112,1,111,0|0,2:3|1:3,0:0:0:0:
168,256,110765,6,0,P|136:232|208:80,1,222,6|2,2:3|1:3,0:0:0:0:
288,72,111688,2,0,L|40:72,1,222,6|2,2:1|1:3,0:0:0:0:
184,176,112611,6,0,L|424:176,1,222,6|2,3:1|1:3,0:0:0:0:
280,264,113534,2,0,P|240:208|344:96,1,222,6|2,3:1|1:3,0:0:0:0:
448,88,114457,5,0,2:3:0:0:
448,152,114764,2,0,L|304:152,1,111,6|2,3:3|3:3,0:0:0:0:
224,152,115380,1,10,3:3:0:0:
344,232,115687,6,0,P|384:192|304:96,1,166.5,2|0,3:3|1:3,0:0:0:0:
288,96,116303,2,0,L|136:96,1,111,2|10,2:3|2:3,0:0:0:0:
312,176,116918,5,2,3:3:0:0:
312,168,117226,2,0,L|464:168,2,111,6|2|10,3:3|3:3|3:3,0:0:0:0:
184,176,118149,6,0,P|144:256|192:256,1,166.5,2|0,3:3|1:3,0:0:0:0:
232,256,118764,2,0,L|232:176,1,55.5,2|2,2:3|1:3,0:0:0:0:
336,160,119226,1,2,1:3:0:0:
280,160,119380,5,2,3:3:0:0:
280,120,119687,2,0,L|128:120,2,111,6|2|10,3:3|3:3|3:3,0:0:0:0:
168,208,120610,6,0,L|40:208,1,111,2|10,3:3|3:3,0:0:0:0:
168,272,121226,2,0,L|296:272,1,111,2|10,2:3|2:3,0:0:0:0:
408,280,121841,5,2,3:3:0:0:
408,272,122149,2,0,L|288:272,1,111,6|2,3:3|3:3,0:0:0:0:
184,272,122764,1,10,3:3:0:0:
312,224,123072,6,0,P|312:176|200:120,1,166.5,2|2,3:3|1:3,0:0:0:0:
168,120,123687,2,0,L|80:120,2,55.5,2|2|10,2:3|1:3|2:3,0:0:0:0:
304,120,124303,5,6,2:1:0:0:
304,176,124610,2,0,L|208:176,1,74,0|0,2:3|2:3,0:0:0:0:
192,176,124918,1,2,2:3:0:0:
192,88,125226,1,2,2:3:0:0:
328,88,125533,5,6,2:1:0:0:
328,144,125840,2,0,L|424:144,1,74,0|0,2:3|2:3,0:0:0:0:
440,144,126148,1,2,2:3:0:0:
440,56,126456,1,2,2:3:0:0:
296,224,126764,6,0,P|240:208|312:104,1,222,6|2,2:3|2:3,0:0:0:0:
408,104,127687,2,0,L|408:216,1,111,10|2,2:3|3:3,0:0:0:0:
296,264,128302,1,10,2:3:0:0:
160,264,128610,6,0,P|152:208|272:112,1,222,2|2,2:3|2:3,0:0:0:0:
376,64,129533,2,0,L|376:176,1,111,10|2,2:3|3:3,0:0:0:0:
264,176,130148,1,10,2:3:0:0:
120,264,130456,6,0,P|80:176|176:104,1,222,6|2,2:1|2:3,0:0:0:0:
280,176,131379,2,0,L|416:176,2,111,10|2|10,2:3|2:3|2:3,0:0:0:0:
144,304,132302,6,0,P|160:192|264:176,1,222,2|2,3:3|2:3,0:0:0:0:
136,160,133225,2,0,L|8:160,2,111,6|6|6,2:1|2:1|2:1,0:0:0:0:
288,160,134148,5,6,2:3:0:0:
256,192,134455,12,0,136609,2:3:0:0:
256,192,136916,12,0,137224,2:3:0:0:
256,192,137378,12,0,137686,2:3:0:0:
256,192,137839,12,2,138147,3:3:0:0:
256,192,138455,12,0,143993,0:0:0:0:
