osu file format v14

[General]
AudioFilename: audio.mp3
AudioLeadIn: 0
PreviewTime: 63074
Countdown: 0
SampleSet: Drum
StackLeniency: 0.7
Mode: 2
LetterboxInBreaks: 0
WidescreenStoryboard: 1

[Editor]
Bookmarks: 1230,11075,20921,30767,38458,45843,50766,63074,72920,82766,90150,95073,99688,107073,114457,124303,134148,138455
DistanceSpacing: 1
BeatDivisor: 9
GridSize: 4
TimelineZoom: 3.599998

[Metadata]
Title:Erinyes
TitleUnicode:Erinyes
Artist:Toromaru
ArtistUnicode:とろまる
Creator:autofanboy
Version:ZiRoX's Rain
Source:osu!catch World Cup 2023
Tags:alienflybot AFB fayew skill issue lol Verti Stardust Prism -Rustyy ZiRoX Amphy Kaetwo CWC2023 CWC 2023 Quarterfinals QF HR3 HardRock3 Hard Rock featured artist FA Mappers’ Guild MPG MG Parasol Pig osu! original piano Electronic Instrumental
BeatmapID:4268836
BeatmapSetID:2000438

[Difficulty]
HPDrainRate:5
CircleSize:4
OverallDifficulty:9
ApproachRate:9
SliderMultiplier:1.8
SliderTickRate:1

[Events]
//Background and Video events
0,0,"flowr.jpg",0,0
//Break Periods
//Storyboard Layer 0 (Background)
//Storyboard Layer 1 (Fail)
//Storyboard Layer 2 (Pass)
//Storyboard Layer 3 (Foreground)
//Storyboard Layer 4 (Overlay)
//Storyboard Sound Samples

[TimingPoints]
1230,307.692307692308,3,3,1,70,1,0
4922,-100,3,3,1,75,0,0
6768,-100,3,3,1,70,0,0
8614,307.692307692308,4,3,1,65,1,0
11075,-100,4,3,1,60,0,0
13998,-100,4,3,2,60,0,0
14075,-100,4,3,1,60,0,0
17383,-100,4,3,2,60,0,0
17460,-100,4,3,1,60,0,0
17690,-100,4,3,2,60,0,0
17767,-100,4,3,1,60,0,0
17998,-100,4,3,2,60,0,0
18075,-100,4,3,1,60,0,0
20844,-100,4,3,1,30,0,0
20921,-100,4,3,1,60,0,0
27229,-100,4,3,2,60,0,0
27306,-100,4,3,1,60,0,0
27537,-100,4,3,2,60,0,0
27614,-100,4,3,1,60,0,0
27844,-100,4,3,2,60,0,0
27921,-100,4,3,1,60,0,0
29537,-100,4,3,1,65,0,0
30152,-100,4,3,1,70,0,0
30767,307.692307692308,3,3,1,60,1,0
31228,-100,3,3,2,60,0,0
31305,-100,3,3,1,60,0,0
33074,-100,3,3,2,60,0,0
33151,-100,3,3,1,60,0,0
33228,-100,3,3,1,65,0,0
33843,-100,3,3,1,70,0,0
34459,-100,3,3,1,60,0,0
34920,-100,3,3,2,60,0,0
34997,-100,3,3,1,60,0,0
36767,-100,3,3,2,60,0,0
36843,-100,3,3,1,60,0,0
37228,307.692307692308,4,3,1,65,1,0
37843,-100,4,3,1,70,0,0
38458,-100,4,3,1,60,0,0
40920,-100,4,3,1,65,0,0
43381,-100,4,3,1,60,0,0
48304,-100,4,3,1,65,0,0
49535,-100,4,3,1,70,0,0
50151,-100,4,3,1,75,0,0
50766,-100,4,3,1,80,0,0
51074,-100,4,3,1,50,0,0
53228,-100,4,3,1,55,0,0
55689,-100,4,3,1,60,0,0
55997,-100,4,3,2,60,0,0
56074,-100,4,3,1,60,0,0
56612,-100,4,3,2,60,0,0
56689,-100,4,3,1,60,0,0
56843,-100,4,3,1,30,0,0
56920,-100,4,3,1,60,0,0
57228,-100,4,3,2,60,0,0
57304,-100,4,3,1,60,0,0
57843,-100,4,3,2,60,0,0
57920,-100,4,3,1,60,0,0
58458,-100,4,3,2,60,0,0
58535,-100,4,3,1,60,0,0
59074,-100,4,3,2,60,0,0
59151,-100,4,3,1,60,0,0
59304,-100,4,3,1,30,0,0
59381,-100,4,3,1,65,0,0
59997,-100,4,3,1,70,0,0
60612,-100,4,3,1,75,0,0
61843,-100,4,3,1,80,0,0
63074,-100,4,2,10,60,0,0
63304,-100,4,3,1,30,0,0
63381,-100,4,3,1,80,0,1
64766,-100,4,3,2,80,0,1
64843,-100,4,3,1,80,0,1
65074,-100,4,3,2,80,0,1
65151,-100,4,3,1,80,0,1
65997,-100,4,3,2,80,0,1
66074,-100,4,3,1,80,0,1
66920,-100,4,3,2,80,0,1
66997,-100,4,3,1,80,0,1
67535,-100,4,3,2,80,0,1
67612,-100,4,3,1,80,0,1
69689,-100,4,3,2,80,0,1
69766,-100,4,3,1,80,0,1
69997,-100,4,3,2,80,0,1
70074,-100,4,3,1,80,0,1
70458,-100,4,3,1,85,0,1
70689,-100,4,3,1,30,0,1
70766,-100,4,3,1,85,0,1
71689,-100,4,3,1,90,0,0
72920,-100,4,3,1,80,0,1
74304,-100,4,3,2,80,0,1
74381,-100,4,3,1,80,0,1
74920,-100,4,3,2,80,0,1
74997,-100,4,3,1,80,0,1
75843,-100,4,3,2,80,0,1
75920,-100,4,3,1,80,0,1
76151,-100,4,3,2,80,0,1
76228,-100,4,3,1,80,0,1
76766,-100,4,3,2,80,0,1
76843,-100,4,3,1,80,0,1
77074,-100,4,3,2,80,0,1
77151,-100,4,3,1,80,0,1
79228,-100,4,3,2,80,0,1
79304,-100,4,3,1,80,0,1
79843,-100,4,3,2,80,0,1
79920,-100,4,3,1,80,0,1
80304,-100,4,3,1,85,0,1
81535,-100,4,3,1,90,0,1
82458,-100,4,2,10,60,0,0
82689,-100,4,3,1,30,0,0
82766,307.692307692308,3,3,1,70,1,0
86458,-100,3,3,1,75,0,0
89535,-100,3,3,1,80,0,0
90150,307.692307692308,4,3,1,60,1,0
91380,-83.3333333333333,4,3,1,60,0,0
92611,-100,4,3,1,65,0,0
92842,-100,4,3,1,30,0,0
92919,-100,4,3,1,65,0,0
93842,-100,4,3,1,70,0,0
94457,-100,4,3,1,75,0,0
95073,307.692307692308,3,3,1,80,1,0
95380,-100,3,3,1,70,0,0
95996,-100,3,3,1,60,0,0
96919,-100,3,3,1,50,0,0
98149,-100,3,3,1,40,0,0
98919,-100,3,3,20,50,0,0
99226,-100,3,3,20,60,0,0
99688,-100,3,3,1,70,0,0
100611,-100,3,3,2,70,0,0
100688,-100,3,3,1,70,0,0
102457,-100,3,3,2,70,0,0
102534,-100,3,3,1,70,0,0
103073,-100,3,3,2,70,0,0
103149,-100,3,3,1,70,0,0
104303,-100,3,3,2,70,0,0
104380,-100,3,3,1,70,0,0
105534,-100,3,3,2,65,0,0
105637,-100,3,3,1,65,0,0
106149,-100,3,3,2,65,0,0
106226,-100,3,3,1,65,0,0
107073,-100,3,3,1,70,0,0
107996,-100,3,3,2,70,0,0
108073,-100,3,3,1,70,0,0
109842,-100,3,3,2,65,0,0
109919,-100,3,3,1,65,0,0
110457,-100,3,3,2,65,0,0
110534,-100,3,3,1,65,0,0
110765,-100,3,3,1,70,0,0
111380,-100,3,3,2,70,0,0
111457,-100,3,3,1,70,0,0
111688,-100,3,3,1,75,0,0
111996,-100,3,3,2,75,0,0
112073,-100,3,3,1,75,0,0
112303,-100,3,3,2,75,0,0
112380,-100,3,3,1,75,0,0
112611,-100,3,3,1,80,0,0
113226,-100,3,3,2,80,0,0
113303,-100,3,3,1,80,0,0
113534,-100,3,3,1,85,0,0
114149,-100,3,3,2,85,0,0
114226,-100,3,3,1,85,0,0
114457,307.692307692308,4,2,10,60,1,0
114687,-100,4,3,1,30,0,0
114764,-100,4,3,1,85,0,1
116303,-100,4,3,1,90,0,1
116457,-100,4,3,2,90,0,1
116533,-100,4,3,1,90,0,1
116764,-100,4,3,2,90,0,1
116841,-100,4,3,1,90,0,1
116918,-100,4,3,1,60,0,0
117149,-100,4,3,1,30,0,0
117226,-100,4,3,1,85,0,1
118303,-100,4,3,2,85,0,1
118380,-100,4,3,1,85,0,1
118764,-100,4,3,1,90,0,1
118918,-100,4,3,2,90,0,1
118995,-100,4,3,1,90,0,1
119226,-100,4,3,2,90,0,1
119303,-100,4,3,1,90,0,1
119380,-100,4,3,1,60,0,0
119610,-100,4,3,1,30,0,0
119687,-100,4,3,1,85,0,1
121226,-100,4,3,1,90,0,1
121380,-100,4,3,2,90,0,1
121457,-100,4,3,1,90,0,1
121687,-100,4,3,2,90,0,1
121764,-100,4,3,1,90,0,1
121841,-100,4,3,1,60,0,0
122072,-100,4,3,1,30,0,0
122149,-100,4,3,1,85,0,1
123226,-100,4,3,2,85,0,1
123303,-100,4,3,1,85,0,1
123687,-100,4,3,1,90,0,1
123841,-100,4,3,2,90,0,1
123918,-100,4,3,1,90,0,1
124149,-100,4,3,2,90,0,1
124226,-100,4,3,1,90,0,1
124303,-100,4,3,1,60,0,0
125533,-100,4,3,1,65,0,0
126764,307.692307692308,3,3,1,70,1,0
130456,-100,3,3,1,75,0,0
130969,-100,3,3,2,75,0,0
131020,-100,3,3,1,75,0,0
131276,-100,3,3,2,75,0,0
131328,-100,3,3,1,75,0,0
131584,-100,3,3,2,75,0,0
131635,-100,3,3,1,75,0,0
131892,-100,3,3,2,75,0,0
131943,-100,3,3,1,75,0,0
132199,-100,3,3,2,75,0,0
132251,-100,3,3,1,75,0,0
132507,-100,3,3,2,75,0,0
132558,-100,3,3,1,75,0,0
132815,-100,3,3,2,75,0,0
132866,-100,3,3,1,75,0,0
133122,-100,3,3,2,75,0,0
133174,-100,3,3,1,75,0,0
133225,-100,3,3,1,80,0,0
133840,-100,3,3,1,85,0,0
134148,307.692307692308,4,3,1,90,1,0
134455,-100,4,3,1,60,0,0
136609,307.692307692308,3,3,1,60,1,0
136916,-100,3,3,1,65,0,0
138147,-100,3,3,1,60,0,0
138378,-100,3,3,1,30,0,0
138455,-100,3,3,1,90,0,1
138609,-100,3,3,20,80,0,0
139378,-100,3,3,20,70,0,0
140301,-100,3,3,20,60,0,0
141224,-100,3,3,20,50,0,0
142147,-100,3,3,20,40,0,0
143070,-100,3,3,20,30,0,0

[Colours]
Combo1 : 193,208,241
Combo2 : 255,227,150
Combo3 : 217,187,223
Combo4 : 168,181,109

[HitObjects]
380,144,1230,6,0,L|380:48,1,90,6|0,3:1|0:0,0:0:0:0:
332,52,1460,1,0,2:3:0:0:
284,52,1537,1,0,2:3:0:0:
132,144,1691,2,0,L|132:48,1,90,6|0,3:1|0:0,0:0:0:0:
180,52,1921,1,0,2:3:0:0:
228,52,1998,1,2,2:3:0:0:
380,192,2153,6,0,L|284:192,1,90,2|0,3:3|2:3,0:0:0:0:
144,192,2460,2,0,L|144:88,1,90,0|2,2:3|3:3,0:0:0:0:
288,192,2768,1,0,2:3:0:0:
148,192,2922,1,2,2:3:0:0:
384,144,3076,6,0,L|384:48,1,90,6|0,3:1|0:0,0:0:0:0:
336,52,3306,1,0,2:3:0:0:
288,52,3383,1,0,2:3:0:0:
128,144,3537,2,0,L|128:48,1,90,6|0,3:1|0:0,0:0:0:0:
176,52,3767,1,0,2:3:0:0:
224,52,3844,1,2,2:3:0:0:
376,192,3999,6,0,L|280:192,1,90,2|2,3:3|2:3,0:0:0:0:
196,192,4306,1,2,2:3:0:0:
348,192,4460,1,2,3:3:0:0:
212,192,4614,1,2,2:3:0:0:
348,192,4768,1,2,2:3:0:0:
112,192,4922,6,0,L|112:96,1,90,6|0,3:1|2:3,0:0:0:0:
160,104,5153,1,0,2:3:0:0:
208,104,5230,2,0,L|264:104,1,45,2|0,2:3|2:3,0:0:0:0:
112,192,5383,2,0,L|112:304,1,90,6|2,2:1|3:3,0:0:0:0:
256,280,5691,1,2,3:3:0:0:
40,192,5845,6,0,L|40:96,1,90,2|0,3:3|2:3,0:0:0:0:
88,104,6076,1,0,2:3:0:0:
136,104,6153,2,0,L|200:104,1,45,2|0,2:3|2:3,0:0:0:0:
40,192,6306,2,0,L|40:304,1,90,6|2,2:1|2:3,0:0:0:0:
176,284,6614,1,2,2:3:0:0:
392,288,6768,6,0,L|392:108,1,180,6|0,3:1|2:3,0:0:0:0:
344,112,7153,1,0,2:3:0:0:
300,112,7230,1,0,2:3:0:0:
168,112,7383,1,0,2:3:0:0:
120,112,7460,1,0,2:3:0:0:
168,112,7537,1,0,2:3:0:0:
300,112,7691,5,0,2:3:0:0:
344,112,7768,1,0,2:3:0:0:
300,112,7845,1,0,2:3:0:0:
168,112,7999,1,0,2:3:0:0:
216,112,8076,1,0,2:3:0:0:
260,112,8153,1,0,2:3:0:0:
124,296,8306,1,2,2:3:0:0:
76,296,8383,1,2,2:3:0:0:
76,244,8460,1,2,2:3:0:0:
340,216,8614,6,0,L|432:124,1,120,2|2,2:3|3:3,0:0:0:0:
340,184,8921,2,0,L|428:96,1,120,2|2,2:3|3:3,0:0:0:0:
340,140,9229,2,0,L|428:52,1,120,2|2,2:3|3:3,0:0:0:0:
264,144,9537,2,0,L|184:144,2,60,2|2|2,2:3|3:3|3:3,0:0:0:0:
440,140,9844,6,0,L|440:220,2,60,6|0|0,2:1|0:0|2:3,0:0:0:0:
328,136,10152,2,0,L|328:216,2,60,0|0|0,2:3|2:3|2:3,0:0:0:0:
216,136,10460,2,0,L|216:216,2,60,0|0|0,2:3|2:3|2:3,0:0:0:0:
328,136,10767,2,0,L|400:136,2,60,0|0|0,2:3|2:3|2:3,0:0:0:0:
140,136,11075,6,0,P|80:156|64:224,1,135,6|0,3:3|2:3,0:0:0:0:
232,237,11383,2,0,L|340:237,1,90,10|0,2:3|0:0,0:0:0:0:
160,233,11690,2,0,L|160:121,1,90,2|0,3:3|1:3,0:0:0:0:
308,145,11998,2,0,L|400:145,2,60,10|0|0,2:3|2:3|2:3,0:0:0:0:
140,136,12306,6,0,P|80:156|64:224,1,135,2|0,3:3|2:3,0:0:0:0:
232,236,12614,2,0,L|340:236,1,90,10|0,2:3|1:3,0:0:0:0:
160,232,12921,2,0,L|160:120,1,90,2|0,3:3|1:3,0:0:0:0:
308,144,13229,2,0,L|400:144,2,60,10|0|0,2:3|2:3|2:3,0:0:0:0:
132,148,13537,6,0,L|132:92,2,45,2|0|0,3:3|2:3|1:3,0:0:0:0:
276,104,13844,2,0,L|172:104,1,90,10|0,3:3|1:3,0:0:0:0:
332,236,14152,2,0,L|332:292,2,45,2|0|0,2:3|0:0|1:3,0:0:0:0:
188,276,14459,2,0,L|292:276,1,90,10|2,3:3|2:3,0:0:0:0:
56,204,14767,6,0,L|56:92,1,90,2|0,2:3|1:3,0:0:0:0:
268,108,15075,2,0,L|380:108,1,90,10|2,3:3|1:3,0:0:0:0:
356,172,15306,1,2,3:3:0:0:
184,172,15383,2,0,L|184:264,1,90,6|2,3:2|3:3,0:0:0:0:
416,172,15690,2,0,L|416:80,1,90,6|2,3:2|3:3,0:0:0:0:
256,224,15998,6,0,L|256:80,1,135,6|0,3:1|0:0,0:0:0:0:
408,48,16306,2,0,L|408:164,1,90,10|0,2:3|1:3,0:0:0:0:
256,224,16614,2,0,L|256:80,1,135,2|0,3:3|0:0,0:0:0:0:
104,48,16922,2,0,L|104:164,1,90,10|0,2:3|0:0,0:0:0:0:
376,132,17229,6,0,L|376:231,1,90,2|0,3:3|1:3,0:0:0:0:
324,224,17460,1,0,2:3:0:0:
268,224,17537,1,10,2:3:0:0:
216,200,17614,1,0,0:0:0:0:
192,148,17690,1,0,1:3:0:0:
404,228,17844,6,0,L|403:335,1,90,2|0,2:3|1:3,0:0:0:0:
356,312,18075,1,0,2:3:0:0:
184,312,18152,2,0,L|128:312,1,45,10|2,2:3|2:3,0:0:0:0:
140,260,18306,2,0,L|192:260,1,45,2|2,2:3|2:3,0:0:0:0:
344,248,18460,6,0,L|344:140,1,90,6|0,2:1|1:3,0:0:0:0:
200,160,18767,2,0,L|128:160,2,60,10|0|0,3:3|2:3|2:3,0:0:0:0:
372,160,19075,2,0,L|372:40,1,90,2|2,2:3|1:3,0:0:0:0:
224,72,19383,2,0,L|128:72,1,90,10|2,2:3|2:3,0:0:0:0:
404,240,19690,6,0,L|460:240,2,45,6|0|2,2:1|0:0|3:3,0:0:0:0:
256,264,19998,2,0,L|256:212,2,45,14|0|2,2:1|0:0|3:3,0:0:0:0:
108,240,20306,2,0,L|52:240,2,45,6|0|2,2:1|0:0|3:3,0:0:0:0:
244,240,20614,2,0,L|116:240,1,90,14|0,2:1|0:0,0:0:0:0:
372,136,20921,6,0,P|432:156|448:224,1,135,6|0,3:3|2:3,0:0:0:0:
280,236,21229,2,0,L|172:236,1,90,10|0,3:3|0:0,0:0:0:0:
352,232,21536,2,0,L|352:120,1,90,2|0,3:3|1:3,0:0:0:0:
204,144,21844,2,0,L|112:144,2,60,10|0|0,2:3|2:3|2:3,0:0:0:0:
372,136,22152,6,0,P|432:156|448:224,1,135,2|0,3:3|2:3,0:0:0:0:
280,236,22460,2,0,L|172:236,1,90,10|0,3:3|1:3,0:0:0:0:
352,232,22767,2,0,L|352:120,1,90,2|0,3:3|1:3,0:0:0:0:
204,144,23075,2,0,L|112:144,2,60,10|0|0,2:3|2:3|2:3,0:0:0:0:
380,148,23383,6,0,L|380:92,2,45,2|0|0,3:3|2:3|1:3,0:0:0:0:
236,104,23690,2,0,L|340:104,1,90,10|0,3:3|0:0,0:0:0:0:
180,172,23998,2,0,L|180:116,2,45,2|0|0,2:3|0:0|1:3,0:0:0:0:
324,192,24305,2,0,L|220:192,1,90,10|0,3:3|0:0,0:0:0:0:
464,196,24613,6,0,L|464:96,1,90,2|0,2:3|1:3,0:0:0:0:
244,108,24921,2,0,L|132:108,1,90,10|2,2:3|2:3,0:0:0:0:
156,172,25152,1,2,2:3:0:0:
328,172,25229,2,0,L|328:264,1,90,6|2,3:2|3:3,0:0:0:0:
96,172,25536,2,0,L|96:80,1,90,6|2,3:2|3:3,0:0:0:0:
256,224,25844,6,0,L|256:80,1,135,6|0,3:1|0:0,0:0:0:0:
104,48,26152,2,0,L|104:164,1,90,10|0,2:3|1:3,0:0:0:0:
256,224,26460,2,0,L|256:80,1,135,2|0,3:3|0:0,0:0:0:0:
408,48,26768,2,0,L|408:164,1,90,10|0,2:3|0:0,0:0:0:0:
136,132,27075,6,0,L|136:231,1,90,2|0,2:3|1:3,0:0:0:0:
188,224,27306,1,0,2:3:0:0:
244,224,27383,1,10,2:3:0:0:
296,200,27460,1,0,2:3:0:0:
320,148,27536,1,0,1:3:0:0:
108,228,27690,6,0,L|109:335,1,90,2|2,3:3|1:3,0:0:0:0:
156,312,27921,1,0,2:3:0:0:
328,312,27998,2,0,L|384:312,1,45,10|0,2:3|2:3,0:0:0:0:
372,260,28152,2,0,L|320:260,1,45,2|2,2:3|2:3,0:0:0:0:
168,232,28306,6,0,L|104:232,2,60,6|0|0,3:1|2:3|0:0,0:0:0:0:
260,168,28614,2,0,L|184:168,2,60,10|0|0,3:3|2:3|0:0,0:0:0:0:
352,104,28921,2,0,L|276:104,2,60,2|0|0,2:3|0:0|0:0,0:0:0:0:
436,36,29229,2,0,L|512:36,2,60,10|2|2,2:3|3:3|3:3,0:0:0:0:
272,44,29537,6,0,L|168:44,1,90,6|2,2:1|3:3,0:0:0:0:
340,44,29844,1,10,2:3:0:0:
384,80,29921,1,0,2:3:0:0:
384,132,29998,1,2,2:3:0:0:
340,164,30075,1,2,2:3:0:0:
176,168,30152,2,0,L|176:76,1,90,6|2,2:1|3:3,0:0:0:0:
320,80,30460,2,0,L|368:80,1,45,10|2,2:3|2:3,0:0:0:0:
364,140,30614,2,0,L|316:140,1,45,2|2,2:3|2:3,0:0:0:0:
108,168,30767,6,0,L|108:272,1,90,6|0,2:3|0:0,0:0:0:0:
256,256,31074,2,0,L|256:144,1,90,10|0,3:3|1:3,0:0:0:0:
176,168,31305,1,0,0:0:0:0:
96,168,31382,2,0,L|96:76,1,90,2|2,2:3|1:3,0:0:0:0:
324,168,31690,6,0,L|324:272,1,90,10|2,2:3|1:3,0:0:0:0:
176,256,31997,2,0,L|176:144,1,90,0|2,0:0|2:3,0:0:0:0:
256,168,32228,1,0,2:3:0:0:
336,168,32305,2,0,L|336:76,1,90,10|2,2:3|1:3,0:0:0:0:
108,166,32613,6,0,L|108:270,1,90,2|0,2:3|0:0,0:0:0:0:
256,254,32920,2,0,L|256:142,1,90,10|0,3:3|1:3,0:0:0:0:
336,166,33151,1,0,2:3:0:0:
416,166,33228,2,0,L|416:74,1,90,2|2,2:3|2:3,0:0:0:0:
168,92,33536,6,0,L|168:36,1,45,2|2,2:3|3:3,0:0:0:0:
216,48,33690,1,10,2:3:0:0:
368,92,33843,2,0,L|368:36,1,45,2|2,2:3|2:3,0:0:0:0:
320,48,33997,1,10,2:3:0:0:
168,92,34151,2,0,L|116:92,2,45,2|2|10,2:3|2:3|2:3,0:0:0:0:
404,168,34459,6,0,L|404:272,1,90,6|0,2:1|0:0,0:0:0:0:
256,256,34766,2,0,L|256:144,1,90,10|0,3:3|1:3,0:0:0:0:
336,168,34997,1,0,0:0:0:0:
416,168,35074,2,0,L|416:76,1,90,2|2,2:3|1:3,0:0:0:0:
188,168,35382,6,0,L|188:272,1,90,10|2,2:3|1:3,0:0:0:0:
336,256,35689,2,0,L|336:144,1,90,0|2,0:0|2:3,0:0:0:0:
256,168,35920,1,0,2:3:0:0:
176,168,35997,2,0,L|176:76,1,90,10|2,2:3|1:3,0:0:0:0:
404,166,36305,6,0,L|404:270,1,90,2|0,2:3|0:0,0:0:0:0:
256,254,36612,2,0,L|256:142,1,90,10|0,3:3|1:3,0:0:0:0:
176,166,36843,1,0,2:3:0:0:
96,166,36920,2,0,L|96:74,1,90,2|2,2:3|2:3,0:0:0:0:
344,92,37228,6,0,L|344:36,1,45,2|2,2:3|2:3,0:0:0:0:
296,48,37382,1,10,2:3:0:0:
144,92,37535,2,0,L|144:36,1,45,2|2,2:3|2:3,0:0:0:0:
192,48,37689,1,10,2:3:0:0:
344,92,37843,2,0,L|296:92,1,45,2|2,2:3|2:3,0:0:0:0:
252,92,37997,1,10,2:3:0:0:
100,208,38151,2,0,L|148:208,1,45,2|2,2:3|2:3,0:0:0:0:
192,208,38305,1,10,2:3:0:0:
432,212,38458,6,0,L|432:92,1,90,6|2,3:3|3:3,0:0:0:0:
340,212,38766,2,0,L|340:112,1,90,10|2,3:3|3:3,0:0:0:0:
188,124,39074,2,0,L|300:124,1,90,0|2,2:3|3:3,0:0:0:0:
188,124,39381,2,0,L|188:32,1,90,10|2,3:3|3:3,0:0:0:0:
324,124,39689,6,0,L|212:124,1,90,2|2,2:3|3:3,0:0:0:0:
324,124,39996,2,0,L|324:32,1,90,10|2,3:3|3:3,0:0:0:0:
180,168,40304,2,0,L|180:288,1,90,0|2,2:3|3:3,0:0:0:0:
88,168,40612,2,0,L|88:268,1,90,10|2,3:3|2:3,0:0:0:0:
144,256,40843,1,2,2:3:0:0:
340,260,40920,6,0,L|340:160,1,90,6|2,2:1|3:3,0:0:0:0:
260,176,41151,1,0,0:0:0:0:
180,176,41228,2,0,L|180:80,1,90,10|0,2:3|2:3,0:0:0:0:
324,88,41535,2,0,L|216:88,1,90,2|2,2:3|3:3,0:0:0:0:
380,88,41843,2,0,L|272:88,1,90,10|0,2:3|2:3,0:0:0:0:
444,88,42151,6,0,L|444:188,1,90,2|2,2:3|2:3,0:0:0:0:
364,172,42382,1,0,2:3:0:0:
284,172,42459,2,0,L|284:268,1,90,10|0,2:3|2:3,0:0:0:0:
136,260,42766,2,0,L|136:164,1,90,2|2,2:3|2:3,0:0:0:0:
284,172,43074,1,10,2:3:0:0:
332,172,43151,1,0,2:3:0:0:
332,112,43228,1,2,2:3:0:0:
80,212,43381,6,0,L|80:92,1,90,6|2,2:1|3:3,0:0:0:0:
172,212,43689,2,0,L|172:112,1,90,10|2,3:3|3:3,0:0:0:0:
324,124,43997,2,0,L|212:124,1,90,0|2,2:3|3:3,0:0:0:0:
324,124,44304,2,0,L|324:32,1,90,10|2,3:3|3:3,0:0:0:0:
188,124,44612,6,0,L|300:124,1,90,2|2,2:3|3:3,0:0:0:0:
188,124,44919,2,0,L|188:32,1,90,10|2,3:3|3:3,0:0:0:0:
332,168,45227,2,0,L|332:288,1,90,0|2,2:3|3:3,0:0:0:0:
176,264,45535,2,0,L|124:264,1,45,10|2,3:3|3:3,0:0:0:0:
132,316,45689,2,0,L|180:316,1,45,2|2,3:3|3:3,0:0:0:0:
372,272,45843,6,0,L|468:176,1,120,6|0,2:3|0:0,0:0:0:0:
360,272,46151,2,0,L|456:176,1,120,10|0,2:3|0:0,0:0:0:0:
348,272,46458,2,0,L|436:184,1,120,2|0,2:3|0:0,0:0:0:0:
336,272,46766,2,0,L|404:272,2,60,10|0|0,2:3|0:0|0:0,0:0:0:0:
176,272,47074,6,0,L|80:176,1,120,2|0,2:3|0:0,0:0:0:0:
184,272,47381,2,0,L|88:176,1,120,10|0,2:3|0:0,0:0:0:0:
196,272,47689,2,0,L|128:272,2,60,2|0|0,2:3|2:3|2:3,0:0:0:0:
308,276,47997,2,0,L|376:276,2,60,10|0|2,2:3|2:3|2:3,0:0:0:0:
144,272,48304,6,0,L|48:176,1,120,6|0,2:1|0:0,0:0:0:0:
156,272,48612,2,0,L|60:176,1,120,10|0,2:3|0:0,0:0:0:0:
168,272,48920,2,0,L|72:176,1,120,2|0,2:3|0:0,0:0:0:0:
180,272,49227,2,0,L|112:272,2,60,10|2|2,2:3|2:3|2:3,0:0:0:0:
368,272,49535,6,0,L|464:176,1,120,6|0,2:1|0:0,0:0:0:0:
368,272,49843,2,0,L|444:272,2,60,10|2|2,2:3|2:3|2:3,0:0:0:0:
172,272,50151,2,0,L|104:272,2,60,6|0|2,2:1|2:3|3:3,0:0:0:0:
280,272,50458,2,0,L|344:272,2,60,14|2|2,2:1|2:3|2:3,0:0:0:0:
84,272,50766,6,0,L|188:108,3,180,6|0|0|0,2:3|2:0|2:0|2:0,0:0:0:0:
84,272,51997,6,0,L|240:152,3,180,2|0|0|0,3:3|2:0|2:0|2:0,0:0:0:0:
84,272,53228,6,0,L|280:272,3,180,4|0|0|2,3:1|2:0|2:0|2:3,0:0:0:0:
80,268,54458,6,0,L|12:236,1,60,0|0,2:3|2:3,0:0:0:0:
84,160,54663,1,0,2:3:0:0:
144,128,54766,1,0,2:3:0:0:
204,88,54869,1,0,2:3:0:0:
264,56,54971,1,0,2:3:0:0:
152,52,55074,2,0,L|84:52,2,60,0|0|0,2:3|2:3|2:3,0:0:0:0:
264,56,55381,2,0,L|332:56,2,60,0|0|0,2:3|2:3|2:3,0:0:0:0:
82,125,55689,6,0,P|33:188|84:269,1,180,6|0,2:3|1:3,0:0:0:0:
136,272,56074,1,0,2:3:0:0:
179,265,56150,1,0,2:3:0:0:
212,235,56227,1,0,2:3:0:0:
211,191,56304,1,10,2:3:0:0:
188,148,56381,1,0,2:3:0:0:
140,124,56458,1,0,2:3:0:0:
275,80,56612,2,0,L|275:240,1,135,0|0,1:3|0:0,0:0:0:0:
80,100,56920,6,0,P|31:163|82:244,1,180,0|2,2:3|1:3,0:0:0:0:
132,240,57304,1,0,2:3:0:0:
180,240,57381,1,0,2:3:0:0:
228,240,57458,1,0,2:3:0:0:
388,236,57535,1,10,2:3:0:0:
388,236,57689,1,0,2:3:0:0:
236,80,57843,2,0,L|236:240,1,135,0|0,1:3|0:0,0:0:0:0:
430,125,58151,6,0,P|479:188|428:269,1,180,2|0,2:3|1:3,0:0:0:0:
376,272,58536,1,0,2:3:0:0:
333,265,58612,1,0,2:3:0:0:
300,235,58689,1,0,2:3:0:0:
301,191,58766,1,10,3:3:0:0:
324,148,58843,1,0,2:3:0:0:
372,124,58920,1,0,2:3:0:0:
236,80,59074,2,0,L|236:240,1,135,0|0,1:3|0:0,0:0:0:0:
432,92,59381,6,0,P|481:155|430:236,1,180,6|2,2:1|2:3,0:0:0:0:
372,240,59766,2,0,L|316:240,1,45,0|0,0:0|2:3,0:0:0:0:
280,240,59920,1,0,0:0:0:0:
84,320,59997,6,0,L|84:115,1,180,14|2,2:1|2:3,0:0:0:0:
140,144,60382,2,0,L|196:144,1,45,2|2,3:3|2:3,0:0:0:0:
232,144,60536,1,2,2:3:0:0:
428,152,60612,6,0,P|460:239|428:325,1,180,6|2,2:1|2:3,0:0:0:0:
340,312,61074,1,2,2:3:0:0:
184,316,61228,2,0,L|184:208,1,90,10|2,2:3|2:3,0:0:0:0:
284,224,61535,2,0,L|284:124,1,90,2|2,2:3|2:3,0:0:0:0:
232,136,61766,1,0,2:3:0:0:
96,132,61843,6,0,L|36:132,1,45,10|2,2:3|2:3,0:0:0:0:
52,188,61997,2,0,L|104:188,1,45,2|2,2:3|2:3,0:0:0:0:
248,184,62151,2,0,L|296:184,1,45,2|2,2:3|2:3,0:0:0:0:
352,188,62304,2,0,L|352:240,1,45,2|2,2:3|2:3,0:0:0:0:
208,240,62458,6,0,L|148:240,1,45,10|2,2:3|2:3,0:0:0:0:
164,296,62612,2,0,L|216:296,1,45,2|2,2:3|2:3,0:0:0:0:
364,240,62766,2,0,L|424:240,1,45,2|2,2:3|2:3,0:0:0:0:
408,296,62920,2,0,L|356:296,1,45,2|2,2:3|2:3,0:0:0:0:
164,296,63074,6,0,L|164:169,1,90,0|0,2:3|0:0,0:0:0:0:
380,208,63381,2,0,L|380:104,1,90,14|0,2:3|2:3,0:0:0:0:
232,116,63689,2,0,L|336:116,1,90,2|0,2:3|0:0,0:0:0:0:
168,240,63997,2,0,L|116:240,1,45,10|0,2:3|2:3,0:0:0:0:
124,176,64151,2,0,L|169:176,1,45,2|0,2:3|2:3,0:0:0:0:
364,160,64304,6,0,L|364:52,1,90,2|0,2:3|1:3,0:0:0:0:
220,72,64612,2,0,L|112:72,1,90,10|0,2:3|1:3,0:0:0:0:
284,68,64920,1,2,2:3:0:0:
332,92,64997,1,0,2:3:0:0:
368,132,65074,1,0,1:3:0:0:
372,180,65151,1,0,2:3:0:0:
204,180,65228,2,0,L|152:180,1,45,10|0,2:3|2:3,0:0:0:0:
304,128,65381,2,0,L|356:128,1,45,2|0,2:3|2:3,0:0:0:0:
148,132,65535,6,0,L|148:240,1,90,2|0,2:3|1:3,0:0:0:0:
284,240,65843,2,0,L|176:240,1,90,10|0,2:3|1:3,0:0:0:0:
440,236,66151,2,0,L|440:128,1,90,2|0,2:3|1:3,0:0:0:0:
284,136,66458,1,10,2:3:0:0:
264,188,66535,1,0,2:3:0:0:
284,240,66612,1,2,2:3:0:0:
336,264,66689,1,0,2:3:0:0:
480,120,66766,6,0,L|480:72,1,45,2|0,2:3|2:3,0:0:0:0:
432,76,66920,2,0,L|380:76,1,45,0|0,1:3|2:3,0:0:0:0:
212,76,67074,2,0,L|212:184,1,90,10|0,2:3|1:3,0:0:0:0:
356,172,67381,1,2,2:3:0:0:
376,224,67458,1,0,2:3:0:0:
356,276,67535,1,0,1:3:0:0:
304,300,67612,1,0,2:3:0:0:
160,304,67689,2,0,L|160:248,1,45,10|2,2:3|2:3,0:0:0:0:
308,212,67843,2,0,L|308:168,1,45,2|2,2:3|2:3,0:0:0:0:
136,168,67997,6,0,L|136:64,1,90,6|0,2:3|0:0,0:0:0:0:
272,84,68304,2,0,L|368:84,1,90,10|0,2:3|2:3,0:0:0:0:
136,168,68612,2,0,L|136:280,1,90,2|0,2:3|0:0,0:0:0:0:
296,260,68920,2,0,L|360:260,1,45,10|0,2:3|2:3,0:0:0:0:
340,204,69074,2,0,L|276:204,1,45,2|0,2:3|2:3,0:0:0:0:
108,208,69228,6,0,L|108:100,1,90,2|0,2:3|1:3,0:0:0:0:
256,120,69535,2,0,L|256:12,1,90,10|0,2:3|1:3,0:0:0:0:
92,124,69843,1,2,2:3:0:0:
72,176,69920,1,0,2:3:0:0:
92,228,69997,1,0,1:3:0:0:
144,252,70074,1,0,2:3:0:0:
288,256,70151,2,0,L|288:200,1,45,10|0,2:3|2:3,0:0:0:0:
140,164,70305,2,0,L|140:120,1,45,2|0,2:3|2:3,0:0:0:0:
320,156,70458,6,0,L|320:16,1,135,6|0,2:3|0:0,0:0:0:0:
180,28,70766,2,0,L|124:28,1,45,10|0,2:3|2:3,0:0:0:0:
136,88,70920,2,0,L|192:88,1,45,0|0,2:3|2:3,0:0:0:0:
336,88,71074,2,0,L|392:88,1,45,2|0,2:3|2:3,0:0:0:0:
380,148,71228,2,0,L|324:148,1,45,0|0,2:3|2:3,0:0:0:0:
180,160,71381,2,0,L|124:160,1,45,10|0,2:3|2:3,0:0:0:0:
136,220,71535,2,0,L|192:220,1,45,2|2,2:3|2:3,0:0:0:0:
364,220,71689,6,0,L|436:220,2,60,2|2|2,2:3|3:3|3:3,0:0:0:0:
268,220,71997,2,0,L|340:220,2,60,10|2|2,2:3|3:3|3:3,0:0:0:0:
172,220,72304,2,0,L|244:220,2,60,2|2|2,2:3|3:3|3:3,0:0:0:0:
84,220,72612,2,0,L|20:220,2,60,10|2|2,2:3|3:3|3:3,0:0:0:0:
356,116,72920,6,0,L|356:228,1,90,6|0,2:3|0:0,0:0:0:0:
208,120,73228,2,0,L|186:80,3,45,10|0|0|0,2:3|2:3|2:3|2:3,0:0:0:0:
356,116,73535,2,0,L|356:228,1,90,2|0,2:3|2:3,0:0:0:0:
200,212,73843,1,10,2:3:0:0:
180,264,73920,1,0,2:3:0:0:
200,316,73997,1,2,2:3:0:0:
252,340,74074,1,0,2:3:0:0:
404,224,74151,6,0,L|404:168,1,45,2|0,2:3|2:3,0:0:0:0:
252,184,74304,2,0,L|252:128,1,45,0|0,1:3|2:3,0:0:0:0:
408,128,74458,2,0,L|408:20,1,90,10|0,2:3|1:3,0:0:0:0:
264,172,74766,1,2,2:3:0:0:
244,120,74843,1,0,2:3:0:0:
264,68,74920,1,0,1:3:0:0:
316,44,74997,1,0,2:3:0:0:
460,48,75074,2,0,L|460:104,1,45,10|0,2:3|2:3,0:0:0:0:
308,208,75228,2,0,L|260:212,1,45,2|0,2:3|2:3,0:0:0:0:
460,204,75381,6,0,L|460:96,1,90,2|0,2:3|1:3,0:0:0:0:
320,112,75689,1,10,2:3:0:0:
268,136,75766,1,0,2:3:0:0:
248,188,75843,1,0,1:3:0:0:
268,240,75920,1,0,2:3:0:0:
412,248,75997,2,0,L|412:196,1,45,2|0,2:3|2:3,0:0:0:0:
364,204,76151,2,0,L|292:204,1,45,0|0,1:3|2:3,0:0:0:0:
144,160,76304,2,0,L|144:108,1,45,10|0,2:3|2:3,0:0:0:0:
192,116,76458,2,0,L|264:116,1,45,2|0,2:3|2:3,0:0:0:0:
412,136,76612,6,0,L|412:188,1,45,2|0,2:3|2:3,0:0:0:0:
364,180,76766,2,0,L|292:180,1,45,0|0,1:3|2:3,0:0:0:0:
144,224,76919,2,0,L|84:224,1,45,10|0,2:3|2:3,0:0:0:0:
52,224,77073,2,0,L|52:272,1,45,0|0,1:3|2:3,0:0:0:0:
220,268,77228,2,0,L|220:160,1,90,2|0,2:3|1:3,0:0:0:0:
76,192,77535,2,0,L|28:192,1,45,10|2,2:3|2:3,0:0:0:0:
32,136,77689,2,0,L|84:136,1,45,2|2,2:3|2:3,0:0:0:0:
276,132,77843,6,0,L|276:224,1,90,6|0,2:3|0:0,0:0:0:0:
132,224,78151,2,0,L|60:224,2,60,10|0|0,2:3|0:0|2:3,0:0:0:0:
244,224,78458,2,0,L|312:224,2,60,2|0|0,2:3|0:0|2:3,0:0:0:0:
132,224,78766,2,0,L|60:224,2,60,10|0|0,2:3|2:3|2:3,0:0:0:0:
340,228,79074,6,0,L|388:228,1,45,2|0,2:3|2:3,0:0:0:0:
432,224,79228,2,0,L|432:172,1,45,0|0,1:3|2:3,0:0:0:0:
376,172,79381,2,0,L|376:116,1,45,10|0,2:3|2:3,0:0:0:0:
432,116,79535,2,0,L|432:60,1,45,0|0,0:0|0:0,0:0:0:0:
268,152,79689,6,0,L|220:152,1,45,2|0,2:3|2:3,0:0:0:0:
176,156,79843,2,0,L|176:208,1,45,0|0,1:3|2:3,0:0:0:0:
232,208,79996,2,0,L|232:264,1,45,10|2,2:3|2:3,0:0:0:0:
176,264,80150,2,0,L|176:320,1,45,2|2,2:3|2:3,0:0:0:0:
360,312,80304,6,0,L|440:312,2,60,6|2|2,2:3|2:3|2:3,0:0:0:0:
260,312,80612,2,0,L|180:312,2,60,2|2|2,3:3|2:3|2:3,0:0:0:0:
360,312,80920,2,0,L|360:236,2,60,2|2|2,2:3|2:3|2:3,0:0:0:0:
260,312,81228,2,0,L|260:236,2,60,2|2|2,2:3|2:3|2:3,0:0:0:0:
100,312,81535,6,0,L|16:312,2,60,2|0|0,2:3|3:3|3:3,0:0:0:0:
200,312,81843,2,0,L|200:236,2,60,2|0|0,2:3|3:3|3:3,0:0:0:0:
300,312,82151,2,0,L|300:236,2,60,2|2|2,2:3|3:3|3:3,0:0:0:0:
200,312,82458,2,0,L|200:168,1,135,0|0,2:3|0:0,0:0:0:0:
372,316,82766,6,0,P|424:248|372:184,1,180,6|10,3:3|3:3,0:0:0:0:
228,180,83227,1,0,2:3:0:0:
373,184,83381,2,0,L|372:88,1,90,2|0,2:3|1:3,0:0:0:0:
156,120,83689,6,0,L|156:212,1,90,10|0,3:3|1:3,0:0:0:0:
288,212,83996,1,2,2:3:0:0:
336,232,84073,1,0,2:3:0:0:
356,276,84150,1,0,2:3:0:0:
360,328,84227,1,0,2:3:0:0:
200,328,84304,2,0,L|200:232,1,90,10|2,2:3|2:3,0:0:0:0:
412,208,84612,6,0,L|412:112,1,90,2|0,3:3|0:0,0:0:0:0:
312,124,84919,1,10,3:3:0:0:
464,128,85073,1,0,2:3:0:0:
240,124,85227,2,0,L|240:221,1,90,2|0,2:3|1:3,0:0:0:0:
88,120,85535,6,0,L|88:216,1,90,10|0,3:3|1:3,0:0:0:0:
232,212,85842,1,2,2:3:0:0:
280,192,85919,1,0,2:3:0:0:
300,148,85996,1,2,2:3:0:0:
304,96,86073,1,0,2:3:0:0:
144,96,86150,2,0,L|144:192,1,90,10|2,2:3|2:3,0:0:0:0:
360,196,86458,6,0,P|360:272|260:352,1,180,6|10,3:1|3:3,0:0:0:0:
148,344,86919,1,0,2:3:0:0:
364,352,87073,2,0,L|364:256,1,90,2|0,2:3|1:3,0:0:0:0:
216,240,87381,6,0,L|216:132,1,90,10|0,3:3|1:3,0:0:0:0:
64,228,87689,1,2,2:3:0:0:
68,280,87766,1,0,2:3:0:0:
88,324,87843,1,0,2:3:0:0:
136,344,87920,1,0,2:3:0:0:
280,344,87997,2,0,L|280:248,1,90,10|2,2:3|2:3,0:0:0:0:
60,256,88304,6,0,L|60:160,1,90,2|0,3:3|0:0,0:0:0:0:
152,168,88612,1,10,3:3:0:0:
296,168,88766,1,0,2:3:0:0:
60,166,88919,2,0,L|60:70,1,90,2|2,2:3|1:3,0:0:0:0:
324,192,89227,6,0,L|324:292,1,90,10|2,3:3|1:3,0:0:0:0:
244,280,89458,1,0,0:0:0:0:
164,280,89535,2,0,L|164:188,1,90,2|2,2:3|2:3,0:0:0:0:
252,184,89766,1,2,3:3:0:0:
336,188,89842,2,0,L|336:88,1,90,10|2,2:3|2:3,0:0:0:0:
264,96,90073,1,2,3:3:0:0:
112,112,90150,6,0,L|52:112,1,45,6|0,2:3|2:3,0:0:0:0:
67,112,90303,2,0,L|131:112,1,45,0|0,0:0|2:3,0:0:0:0:
112,112,90458,2,0,L|64:112,1,45,0|0,0:0|2:3,0:0:0:0:
67,112,90611,2,0,L|124:112,1,45,0|0,0:0|2:3,0:0:0:0:
112,112,90765,6,0,L|52:112,1,45,0|0,0:0|2:3,0:0:0:0:
67,112,90918,2,0,L|123:112,1,45,0|0,0:0|2:3,0:0:0:0:
112,112,91073,2,0,L|48:112,1,45,0|0,0:0|2:3,0:0:0:0:
67,112,91226,2,0,L|119:112,1,45,0|0,0:0|2:3,0:0:0:0:
336,160,91380,6,0,L|392:160,1,53.9999983520508,2|0,3:3|2:3,0:0:0:0:
392,216,91533,2,0,L|316:216,1,53.9999983520508,2|0,3:3|2:3,0:0:0:0:
336,160,91688,2,0,L|392:160,1,53.9999983520508,2|0,3:3|2:3,0:0:0:0:
392,216,91841,2,0,L|316:216,1,53.9999983520508,2|0,3:3|2:3,0:0:0:0:
336,160,91996,6,0,L|392:160,1,53.9999983520508,2|0,3:3|2:3,0:0:0:0:
392,216,92149,2,0,L|316:216,1,53.9999983520508,2|0,3:3|2:3,0:0:0:0:
336,160,92303,2,0,L|392:160,1,53.9999983520508,2|0,3:3|2:3,0:0:0:0:
392,216,92456,2,0,L|316:216,1,53.9999983520508,2|0,3:3|2:3,0:0:0:0:
184,24,92611,6,0,L|184:136,1,90,6|0,3:3|0:0,0:0:0:0:
232,116,92842,1,0,0:0:0:0:
280,116,92919,1,2,3:3:0:0:
319,136,92995,1,2,3:3:0:0:
345,172,93072,1,2,3:3:0:0:
352,216,93149,1,2,3:3:0:0:
192,304,93226,6,0,L|192:252,1,45,2|2,2:3|2:3,0:0:0:0:
252,252,93380,2,0,L|252:204,1,45,2|2,3:3|2:3,0:0:0:0:
192,208,93534,2,0,L|192:159,1,45,2|2,2:3|3:3,0:0:0:0:
252,152,93688,2,0,L|252:104,1,45,2|2,2:3|3:3,0:0:0:0:
88,136,93842,6,0,L|88:204,1,45,2|2,2:3|3:3,0:0:0:0:
136,184,93996,2,0,L|184:184,1,45,2|2,2:3|3:3,0:0:0:0:
232,184,94150,2,0,L|284:184,1,45,2|2,2:3|3:3,0:0:0:0:
324,184,94303,2,0,L|324:240,1,45,2|2,2:3|3:3,0:0:0:0:
148,332,94457,6,0,L|100:332,1,45,2|2,2:3|3:3,0:0:0:0:
104,284,94611,2,0,L|153:284,1,45,2|2,2:3|3:3,0:0:0:0:
148,224,94765,2,0,L|96:224,1,45,2|2,2:3|2:3,0:0:0:0:
104,168,94919,2,0,L|152:168,1,45,2|2,2:3|3:3,0:0:0:0:
336,164,95073,6,0,P|412:176|440:288,1,180,6|0,3:3|0:0,0:0:0:0:
325,321,95483,1,0,2:3:0:0:
284,320,95551,1,0,2:3:0:0:
236,308,95620,1,0,2:3:0:0:
200,276,95688,1,0,0:0:0:0:
184,224,95765,1,0,2:3:0:0:
196,176,95842,1,0,2:3:0:0:
236,136,95919,1,0,2:3:0:0:
344,136,95996,5,2,3:3:0:0:
392,136,96098,1,0,2:3:0:0:
432,168,96201,1,0,2:3:0:0:
448,216,96303,1,0,2:3:0:0:
440,264,96406,1,0,2:3:0:0:
400,288,96508,1,0,2:3:0:0:
360,296,96611,1,0,2:3:0:0:
312,300,96714,1,0,2:3:0:0:
268,296,96816,1,0,2:3:0:0:
144,296,96919,6,0,L|72:232,1,90,2|0,2:3|2:3,0:0:0:0:
144,296,97226,2,0,L|232:208,1,120,0|0,2:3|2:3,0:0:0:0:
144,296,97637,2,0,L|232:204,1,120,0|0,2:3|2:3,0:0:0:0:
144,296,98149,1,0,2:3:0:0:
224,296,98457,1,0,2:3:0:0:
144,296,98765,5,0,2:3:0:0:
256,192,98919,12,0,99534,0:0:0:0:
255,274,99688,6,0,L|256:68,1,180,6|0,2:3|1:3,0:0:0:0:
348,96,100149,2,0,L|156:96,1,180,2|2,3:3|2:3,0:0:0:0:
320,96,100611,6,0,L|320:200,1,90,6|2,1:1|3:3,0:0:0:0:
100,192,100919,2,0,L|304:192,1,180,0|0,2:3|1:3,0:0:0:0:
188,192,101380,1,2,2:3:0:0:
444,256,101534,6,0,L|444:64,1,180,2|0,2:3|1:3,0:0:0:0:
352,72,101996,2,0,L|156:72,1,180,2|2,3:3|2:3,0:0:0:0:
324,72,102457,6,0,L|324:168,1,90,6|2,1:1|3:3,0:0:0:0:
104,172,102765,2,0,L|104:268,1,90,2|0,2:3|0:0,0:0:0:0:
252,260,103073,2,0,L|352:260,1,90,0|2,1:3|3:3,0:0:0:0:
68,256,103380,6,0,L|68:64,1,180,2|0,2:3|1:3,0:0:0:0:
160,72,103842,2,0,L|356:72,1,180,2|2,3:3|2:3,0:0:0:0:
192,72,104303,6,0,L|192:176,1,90,6|2,1:1|3:3,0:0:0:0:
412,160,104611,2,0,L|216:160,1,180,0|0,2:3|1:3,0:0:0:0:
336,160,105072,1,2,2:3:0:0:
116,152,105226,6,0,L|116:276,1,90,2|0,2:3|0:0,0:0:0:0:
248,232,105534,2,0,L|336:232,2,60,0|0|0,1:3|2:3|2:3,0:0:0:0:
132,224,105842,2,0,L|44:224,2,60,2|0|0,2:3|2:3|2:3,0:0:0:0:
248,232,106149,6,0,L|304:232,1,45,2|0,1:3|0:0,0:0:0:0:
292,180,106303,2,0,L|236:180,1,45,2|0,3:3|0:0,0:0:0:0:
152,232,106457,2,0,L|96:232,1,45,2|0,2:3|2:3,0:0:0:0:
108,180,106611,2,0,L|164:180,1,45,2|0,2:3|2:3,0:0:0:0:
292,180,106765,2,0,L|292:72,1,90,2|2,2:3|3:3,0:0:0:0:
48,92,107073,6,0,L|237:91,1,180,6|0,3:3|1:3,0:0:0:0:
364,208,107534,2,0,L|168:208,1,180,2|2,3:3|2:3,0:0:0:0:
408,208,107996,6,0,L|408:320,1,90,6|2,1:1|3:3,0:0:0:0:
168,144,108303,2,0,L|376:144,1,180,0|0,2:3|1:3,0:0:0:0:
128,144,108764,1,2,2:3:0:0:
380,144,108919,6,0,L|192:144,1,180,2|0,2:3|1:3,0:0:0:0:
60,216,109380,2,0,L|248:216,1,180,2|2,3:3|2:3,0:0:0:0:
24,216,109842,6,0,L|24:124,1,90,4|2,1:1|3:3,0:0:0:0:
256,88,110149,2,0,L|356:88,1,90,0|0,2:3|0:0,0:0:0:0:
108,216,110457,2,0,L|108:312,1,90,0|2,1:3|3:3,0:0:0:0:
336,216,110765,6,0,L|336:68,1,135,6|2,2:3|3:3,0:0:0:0:
384,80,111073,1,2,1:3:0:0:
421,103,111149,1,2,3:3:0:0:
447,140,111226,1,2,2:3:0:0:
455,184,111303,1,2,2:3:0:0:
444,227,111380,1,2,1:3:0:0:
417,263,111457,1,2,3:3:0:0:
378,284,111534,1,2,2:3:0:0:
334,288,111611,1,2,2:3:0:0:
176,216,111688,6,0,L|176:68,1,135,6|2,2:1|3:3,0:0:0:0:
128,80,111996,1,2,1:3:0:0:
90,103,112072,1,2,2:3:0:0:
64,140,112149,1,2,2:3:0:0:
56,184,112226,1,2,2:3:0:0:
67,227,112303,1,2,1:3:0:0:
94,263,112380,1,2,2:3:0:0:
133,284,112457,1,2,2:3:0:0:
177,288,112534,1,2,2:3:0:0:
336,216,112611,6,0,L|336:68,1,135,6|2,3:1|3:3,0:0:0:0:
288,80,112919,2,0,L|344:80,1,45,2|2,1:3|3:3,0:0:0:0:
378,80,113073,2,0,L|322:80,1,45,2|2,2:3|2:3,0:0:0:0:
288,80,113226,2,0,L|344:80,1,45,2|2,1:3|2:3,0:0:0:0:
378,80,113380,2,0,L|322:80,1,45,2|2,2:3|2:3,0:0:0:0:
176,216,113534,6,0,L|176:68,1,135,6|2,3:1|3:3,0:0:0:0:
224,80,113842,2,0,L|168:80,1,45,2|2,1:3|3:3,0:0:0:0:
134,80,113996,2,0,L|190:80,1,45,2|2,2:3|2:3,0:0:0:0:
224,80,114149,2,0,L|168:80,1,45,2|2,1:3|2:3,0:0:0:0:
134,80,114303,2,0,L|190:80,1,45,2|2,2:3|2:3,0:0:0:0:
384,80,114457,5,0,2:3:0:0:
384,80,114764,2,0,L|384:216,1,135,6|0,3:3|0:0,0:0:0:0:
208,224,115072,2,0,L|160:224,1,45,2|0,3:3|0:0,0:0:0:0:
164,164,115226,2,0,L|212:164,1,45,0|0,2:3|2:3,0:0:0:0:
368,164,115380,2,0,L|416:164,1,45,10|0,3:3|0:0,0:0:0:0:
412,104,115534,2,0,L|364:104,1,45,0|0,2:3|2:3,0:0:0:0:
212,100,115687,6,0,L|160:100,1,45,2|0,3:3|0:0,0:0:0:0:
220,160,115841,2,0,L|265:161,1,45,0|0,1:3|0:0,0:0:0:0:
212,100,115995,2,0,L|160:100,1,45,10|0,3:3|0:0,0:0:0:0:
220,160,116149,2,0,L|268:160,1,45,0|0,1:3|0:0,0:0:0:0:
412,104,116303,6,0,L|464:104,1,45,2|0,2:3|2:3,0:0:0:0:
404,44,116457,2,0,L|359:43,1,45,0|0,1:3|2:3,0:0:0:0:
412,104,116611,2,0,L|464:104,1,45,10|0,2:3|2:3,0:0:0:0:
404,44,116765,2,0,L|356:44,1,45,2|2,1:3|3:3,0:0:0:0:
152,84,116918,5,2,3:3:0:0:
152,84,117226,2,0,L|152:224,1,135,6|0,3:3|0:0,0:0:0:0:
368,160,117533,2,0,L|416:160,1,45,2|0,3:3|0:0,0:0:0:0:
412,220,117687,2,0,L|412:264,1,45,0|0,2:3|2:3,0:0:0:0:
224,200,117841,2,0,L|176:200,1,45,10|0,3:3|0:0,0:0:0:0:
180,140,117995,2,0,L|180:96,1,45,0|0,2:3|2:3,0:0:0:0:
352,92,118149,6,0,L|371:45,3,45,2|0|0|0,3:3|0:0|1:3|2:3,0:0:0:0:
180,140,118457,2,0,L|161:187,3,45,10|0|0|0,3:3|0:0|1:3|0:0,0:0:0:0:
360,200,118764,6,0,L|360:140,1,45,2|2,2:3|2:3,0:0:0:0:
360,92,118918,2,0,L|300:92,1,45,2|0,1:3|2:3,0:0:0:0:
132,184,119072,2,0,L|132:244,1,45,10|2,2:3|2:3,0:0:0:0:
132,292,119226,2,0,L|192:292,1,45,2|0,1:3|2:3,0:0:0:0:
384,292,119380,5,2,3:3:0:0:
384,292,119687,2,0,L|384:156,1,135,6|0,3:3|0:0,0:0:0:0:
208,148,119995,2,0,L|160:148,1,45,2|0,3:3|0:0,0:0:0:0:
164,208,120149,2,0,L|212:208,1,45,0|0,2:3|2:3,0:0:0:0:
368,208,120303,2,0,L|416:208,1,45,10|0,3:3|0:0,0:0:0:0:
412,268,120457,2,0,L|364:268,1,45,0|0,2:3|2:3,0:0:0:0:
212,272,120610,6,0,L|160:272,1,45,2|0,3:3|0:0,0:0:0:0:
220,212,120764,2,0,L|265:211,1,45,0|0,1:3|0:0,0:0:0:0:
212,272,120918,2,0,L|160:272,1,45,10|0,3:3|0:0,0:0:0:0:
220,212,121072,2,0,L|268:212,1,45,0|0,1:3|0:0,0:0:0:0:
412,268,121226,6,0,L|464:268,1,45,2|0,2:3|2:3,0:0:0:0:
404,328,121380,2,0,L|359:329,1,45,0|0,1:3|2:3,0:0:0:0:
412,268,121534,2,0,L|464:268,1,45,10|0,2:3|2:3,0:0:0:0:
404,328,121688,2,0,L|356:328,1,45,2|2,1:3|2:3,0:0:0:0:
152,288,121841,5,2,3:3:0:0:
152,288,122149,2,0,L|152:148,1,135,6|0,3:3|0:0,0:0:0:0:
368,212,122456,2,0,L|416:212,1,45,2|0,3:3|0:0,0:0:0:0:
460,208,122610,2,0,L|460:164,1,45,0|0,2:3|2:3,0:0:0:0:
224,172,122764,2,0,L|176:172,1,45,10|0,3:3|0:0,0:0:0:0:
120,172,122918,2,0,L|120:216,1,45,0|0,2:3|2:3,0:0:0:0:
352,280,123072,6,0,L|388:320,3,45,2|0|0|0,3:3|0:0|1:3|2:3,0:0:0:0:
180,232,123380,2,0,L|144:192,3,45,10|0|2|2,3:3|0:0|1:3|3:3,0:0:0:0:
384,232,123687,6,0,L|384:292,1,45,2|2,2:3|2:3,0:0:0:0:
332,280,123841,2,0,L|272:280,1,45,2|2,1:3|2:3,0:0:0:0:
80,128,123995,2,0,L|80:68,1,45,10|2,2:3|2:3,0:0:0:0:
132,80,124149,2,0,L|192:80,1,45,2|2,1:3|2:3,0:0:0:0:
396,68,124303,6,0,L|396:256,1,180,6|0,2:1|2:3,0:0:0:0:
324,248,124713,2,0,L|236:248,1,60,0|0,2:3|2:3,0:0:0:0:
396,248,124918,2,0,L|396:48,1,180,2|2,2:3|2:3,0:0:0:0:
116,68,125533,6,0,L|116:256,1,180,6|0,2:1|2:3,0:0:0:0:
188,248,125943,2,0,L|276:248,1,60,0|0,2:3|2:3,0:0:0:0:
116,248,126149,2,0,L|116:48,1,180,2|2,2:3|2:3,0:0:0:0:
396,68,126764,6,0,L|396:256,1,180,6|10,2:3|3:3,0:0:0:0:
300,248,127174,2,0,L|300:172,1,60,2|2,3:3|3:3,0:0:0:0:
396,248,127379,1,2,2:3:0:0:
396,68,127687,6,0,L|396:256,1,180,10|2,2:3|3:3,0:0:0:0:
264,248,128097,2,0,L|264:168,1,60,2|2,3:3|3:3,0:0:0:0:
396,248,128302,1,10,2:3:0:0:
396,68,128610,6,0,L|396:256,1,180,2|10,2:3|3:3,0:0:0:0:
232,248,129020,2,0,L|232:168,1,60,2|2,3:3|3:3,0:0:0:0:
396,248,129225,1,2,2:3:0:0:
396,68,129533,6,0,L|396:256,1,180,10|2,2:3|3:3,0:0:0:0:
172,248,129943,2,0,L|172:168,1,60,2|2,3:3|3:3,0:0:0:0:
396,248,130148,2,0,L|464:248,2,60,10|0|2,2:3|0:0|3:3,0:0:0:0:
212,248,130456,6,0,L|212:112,1,120,6|0,2:1|1:3,0:0:0:0:
308,132,130764,2,0,L|392:132,2,60,10|0|0,2:3|2:3|1:3,0:0:0:0:
204,132,131071,2,0,L|120:132,2,60,2|0|0,2:3|2:3|1:3,0:0:0:0:
380,136,131379,5,10,2:3:0:0:
387,195,131481,1,0,2:3:0:0:
370,252,131584,1,0,1:3:0:0:
333,299,131686,1,2,2:3:0:0:
281,327,131789,1,2,2:3:0:0:
222,333,131891,1,2,1:3:0:0:
92,328,131994,2,0,L|92:192,1,120,10|2,2:3|1:3,0:0:0:0:
288,136,132302,6,0,L|360:136,2,60,2|2|2,3:3|2:3|1:3,0:0:0:0:
168,136,132610,2,0,L|168:56,1,60,10|2,2:3|2:3,0:0:0:0:
228,76,132815,1,2,1:3:0:0:
344,152,132917,2,0,L|344:232,1,60,2|2,2:3|2:3,0:0:0:0:
284,212,133122,1,2,1:3:0:0:
72,316,133225,6,0,L|260:316,2,180,6|6|6,2:1|2:1|2:1,0:0:0:0:
448,316,134148,5,6,2:3:0:0:
448,316,134455,2,0,B|448:112,1,180,2|0,2:3|0:0,0:0:0:0:
388,136,134865,2,0,L|460:136,1,60,0|0,0:0|0:0,0:0:0:0:
336,136,135071,1,0,0:0:0:0:
276,136,135174,1,0,2:3:0:0:
336,136,135276,1,0,0:0:0:0:
224,136,135378,5,0,2:3:0:0:
164,136,135481,1,0,2:3:0:0:
224,136,135583,1,0,2:3:0:0:
112,136,135686,1,0,2:3:0:0:
52,136,135789,1,0,2:3:0:0:
112,136,135891,1,0,2:3:0:0:
224,244,135994,1,0,2:3:0:0:
284,244,136097,1,0,2:3:0:0:
224,244,136199,1,0,2:3:0:0:
112,244,136301,1,0,2:3:0:0:
52,244,136404,1,0,2:3:0:0:
112,244,136506,1,0,2:3:0:0:
328,244,136609,6,0,L|327:35,1,180,0|0,2:3|2:3,0:0:0:0:
280,80,136993,1,0,2:3:0:0:
236,80,137070,1,0,2:3:0:0:
192,80,137147,1,0,2:3:0:0:
236,80,137224,1,0,2:3:0:0:
280,80,137301,1,0,2:3:0:0:
324,80,137378,1,0,2:3:0:0:
368,80,137455,1,0,2:3:0:0:
324,80,137532,5,0,2:3:0:0:
280,80,137609,1,0,2:3:0:0:
236,80,137686,1,0,2:3:0:0:
192,80,137763,1,0,2:3:0:0:
236,80,137839,1,0,2:3:0:0:
280,80,137916,1,0,2:3:0:0:
324,80,137993,1,0,2:3:0:0:
368,80,138070,1,0,2:3:0:0:
416,80,138147,1,2,3:3:0:0:
40,80,138455,5,6,3:3:0:0:
256,192,138609,12,0,143993,0:0:0:0:
