osu file format v14

[General]
AudioFilename: audio.mp3
AudioLeadIn: 0
PreviewTime: 63074
Countdown: 0
SampleSet: Drum
StackLeniency: 0.7
Mode: 2
LetterboxInBreaks: 0
WidescreenStoryboard: 1

[Editor]
Bookmarks: 1230,11075,20921,28306,30767,38458,45843,50766,63074,72920,82766,90150,91380,95073,99688,114457,124303,134148,138455
DistanceSpacing: 1
BeatDivisor: 3
GridSize: 8
TimelineZoom: 4.899997

[Metadata]
Title:Erinyes
TitleUnicode:Erinyes
Artist:Toromaru
ArtistUnicode:とろまる
Creator:autofanboy
Version:Verti & Stardust Prism's Salad
Source:osu!catch World Cup 2023
Tags:alienflybot AFB fayew skill issue lol Verti Stardust Prism -Rustyy ZiRoX Amphy Kaetwo CWC2023 CWC 2023 Quarterfinals QF HR3 HardRock3 Hard Rock featured artist FA Mappers’ Guild MPG MG Parasol Pig osu! original piano Electronic Instrumental
BeatmapID:4268835
BeatmapSetID:2000438

[Difficulty]
HPDrainRate:3
CircleSize:3
OverallDifficulty:7
ApproachRate:7
SliderMultiplier:1.3
SliderTickRate:1

[Events]
//Background and Video events
0,0,"flowr.jpg",0,0
//Break Periods
//Storyboard Layer 0 (Background)
//Storyboard Layer 1 (Fail)
//Storyboard Layer 2 (Pass)
//Storyboard Layer 3 (Foreground)
//Storyboard Layer 4 (Overlay)
//Storyboard Sound Samples

[TimingPoints]
1230,307.692307692308,3,3,1,70,1,0
4922,-100,3,3,1,75,0,0
6768,-100,3,3,1,70,0,0
7076,-100,3,3,1,70,0,0
8306,-100,3,3,1,70,0,0
8614,307.692307692308,4,3,1,65,1,0
11075,-100,4,3,1,60,0,0
13998,-100,4,3,2,60,0,0
14075,-100,4,3,1,60,0,0
17383,-100,4,3,2,60,0,0
17460,-100,4,3,1,60,0,0
17690,-100,4,3,2,60,0,0
17767,-100,4,3,1,60,0,0
17998,-100,4,3,2,60,0,0
18075,-100,4,3,1,60,0,0
20844,-100,4,3,1,30,0,0
20921,-100,4,3,1,60,0,0
27229,-100,4,3,2,60,0,0
27306,-100,4,3,1,60,0,0
27537,-100,4,3,2,60,0,0
27614,-100,4,3,1,60,0,0
27844,-100,4,3,2,60,0,0
27921,-100,4,3,1,60,0,0
29537,-100,4,3,1,65,0,0
30152,-100,4,3,1,70,0,0
30767,307.692307692308,3,3,1,60,1,0
31228,-100,3,3,2,60,0,0
31305,-100,3,3,1,60,0,0
33074,-100,3,3,2,60,0,0
33151,-100,3,3,1,60,0,0
33228,-100,3,3,1,65,0,0
33843,-100,3,3,1,70,0,0
34459,-100,3,3,1,60,0,0
34920,-100,3,3,2,60,0,0
34997,-100,3,3,1,60,0,0
36767,-100,3,3,2,60,0,0
36843,-100,3,3,1,60,0,0
37228,307.692307692308,4,3,1,65,1,0
37843,-100,4,3,1,70,0,0
38458,-100,4,3,1,60,0,0
40920,-100,4,3,1,65,0,0
43381,-100,4,3,1,60,0,0
48304,-100,4,3,1,65,0,0
49535,-100,4,3,1,70,0,0
50151,-100,4,3,1,75,0,0
50766,-100,4,3,1,80,0,0
51074,-100,4,2,10,50,0,0
51997,-100,4,3,10,50,0,0
52304,-100,4,2,10,50,0,0
53228,-100,4,1,10,55,0,0
53535,-100,4,2,10,55,0,0
54151,-100,4,3,1,55,0,0
55689,-100,4,3,1,60,0,0
55997,-100,4,3,2,60,0,0
56074,-100,4,3,1,60,0,0
56612,-100,4,3,2,60,0,0
56689,-100,4,3,1,60,0,0
56843,-100,4,3,1,30,0,0
56920,-100,4,3,1,60,0,0
57228,-100,4,3,2,60,0,0
57304,-100,4,3,1,60,0,0
57843,-100,4,3,2,60,0,0
57920,-100,4,3,1,60,0,0
58458,-100,4,3,2,60,0,0
58535,-100,4,3,1,60,0,0
59074,-100,4,3,2,60,0,0
59151,-100,4,3,1,60,0,0
59304,-100,4,3,1,30,0,0
59381,-100,4,3,1,65,0,0
59997,-100,4,3,1,70,0,0
60612,-100,4,3,1,75,0,0
61843,-100,4,3,1,80,0,0
63074,-100,4,2,10,60,0,0
63304,-100,4,3,1,30,0,0
63381,-100,4,3,1,80,0,1
64766,-100,4,3,2,80,0,1
64843,-100,4,3,1,80,0,1
65074,-100,4,3,2,80,0,1
65151,-100,4,3,1,80,0,1
65997,-100,4,3,2,80,0,1
66074,-100,4,3,1,80,0,1
66920,-100,4,3,2,80,0,1
66997,-100,4,3,1,80,0,1
67535,-100,4,3,2,80,0,1
67612,-100,4,3,1,80,0,1
69689,-100,4,3,2,80,0,1
69766,-100,4,3,1,80,0,1
69997,-100,4,3,2,80,0,1
70074,-100,4,3,1,80,0,1
70458,-100,4,3,1,85,0,1
70689,-100,4,3,1,30,0,1
70766,-100,4,3,1,85,0,1
71689,-100,4,3,1,90,0,0
72920,-100,4,3,1,80,0,1
74304,-100,4,3,2,80,0,1
74381,-100,4,3,1,80,0,1
74920,-100,4,3,2,80,0,1
74997,-100,4,3,1,80,0,1
75843,-100,4,3,2,80,0,1
75920,-100,4,3,1,80,0,1
76151,-100,4,3,2,80,0,1
76228,-100,4,3,1,80,0,1
76766,-100,4,3,2,80,0,1
76843,-100,4,3,1,80,0,1
77074,-100,4,3,2,80,0,1
77151,-100,4,3,1,80,0,1
79228,-100,4,3,2,80,0,1
79304,-100,4,3,1,80,0,1
79843,-100,4,3,2,80,0,1
79920,-100,4,3,1,80,0,1
80304,-100,4,3,1,85,0,1
81535,-100,4,3,1,90,0,1
82458,-100,4,2,10,60,0,0
82689,-100,4,3,1,30,0,0
82766,307.692307692308,3,3,1,70,1,0
86458,-100,3,3,1,75,0,0
89535,-100,3,3,1,80,0,0
90150,307.692307692308,4,3,1,60,1,0
92611,-100,4,3,1,65,0,0
92842,-100,4,3,1,30,0,0
92919,-100,4,3,1,65,0,0
93842,-100,4,3,1,70,0,0
94457,-100,4,3,1,75,0,0
95073,307.692307692308,3,3,1,80,1,0
95380,-100,3,3,1,70,0,0
95996,-100,3,3,1,60,0,0
96919,-100,3,3,1,50,0,0
98149,-100,3,3,1,40,0,0
98919,-100,3,3,20,50,0,0
99226,-100,3,3,20,60,0,0
99688,-100,3,3,1,70,0,0
100611,-100,3,3,2,70,0,0
100688,-100,3,3,1,70,0,0
102457,-100,3,3,2,70,0,0
102534,-100,3,3,1,70,0,0
103073,-100,3,3,2,70,0,0
103149,-100,3,3,1,70,0,0
104303,-100,3,3,2,70,0,0
104380,-100,3,3,1,70,0,0
105534,-100,3,3,2,65,0,0
105637,-100,3,3,1,65,0,0
106149,-100,3,3,2,65,0,0
106226,-100,3,3,1,65,0,0
107073,-100,3,3,1,70,0,0
107996,-100,3,3,2,70,0,0
108073,-100,3,3,1,70,0,0
109842,-100,3,3,2,65,0,0
109919,-100,3,3,1,65,0,0
110457,-100,3,3,2,65,0,0
110534,-100,3,3,1,65,0,0
110765,-100,3,3,1,70,0,0
111380,-100,3,3,2,70,0,0
111457,-100,3,3,1,70,0,0
111688,-100,3,3,1,75,0,0
111996,-100,3,3,2,75,0,0
112073,-100,3,3,1,75,0,0
112303,-100,3,3,2,75,0,0
112380,-100,3,3,1,75,0,0
112611,-100,3,3,1,80,0,0
113226,-100,3,3,2,80,0,0
113303,-100,3,3,1,80,0,0
113534,-100,3,3,1,85,0,0
114149,-100,3,3,2,85,0,0
114226,-100,3,3,1,85,0,0
114457,307.692307692308,4,2,10,60,1,0
114687,-100,4,3,1,30,0,0
114764,-100,4,3,1,85,0,1
116303,-100,4,3,1,90,0,1
116457,-100,4,3,2,90,0,1
116533,-100,4,3,1,90,0,1
116764,-100,4,3,2,90,0,1
116841,-100,4,3,1,90,0,1
116918,-100,4,3,1,60,0,0
117149,-100,4,3,1,30,0,0
117226,-100,4,3,1,85,0,1
118303,-100,4,3,2,85,0,1
118380,-100,4,3,1,85,0,1
118764,-100,4,3,1,90,0,1
118918,-100,4,3,2,90,0,1
118995,-100,4,3,1,90,0,1
119226,-100,4,3,2,90,0,1
119303,-100,4,3,1,90,0,1
119380,-100,4,3,1,60,0,0
119610,-100,4,3,1,30,0,0
119687,-100,4,3,1,85,0,1
121226,-100,4,3,1,90,0,1
121380,-100,4,3,2,90,0,1
121457,-100,4,3,1,90,0,1
121687,-100,4,3,2,90,0,1
121764,-100,4,3,1,90,0,1
121841,-100,4,3,1,60,0,0
122072,-100,4,3,1,30,0,0
122149,-100,4,3,1,85,0,1
123226,-100,4,3,2,85,0,1
123303,-100,4,3,1,85,0,1
123687,-100,4,3,1,90,0,1
123841,-100,4,3,2,90,0,1
123918,-100,4,3,1,90,0,1
124149,-100,4,3,2,90,0,1
124226,-100,4,3,1,90,0,1
124303,-100,4,3,1,60,0,0
125533,-100,4,3,1,65,0,0
126764,307.692307692308,3,3,1,70,1,0
130456,-100,3,3,1,75,0,0
130969,-100,3,3,2,75,0,0
131020,-100,3,3,1,75,0,0
131276,-100,3,3,2,75,0,0
131328,-100,3,3,1,75,0,0
131584,-100,3,3,2,75,0,0
131635,-100,3,3,1,75,0,0
131892,-100,3,3,2,75,0,0
131943,-100,3,3,1,75,0,0
132199,-100,3,3,2,75,0,0
132251,-100,3,3,1,75,0,0
132507,-100,3,3,2,75,0,0
132558,-100,3,3,1,75,0,0
132815,-100,3,3,2,75,0,0
132866,-100,3,3,1,75,0,0
133122,-100,3,3,2,75,0,0
133174,-100,3,3,1,75,0,0
133225,-100,3,3,1,80,0,0
133840,-100,3,3,1,85,0,0
134148,307.692307692308,4,3,1,90,1,0
134455,-100,4,3,1,60,0,0
136609,307.692307692308,3,3,1,60,1,0
136916,-100,3,3,1,65,0,0
138147,-100,3,3,1,60,0,0
138378,-100,3,3,1,30,0,0
138455,-100,3,3,1,90,0,1
138609,-100,3,3,20,80,0,0
139378,-100,3,3,20,70,0,0
140301,-100,3,3,20,60,0,0
141224,-100,3,3,20,50,0,0
142147,-100,3,3,20,40,0,0
143070,-100,3,3,20,30,0,0

[Colours]
Combo1 : 193,208,241
Combo2 : 255,227,150
Combo3 : 217,187,223
Combo4 : 168,181,109

[HitObjects]
276,348,1229,6,0,P|239:309|305:268,1,130,6|6,3:1|3:1,0:0:0:0:
357,302,1691,2,0,P|390:248|319:210,1,130,6|2,3:1|2:3,0:0:0:0:
272,196,2153,6,0,L|190:196,2,65,2|0|0,3:3|2:3|2:3,0:0:0:0:
402,242,2768,2,0,L|317:242,1,65,0|2,2:3|2:3,0:0:0:0:
179,313,3076,6,0,P|146:258|209:213,1,130,6|0,3:1|2:3,0:0:0:0:
260,278,3537,2,0,P|293:211|240:190,1,130,6|2,3:1|2:3,0:0:0:0:
189,184,3999,1,2,3:3:0:0:
255,180,4153,1,2,2:3:0:0:
321,171,4306,1,2,2:3:0:0:
192,246,4614,2,0,L|122:243,1,65,2|2,2:3|2:3,0:0:0:0:
283,274,4922,6,0,P|318:221|273:183,1,130,6|2,3:1|2:3,0:0:0:0:
146,134,5537,2,0,L|238:135,1,65,2|2,3:3|3:3,0:0:0:0:
289,130,5845,5,2,3:3:0:0:
420,278,6153,2,0,L|432:205,1,65,2|6,2:3|2:1,0:0:0:0:
364,192,6460,2,0,L|290:184,1,65,2|2,2:3|2:3,0:0:0:0:
142,292,6768,6,0,P|196:55|241:299,1,650,6|2,3:1|2:3,0:0:0:0:
208,283,8460,1,2,2:3:0:0:
52,227,8614,5,2,2:3:0:0:
45,221,8819,2,0,L|107:221,1,43.3333333333333,2|2,3:3|2:3,0:0:0:0:
190,204,9126,2,0,L|247:204,1,43.3333333333333,2|2,3:3|2:3,0:0:0:0:
128,150,9434,2,0,L|66:153,1,43.3333333333333,2|2,3:3|2:3,0:0:0:0:
130,158,9639,1,2,3:3:0:0:
328,228,9844,5,6,2:1:0:0:
256,192,10152,12,0,10767,2:3:0:0:
141,249,11075,6,0,P|103:217|168:169,1,130,6|10,3:3|2:3,0:0:0:0:
274,157,11690,2,0,L|276:74,1,65,2|0,3:3|1:3,0:0:0:0:
200,185,11998,2,0,L|195:103,1,65,10|0,2:3|0:0,0:0:0:0:
352,216,12306,6,0,L|495:204,1,130,2|10,3:3|2:3,0:0:0:0:
339,285,12921,2,0,L|262:279,1,65,2|0,3:3|1:3,0:0:0:0:
339,285,13229,2,0,P|358:238|324:211,1,86.6666666666667,10|0,2:3|2:3,0:0:0:0:
294,199,13537,6,0,L|140:199,1,130,2|10,3:3|3:3,0:0:0:0:
296,231,14152,2,0,L|366:231,1,65,2|0,2:3|1:3,0:0:0:0:
361,231,14460,2,0,L|278:231,1,65,10|2,3:3|2:3,0:0:0:0:
139,210,14767,6,0,L|9:206,2,130,2|10|6,2:3|3:3|3:2,0:0:0:0:
272,195,15690,2,0,L|350:195,1,65,6|2,3:2|3:3,0:0:0:0:
180,275,15998,6,0,L|40:274,1,130,6|10,3:1|2:3,0:0:0:0:
204,211,16614,2,0,L|349:208,1,130,2|10,3:3|2:3,0:0:0:0:
87,238,17229,6,0,P|47:216|108:173,1,130,2|10,3:3|2:3,0:0:0:0:
153,142,17690,1,0,1:3:0:0:
87,128,17844,1,2,2:3:0:0:
87,128,18152,2,0,L|166:127,1,65,10|2,2:3|2:3,0:0:0:0:
311,281,18460,6,0,P|328:210|281:174,1,130,6|10,2:1|3:3,0:0:0:0:
158,143,19075,1,2,2:3:0:0:
222,140,19229,1,2,1:3:0:0:
287,138,19383,1,10,2:3:0:0:
44,284,19690,5,6,2:1:0:0:
36,220,19921,1,2,2:3:0:0:
71,167,19998,1,14,2:1:0:0:
171,168,20229,1,2,2:3:0:0:
171,168,20306,1,6,2:1:0:0:
73,145,20537,1,2,2:3:0:0:
72,116,20614,1,14,2:1:0:0:
312,325,20921,6,0,P|345:266|296:239,1,130,6|10,3:3|3:3,0:0:0:0:
173,222,21537,2,0,L|174:141,1,65,2|0,3:3|1:3,0:0:0:0:
241,138,21844,2,0,L|324:133,1,65,10|0,2:3|0:0,0:0:0:0:
160,216,22152,6,0,L|17:204,1,130,2|10,3:3|3:3,0:0:0:0:
173,285,22767,2,0,L|250:279,1,65,2|0,3:3|1:3,0:0:0:0:
173,285,23075,2,0,P|158:247|221:213,1,86.6666666666667,10|0,2:3|2:3,0:0:0:0:
229,204,23383,6,0,L|361:201,1,130,2|10,3:3|3:3,0:0:0:0:
216,231,23998,2,0,L|146:231,1,65,2|0,2:3|1:3,0:0:0:0:
151,231,24306,2,0,L|234:231,1,65,10|0,3:3|0:0,0:0:0:0:
373,210,24614,6,0,L|503:206,2,130,2|10|6,2:3|2:3|3:2,0:0:0:0:
240,195,25537,2,0,L|162:195,1,65,6|2,3:2|3:3,0:0:0:0:
332,275,25844,6,0,L|472:274,1,130,6|10,3:1|2:3,0:0:0:0:
308,211,26460,2,0,L|163:208,1,130,2|10,3:3|2:3,0:0:0:0:
425,238,27075,6,0,P|465:216|404:173,1,130,2|10,2:3|2:3,0:0:0:0:
359,142,27537,1,0,1:3:0:0:
425,128,27690,1,2,3:3:0:0:
425,128,27998,2,0,L|346:127,1,65,10|2,2:3|2:3,0:0:0:0:
204,263,28306,5,6,3:1:0:0:
158,247,28408,1,0,2:3:0:0:
158,247,28511,1,0,0:0:0:0:
204,263,28614,1,10,3:3:0:0:
337,194,28921,1,2,2:3:0:0:
379,159,29024,1,0,0:0:0:0:
335,125,29126,1,0,0:0:0:0:
289,117,29229,1,10,2:3:0:0:
42,203,29537,5,6,2:1:0:0:
107,203,29690,1,2,3:3:0:0:
172,203,29844,1,10,2:3:0:0:
237,198,29998,1,2,2:3:0:0:
168,333,30152,2,0,L|158:176,1,130,6|10,2:1|2:3,0:0:0:0:
400,248,30767,6,0,L|400:96,1,130,6|10,2:3|3:3,0:0:0:0:
264,136,31382,2,0,L|192:136,1,65,2|2,2:3|1:3,0:0:0:0:
344,192,31690,6,0,L|344:56,1,130,10|0,2:3|0:0,0:0:0:0:
272,88,32151,1,2,2:3:0:0:
344,88,32305,1,10,2:3:0:0:
416,88,32459,1,2,1:3:0:0:
272,160,32613,6,0,L|136:160,1,130,2|10,2:3|3:3,0:0:0:0:
272,208,33228,2,0,L|272:128,1,65,2|2,2:3|2:3,0:0:0:0:
128,144,33536,6,0,L|80:144,2,32.5,2|2|10,2:3|3:3|2:3,0:0:0:0:
192,144,33843,2,0,L|240:144,2,32.5,2|2|10,2:3|2:3|2:3,0:0:0:0:
128,144,34151,2,0,L|208:144,1,65,2|10,2:3|2:3,0:0:0:0:
344,248,34459,6,0,L|344:104,1,130,6|10,2:1|3:3,0:0:0:0:
272,112,34920,1,0,1:3:0:0:
200,112,35074,2,0,L|200:40,1,65,2|2,2:3|1:3,0:0:0:0:
344,232,35382,6,0,L|488:232,1,130,10|0,2:3|0:0,0:0:0:0:
336,192,35997,1,10,2:3:0:0:
264,192,36151,1,2,1:3:0:0:
408,192,36305,6,0,L|408:48,1,130,2|10,2:3|3:3,0:0:0:0:
336,56,36767,1,0,1:3:0:0:
408,56,36920,1,2,2:3:0:0:
480,64,37074,1,2,2:3:0:0:
336,144,37228,6,0,L|296:144,2,32.5,2|2|10,2:3|2:3|2:3,0:0:0:0:
408,144,37535,2,0,L|320:144,1,65,2|10,2:3|2:3,0:0:0:0:
272,144,37843,1,2,2:3:0:0:
304,144,37920,1,2,2:3:0:0:
337,144,37997,1,10,2:3:0:0:
408,96,38151,2,0,L|448:96,2,32.5,2|2|10,2:3|2:3|2:3,0:0:0:0:
264,232,38458,5,6,3:3:0:0:
199,232,38612,1,2,3:3:0:0:
128,232,38766,1,10,3:3:0:0:
272,144,39074,2,0,L|200:144,1,65,0|2,2:3|3:3,0:0:0:0:
128,160,39381,2,0,L|192:160,1,65,10|2,3:3|3:3,0:0:0:0:
336,72,39689,6,0,L|400:72,2,65,2|2|10,2:3|3:3|3:3,0:0:0:0:
192,160,40304,2,0,L|192:96,1,65,0|2,2:3|3:3,0:0:0:0:
264,104,40612,2,0,L|264:16,1,65,10|2,3:3|2:3,0:0:0:0:
120,176,40920,5,6,2:1:0:0:
48,176,41074,1,2,3:3:0:0:
80,176,41151,1,0,0:0:0:0:
113,176,41228,1,10,2:3:0:0:
248,112,41535,2,0,L|184:112,1,65,2|2,2:3|3:3,0:0:0:0:
120,120,41843,2,0,L|192:120,1,65,10|0,2:3|2:3,0:0:0:0:
336,208,42151,5,2,2:3:0:0:
408,168,42304,1,2,2:3:0:0:
375,168,42381,1,0,2:3:0:0:
343,168,42458,1,10,2:3:0:0:
208,144,42766,2,0,L|208:72,1,65,2|2,2:3|2:3,0:0:0:0:
280,96,43074,2,0,L|280:48,2,32.5,10|0|2,2:3|2:3|2:3,0:0:0:0:
136,168,43381,6,0,L|72:168,2,65,6|2|10,2:1|3:3|3:3,0:0:0:0:
272,248,43997,1,0,2:3:0:0:
293,188,44151,1,2,3:3:0:0:
260,134,44304,1,10,3:3:0:0:
198,125,44458,1,2,3:3:0:0:
127,119,44612,6,0,L|47:119,2,65,2|2|10,2:3|3:3|3:3,0:0:0:0:
271,136,45228,2,0,L|343:136,1,65,0|2,2:3|3:3,0:0:0:0:
336,136,45535,2,0,L|256:136,1,65,10|2,3:3|3:3,0:0:0:0:
112,280,45843,6,0,L|112:136,1,130,6|10,2:3|2:3,0:0:0:0:
240,88,46458,2,0,L|96:88,1,130,2|10,2:3|2:3,0:0:0:0:
240,160,47074,6,0,L|384:160,1,130,2|10,2:3|2:3,0:0:0:0:
232,216,47689,1,2,2:3:0:0:
193,202,47792,1,0,2:3:0:0:
185,161,47894,1,0,2:3:0:0:
218,135,47997,1,10,2:3:0:0:
456,88,48304,6,0,L|304:88,1,130,6|10,2:1|2:3,0:0:0:0:
464,88,48920,2,0,L|464:224,1,130,2|10,2:3|2:3,0:0:0:0:
416,88,49330,1,2,2:3:0:0:
248,192,49535,6,0,L|112:192,1,130,6|10,2:1|2:3,0:0:0:0:
118,192,49945,1,2,2:3:0:0:
184,136,50048,1,2,2:3:0:0:
248,136,50151,2,0,L|96:136,1,130,6|14,2:1|2:1,0:0:0:0:
72,136,50561,1,2,2:3:0:0:
248,192,50766,6,0,L|400:192,2,130,6|0|0,2:3|0:0|0:0,0:0:0:0:
112,176,51689,1,0,0:0:0:0:
344,256,51997,6,0,L|344:104,1,130,0|0,0:0|0:0,0:0:0:0:
272,120,52458,1,0,0:0:0:0:
200,112,52612,2,0,L|200:256,1,130,0|0,0:0|0:0,0:0:0:0:
440,200,53228,6,0,L|440:56,1,130,0|0,0:0|0:0,0:0:0:0:
296,64,53843,1,0,0:0:0:0:
368,64,53997,1,0,0:0:0:0:
440,64,54151,1,2,2:3:0:0:
368,64,54304,1,0,2:3:0:0:
216,192,54458,5,0,2:3:0:0:
176,180,54561,1,0,2:3:0:0:
171,139,54663,1,0,2:3:0:0:
206,118,54766,1,0,2:3:0:0:
272,104,54920,1,0,0:0:0:0:
336,120,55074,5,0,2:3:0:0:
375,108,55176,1,0,2:3:0:0:
380,67,55279,1,0,2:3:0:0:
345,46,55381,1,0,2:3:0:0:
272,32,55535,1,0,0:0:0:0:
120,224,55689,6,0,L|120:80,1,130,6|0,2:3|1:3,0:0:0:0:
160,88,56074,1,0,2:3:0:0:
200,88,56151,1,0,2:3:0:0:
272,72,56304,1,10,2:3:0:0:
236,70,56381,1,0,2:3:0:0:
200,72,56458,1,0,2:3:0:0:
128,72,56612,1,0,1:3:0:0:
272,120,56920,5,0,2:3:0:0:
40,184,57228,2,0,L|40:112,1,65,2|0,1:3|2:3,0:0:0:0:
75,101,57458,1,0,2:3:0:0:
112,88,57535,1,10,2:3:0:0:
184,96,57689,1,0,2:3:0:0:
222,95,57766,1,0,2:3:0:0:
256,96,57843,2,0,L|336:96,1,65,0|2,1:3|3:3,0:0:0:0:
168,232,58151,6,0,L|168:96,1,130,2|0,2:3|1:3,0:0:0:0:
240,96,58612,1,0,2:3:0:0:
312,96,58766,1,10,3:3:0:0:
168,208,59074,1,0,1:3:0:0:
408,240,59381,6,0,L|408:80,1,130,6|2,2:1|2:3,0:0:0:0:
368,104,59766,1,0,0:0:0:0:
328,104,59843,1,0,2:3:0:0:
408,240,59997,2,0,L|408:96,1,130,14|2,2:1|2:3,0:0:0:0:
368,104,60381,1,2,3:3:0:0:
328,104,60458,1,2,2:3:0:0:
176,192,60612,5,6,2:1:0:0:
312,176,60920,2,0,L|312:104,1,65,2|2,2:3|2:3,0:0:0:0:
240,80,61228,2,0,L|240:8,1,65,10|2,2:3|2:3,0:0:0:0:
312,176,61535,2,0,L|224:176,1,65,2|2,2:3|2:3,0:0:0:0:
96,168,61843,6,0,L|64:168,2,32.5,10|2|2,2:3|2:3|2:3,0:0:0:0:
168,168,62151,2,0,L|232:168,1,65,2|2,2:3|2:3,0:0:0:0:
304,128,62458,1,10,2:3:0:0:
271,128,62535,1,2,2:3:0:0:
239,128,62612,1,2,2:3:0:0:
168,112,62766,2,0,L|120:112,2,32.5,2|2|2,2:3|2:3|2:3,0:0:0:0:
240,88,63074,1,0,2:3:0:0:
461,273,63381,6,0,L|461:200,1,65,14|0,2:3|2:3,0:0:0:0:
395,200,63689,1,2,2:3:0:0:
259,246,63997,2,0,L|238:209,2,32.5,10|0|2,2:3|2:3|2:3,0:0:0:0:
405,209,64304,6,0,P|402:158|311:135,1,130,2|10,2:3|2:3,0:0:0:0:
262,125,64766,1,0,1:3:0:0:
412,243,64920,6,0,L|488:244,2,65,2|0|10,2:3|1:3|2:3,0:0:0:0:
336,239,65381,1,2,2:3:0:0:
165,190,65535,6,0,L|33:183,1,130,2|10,2:3|2:3,0:0:0:0:
102,159,65997,1,0,1:3:0:0:
181,248,66151,2,0,P|219:213|173:158,1,130,2|10,2:3|2:3,0:0:0:0:
111,137,66612,1,2,2:3:0:0:
268,118,66766,6,0,L|360:117,1,65,2|0,2:3|1:3,0:0:0:0:
410,78,67074,2,0,L|329:76,1,65,10|0,2:3|1:3,0:0:0:0:
277,237,67381,1,2,2:3:0:0:
274,204,67458,1,0,2:3:0:0:
272,172,67535,1,0,1:3:0:0:
341,145,67689,2,0,L|384:147,2,32.5,10|2|2,2:3|2:3|2:3,0:0:0:0:
181,232,67997,6,0,L|36:231,1,130,6|10,2:3|2:3,0:0:0:0:
123,193,68458,1,0,2:3:0:0:
192,162,68612,1,2,2:3:0:0:
322,154,68920,2,0,L|230:156,1,65,10|2,2:3|2:3,0:0:0:0:
100,228,69228,6,0,P|98:184|161:133,1,130,2|10,2:3|2:3,0:0:0:0:
227,128,69689,1,0,1:3:0:0:
294,238,69843,2,0,L|210:235,1,65,2|0,2:3|1:3,0:0:0:0:
143,269,70151,1,10,2:3:0:0:
111,239,70228,1,0,2:3:0:0:
143,211,70304,1,2,2:3:0:0:
301,168,70458,6,0,L|437:164,1,130,6|10,2:3|2:3,0:0:0:0:
364,163,70920,1,0,2:3:0:0:
294,274,71074,2,0,P|281:210|356:174,1,130,2|10,2:3|2:3,0:0:0:0:
398,161,71535,1,2,2:3:0:0:
242,223,71689,6,0,L|132:220,1,86.6666666666667,2|2,2:3|3:3,0:0:0:0:
110,198,71997,2,0,L|218:192,1,86.6666666666667,10|2,2:3|3:3,0:0:0:0:
240,163,72304,2,0,L|140:160,1,97.5,2|0,2:3|0:0,0:0:0:0:
108,138,72612,1,10,2:3:0:0:
344,264,72920,6,0,L|344:120,1,130,6|10,2:3|2:3,0:0:0:0:
304,120,73304,1,0,2:3:0:0:
264,120,73381,1,0,2:3:0:0:
128,64,73689,2,0,L|88:64,2,32.5,0|0|10,2:3|2:3|2:3,0:0:0:0:
200,64,73997,1,2,2:3:0:0:
344,176,74151,6,0,L|392:176,2,32.5,2|0|0,2:3|2:3|1:3,0:0:0:0:
272,176,74458,2,0,L|416:176,1,130,10|2,2:3|2:3,0:0:0:0:
272,128,75074,2,0,L|208:128,1,65,10|2,2:3|2:3,0:0:0:0:
56,256,75381,6,0,L|56:112,1,130,2|10,2:3|2:3,0:0:0:0:
96,112,75766,1,0,2:3:0:0:
136,112,75843,1,0,1:3:0:0:
272,144,76151,1,0,1:3:0:0:
239,144,76228,1,0,2:3:0:0:
207,144,76304,1,10,2:3:0:0:
136,112,76458,1,2,2:3:0:0:
280,64,76612,6,0,L|312:64,2,32.5,2|0|0,2:3|2:3|1:3,0:0:0:0:
208,64,76920,1,10,2:3:0:0:
344,184,77228,1,2,2:3:0:0:
408,144,77381,1,0,1:3:0:0:
408,88,77535,1,10,2:3:0:0:
376,80,77612,1,2,2:3:0:0:
344,64,77689,1,2,2:3:0:0:
200,176,77843,6,0,L|64:176,1,130,6|10,2:3|2:3,0:0:0:0:
112,144,78228,1,0,0:0:0:0:
152,144,78304,1,0,0:0:0:0:
232,128,78458,2,0,L|328:128,2,86.6666666666667,2|0|0,2:3|2:3|2:3,0:0:0:0:
64,112,79074,6,0,L|24:112,2,32.5,2|0|0,2:3|2:3|1:3,0:0:0:0:
136,112,79381,1,10,2:3:0:0:
272,112,79689,2,0,L|192:112,1,65,2|0,2:3|1:3,0:0:0:0:
136,112,79997,1,10,2:3:0:0:
168,112,80074,1,2,2:3:0:0:
201,112,80151,1,2,2:3:0:0:
352,232,80304,5,6,2:3:0:0:
401,221,80407,1,2,2:3:0:0:
401,221,80510,1,2,2:3:0:0:
352,232,80612,1,2,3:3:0:0:
286,171,80766,1,0,3:3:0:0:
212,165,80920,5,2,2:3:0:0:
164,149,81022,1,2,2:3:0:0:
164,149,81125,1,2,2:3:0:0:
212,165,81228,1,2,2:3:0:0:
286,94,81381,1,0,3:3:0:0:
453,255,81535,6,0,L|460:163,1,65,2|2,2:3|2:3,0:0:0:0:
392,199,81843,2,0,L|238:199,1,130,2|2,2:3|2:3,0:0:0:0:
328,201,82304,2,0,L|423:199,1,65,2|0,2:3|2:3,0:0:0:0:
142,262,82766,6,0,L|142:112,1,130,6|10,3:3|3:3,0:0:0:0:
207,96,83227,1,0,2:3:0:0:
273,72,83381,6,0,L|142:70,1,130,2|10,2:3|3:3,0:0:0:0:
258,231,83996,1,2,2:3:0:0:
323,197,84150,1,0,2:3:0:0:
323,197,84304,1,10,2:3:0:0:
258,231,84458,1,2,2:3:0:0:
101,213,84612,6,0,P|56:194|117:169,1,130,2|10,3:3|3:3,0:0:0:0:
167,141,85073,1,0,2:3:0:0:
251,126,85227,2,0,L|408:122,1,130,2|10,2:3|3:3,0:0:0:0:
251,246,85842,2,0,L|250:173,1,65,2|2,2:3|2:3,0:0:0:0:
320,162,86150,2,0,L|324:91,1,65,10|2,2:3|2:3,0:0:0:0:
166,224,86458,6,0,L|34:218,1,130,6|10,3:1|3:3,0:0:0:0:
110,203,86919,1,0,2:3:0:0:
186,223,87073,6,0,P|229:204|171:160,1,130,2|10,2:3|3:3,0:0:0:0:
54,156,87689,2,0,L|128:157,1,65,2|0,2:3|2:3,0:0:0:0:
188,149,87996,2,0,L|258:150,1,65,10|2,2:3|2:3,0:0:0:0:
410,241,88304,6,0,P|413:178|344:157,1,130,2|10,3:3|3:3,0:0:0:0:
291,137,88766,1,0,2:3:0:0:
217,89,88919,5,2,2:3:0:0:
346,85,89227,1,10,3:3:0:0:
346,85,89381,1,2,1:3:0:0:
276,209,89535,1,2,2:3:0:0:
211,208,89689,1,2,2:3:0:0:
281,193,89842,2,0,L|355:193,1,65,10|2,2:3|2:3,0:0:0:0:
181,330,90150,6,0,P|131:311|320:178,1,520,6|2,2:3|3:3,0:0:0:0:
321,168,91534,1,2,3:3:0:0:
251,244,91688,2,0,L|246:155,1,65,2|2,3:3|3:3,0:0:0:0:
321,168,91996,2,0,L|326:91,1,65,2|2,3:3|3:3,0:0:0:0:
249,87,92303,2,0,L|320:85,1,65,2|2,3:3|3:3,0:0:0:0:
472,258,92611,6,0,P|478:187|331:94,1,260,6|2,3:3|2:3,0:0:0:0:
207,251,93534,2,0,L|348:238,1,130,2|2,2:3|2:3,0:0:0:0:
468,182,94150,2,0,L|372:178,1,65,2|2,2:3|2:3,0:0:0:0:
336,298,94457,2,0,L|337:224,1,65,2|2,2:3|2:3,0:0:0:0:
412,212,94765,2,0,L|338:208,1,65,2|2,2:3|2:3,0:0:0:0:
183,212,95073,5,6,3:3:0:0:
256,192,95688,12,0,98765,2:3:0:0:
328,192,99688,6,0,L|464:192,1,130,6|0,2:3|1:3,0:0:0:0:
392,136,100149,1,2,3:3:0:0:
152,80,100457,6,0,L|96:80,2,32.5,2|0|6,2:3|0:0|1:1,0:0:0:0:
224,80,100765,1,2,3:3:0:0:
152,80,100919,1,0,2:3:0:0:
80,80,101073,1,0,0:0:0:0:
224,176,101380,1,2,2:3:0:0:
80,176,101534,6,0,L|80:32,1,130,2|0,2:3|1:3,0:0:0:0:
152,64,101996,1,2,3:3:0:0:
288,144,102303,5,2,2:3:0:0:
320,144,102380,1,0,0:0:0:0:
353,144,102457,1,6,1:1:0:0:
288,144,102611,1,2,3:3:0:0:
216,144,102765,2,0,L|216:0,1,130,2|0,2:3|1:3,0:0:0:0:
288,64,103226,1,2,3:3:0:0:
432,224,103380,6,0,L|432:80,1,130,2|0,2:3|1:3,0:0:0:0:
360,80,103842,1,2,3:3:0:0:
128,144,104149,6,0,L|80:144,2,32.5,2|0|6,2:3|0:0|1:1,0:0:0:0:
200,144,104457,1,2,3:3:0:0:
272,144,104611,1,0,2:3:0:0:
272,88,104765,1,0,0:0:0:0:
128,64,105073,1,2,2:3:0:0:
272,88,105226,6,0,L|416:88,1,130,2|0,2:3|1:3,0:0:0:0:
448,88,105637,1,0,2:3:0:0:
481,113,105739,1,0,2:3:0:0:
485,155,105842,1,2,2:3:0:0:
457,187,105944,1,0,2:3:0:0:
264,144,106149,6,0,L|176:144,2,65,2|2|2,1:3|3:3|2:3,0:0:0:0:
400,88,106765,2,0,L|304:88,1,65,2|2,2:3|3:3,0:0:0:0:
192,168,107073,6,0,L|48:168,1,130,6|0,3:3|1:3,0:0:0:0:
128,128,107534,1,2,3:3:0:0:
360,144,107842,6,0,L|392:144,2,32.5,2|0|6,2:3|0:0|1:1,0:0:0:0:
288,144,108149,1,2,3:3:0:0:
360,144,108303,1,0,2:3:0:0:
432,144,108457,1,0,0:0:0:0:
288,144,108765,1,2,2:3:0:0:
432,200,108919,6,0,L|432:56,1,130,2|0,2:3|1:3,0:0:0:0:
360,56,109380,1,2,3:3:0:0:
120,136,109688,5,2,2:3:0:0:
160,136,109765,1,0,0:0:0:0:
200,136,109842,1,4,1:1:0:0:
272,136,109996,1,2,3:3:0:0:
200,136,110149,2,0,L|56:136,1,130,0|0,2:3|1:3,0:0:0:0:
136,96,110611,1,2,3:3:0:0:
280,224,110765,6,0,L|416:224,1,130,6|2,2:3|1:3,0:0:0:0:
344,168,111226,2,0,L|304:168,2,32.5,2|2|2,2:3|2:3|1:3,0:0:0:0:
416,168,111534,1,2,2:3:0:0:
272,160,111688,6,0,L|136:160,1,130,6|2,2:1|1:3,0:0:0:0:
208,104,112149,2,0,L|248:104,2,32.5,2|2|2,2:3|2:3|1:3,0:0:0:0:
136,104,112457,1,2,2:3:0:0:
280,256,112611,6,0,L|280:112,1,130,6|2,3:1|1:3,0:0:0:0:
208,112,113073,2,0,L|168:112,2,32.5,2|2|2,2:3|2:3|1:3,0:0:0:0:
280,208,113380,1,2,2:3:0:0:
136,256,113534,6,0,L|136:112,1,130,6|2,3:1|1:3,0:0:0:0:
208,112,113996,2,0,L|248:112,2,32.5,2|2|2,2:3|2:3|1:3,0:0:0:0:
136,208,114303,1,2,2:3:0:0:
136,208,114457,5,0,2:3:0:0:
376,200,114764,2,0,L|376:64,1,130,6|2,3:3|3:3,0:0:0:0:
304,112,115226,1,0,2:3:0:0:
232,112,115380,2,0,L|232:40,1,65,10|0,3:3|2:3,0:0:0:0:
376,256,115687,6,0,L|448:256,2,65,2|0|10,3:3|1:3|3:3,0:0:0:0:
304,128,116149,1,0,1:3:0:0:
232,120,116303,2,0,L|232:48,1,65,2|0,2:3|1:3,0:0:0:0:
304,88,116610,2,0,L|352:88,2,32.5,10|0|2,2:3|2:3|1:3,0:0:0:0:
232,80,116918,5,2,3:3:0:0:
472,184,117226,2,0,L|472:320,1,130,6|2,3:3|3:3,0:0:0:0:
400,184,117687,1,0,2:3:0:0:
472,184,117841,2,0,L|400:184,1,65,10|0,3:3|2:3,0:0:0:0:
256,136,118149,6,0,L|192:136,2,65,2|0|10,3:3|1:3|3:3,0:0:0:0:
328,136,118610,1,0,1:3:0:0:
256,136,118764,2,0,L|256:64,1,65,2|2,2:3|1:3,0:0:0:0:
328,136,119072,2,0,L|368:136,2,32.5,10|2|2,2:3|2:3|1:3,0:0:0:0:
256,136,119380,5,2,3:3:0:0:
16,208,119687,2,0,L|16:64,1,130,6|2,3:3|3:3,0:0:0:0:
88,152,120149,1,0,2:3:0:0:
16,208,120303,2,0,L|80:208,1,65,10|0,3:3|2:3,0:0:0:0:
224,184,120610,6,0,L|288:184,2,65,2|0|10,3:3|1:3|3:3,0:0:0:0:
152,184,121072,1,0,1:3:0:0:
224,184,121226,2,0,L|224:120,1,65,2|0,2:3|1:3,0:0:0:0:
152,128,121533,2,0,L|96:128,2,32.5,10|0|2,2:3|2:3|1:3,0:0:0:0:
224,144,121841,1,2,3:3:0:0:
456,184,122149,6,0,L|312:184,1,130,6|2,3:3|3:3,0:0:0:0:
256,184,122610,1,0,2:3:0:0:
328,184,122764,2,0,L|328:112,1,65,10|0,3:3|2:3,0:0:0:0:
176,112,123072,6,0,L|112:112,2,65,2|0|10,3:3|1:3|3:3,0:0:0:0:
248,112,123533,1,2,1:3:0:0:
320,112,123687,1,2,2:3:0:0:
287,112,123764,1,2,2:3:0:0:
255,112,123841,1,2,1:3:0:0:
190,112,123995,1,10,2:3:0:0:
222,112,124072,1,2,2:3:0:0:
255,112,124149,1,2,1:3:0:0:
419,279,124303,6,0,P|456:257|403:206,1,130,6|0,2:1|2:3,0:0:0:0:
382,199,124687,1,0,0:0:0:0:
349,197,124764,1,0,0:0:0:0:
193,182,124918,1,2,2:3:0:0:
323,133,125226,1,2,2:3:0:0:
102,282,125533,6,0,P|64:271|106:218,1,130,6|0,2:1|2:3,0:0:0:0:
134,208,125918,1,0,0:0:0:0:
167,208,125995,1,0,0:0:0:0:
323,191,126149,1,2,2:3:0:0:
454,193,126457,1,2,2:3:0:0:
220,300,126764,6,0,L|219:161,1,130,6|10,2:3|3:3,0:0:0:0:
265,146,127174,2,0,L|198:138,1,43.3333333333333,2|2,3:3|3:3,0:0:0:0:
172,122,127379,1,2,2:3:0:0:
407,296,127687,6,0,P|450:265|392:230,1,130,10|2,2:3|3:3,0:0:0:0:
360,202,128097,2,0,L|360:143,1,43.3333333333333,2|2,3:3|3:3,0:0:0:0:
406,143,128302,1,10,2:3:0:0:
184,230,128610,6,0,L|38:230,1,130,2|10,2:3|3:3,0:0:0:0:
98,199,129020,2,0,L|159:199,1,43.3333333333333,2|2,3:3|3:3,0:0:0:0:
185,210,129225,1,2,2:3:0:0:
408,150,129533,6,0,L|250:149,1,130,10|2,2:3|3:3,0:0:0:0:
234,122,129943,1,2,3:3:0:0:
280,118,130046,1,2,3:3:0:0:
328,115,130148,1,10,2:3:0:0:
94,267,130456,6,0,L|89:121,1,130,6|10,2:1|2:3,0:0:0:0:
138,116,130866,1,0,2:3:0:0:
193,116,130969,1,0,1:3:0:0:
138,116,131071,2,0,L|86:116,1,43.3333333333333,2|0,2:3|2:3,0:0:0:0:
259,290,131379,6,0,L|408:291,1,130,10|2,2:3|2:3,0:0:0:0:
430,250,131789,2,0,L|363:250,1,43.3333333333333,2|2,2:3|1:3,0:0:0:0:
344,240,131994,1,10,2:3:0:0:
109,302,132302,6,0,P|64:273|135:252,1,130,2|10,3:3|2:3,0:0:0:0:
153,206,132712,2,0,L|226:206,1,43.3333333333333,2|2,2:3|1:3,0:0:0:0:
153,206,132917,2,0,L|83:206,1,43.3333333333333,2|2,2:3|2:3,0:0:0:0:
269,202,133225,6,0,L|422:206,2,130,6|6|6,2:1|2:1|2:1,0:0:0:0:
21,221,134148,5,6,2:3:0:0:
256,192,134455,12,0,137840,2:3:0:0:
258,190,138455,5,6,3:3:0:0:
256,192,138762,12,0,143993,0:0:0:0:
