osu file format v14

[General]
AudioFilename: audio.mp3
AudioLeadIn: 0
PreviewTime: 63074
Countdown: 0
SampleSet: Drum
StackLeniency: 0.7
Mode: 2
LetterboxInBreaks: 0
WidescreenStoryboard: 1

[Editor]
Bookmarks: 1230,11075,20921,30767,38458,45843,50766,63074,72920,82766,90150,95073,99688,107073,114457,124303,134148,138455
DistanceSpacing: 1
BeatDivisor: 4
GridSize: 4
TimelineZoom: 3.599998

[Metadata]
Title:Erinyes
TitleUnicode:Erinyes
Artist:Toromaru
ArtistUnicode:とろまる
Creator:autofanboy
Version:Vengeful Spirit
Source:osu!catch World Cup 2023
Tags:alienflybot AFB fayew skill issue lol Verti Stardust Prism -Rustyy ZiRoX Amphy Kaetwo CWC2023 CWC 2023 Quarterfinals QF HR3 HardRock3 Hard Rock featured artist FA Mappers’ Guild MPG MG Parasol Pig osu! original piano Electronic Instrumental
BeatmapID:4159091
BeatmapSetID:2000438

[Difficulty]
HPDrainRate:6
CircleSize:4.2
OverallDifficulty:9.6
ApproachRate:9.6
SliderMultiplier:2.24
SliderTickRate:1

[Events]
//Background and Video events
0,0,"flowr.jpg",0,0
//Break Periods
//Storyboard Layer 0 (Background)
//Storyboard Layer 1 (Fail)
//Storyboard Layer 2 (Pass)
//Storyboard Layer 3 (Foreground)
//Storyboard Layer 4 (Overlay)
//Storyboard Sound Samples

[TimingPoints]
1230,307.692307692308,3,3,1,70,1,0
4922,-100,3,3,1,75,0,0
6768,-100,3,3,1,70,0,0
8614,307.692307692308,4,3,1,65,1,0
11075,-100,4,3,1,60,0,0
13998,-100,4,3,2,60,0,0
14075,-100,4,3,1,60,0,0
17383,-100,4,3,2,60,0,0
17460,-100,4,3,1,60,0,0
17690,-100,4,3,2,60,0,0
17767,-100,4,3,1,60,0,0
17998,-100,4,3,2,60,0,0
18075,-100,4,3,1,60,0,0
20844,-100,4,3,1,30,0,0
20921,-100,4,3,1,60,0,0
27229,-100,4,3,2,60,0,0
27306,-100,4,3,1,60,0,0
27537,-100,4,3,2,60,0,0
27614,-100,4,3,1,60,0,0
27844,-100,4,3,2,60,0,0
27921,-100,4,3,1,60,0,0
29537,-100,4,3,1,65,0,0
30152,-100,4,3,1,70,0,0
30767,307.692307692308,3,3,1,60,1,0
31228,-100,3,3,2,60,0,0
31305,-100,3,3,1,60,0,0
33074,-100,3,3,2,60,0,0
33151,-100,3,3,1,60,0,0
33228,-100,3,3,1,65,0,0
33843,-100,3,3,1,70,0,0
34459,-100,3,3,1,60,0,0
34920,-100,3,3,2,60,0,0
34997,-100,3,3,1,60,0,0
36767,-100,3,3,2,60,0,0
36843,-100,3,3,1,60,0,0
37228,307.692307692308,4,3,1,65,1,0
37843,-100,4,3,1,70,0,0
38458,-100,4,3,1,60,0,0
40920,-100,4,3,1,65,0,0
43381,-100,4,3,1,60,0,0
48304,-100,4,3,1,65,0,0
49535,-100,4,3,1,70,0,0
50151,-100,4,3,1,75,0,0
50766,-50,4,3,1,80,0,0
51074,-50,4,2,10,50,0,0
51997,-50,4,3,10,50,0,0
52304,-50,4,2,10,50,0,0
53228,-50,4,1,10,55,0,0
53535,-50,4,2,10,55,0,0
54151,-100,4,3,1,55,0,0
55689,-100,4,3,1,60,0,0
55997,-100,4,3,2,60,0,0
56074,-100,4,3,1,60,0,0
56612,-100,4,3,2,60,0,0
56689,-100,4,3,1,60,0,0
56843,-100,4,3,1,30,0,0
56920,-100,4,3,1,60,0,0
57228,-100,4,3,2,60,0,0
57304,-100,4,3,1,60,0,0
57843,-100,4,3,2,60,0,0
57920,-100,4,3,1,60,0,0
58458,-100,4,3,2,60,0,0
58535,-100,4,3,1,60,0,0
59074,-100,4,3,2,60,0,0
59151,-100,4,3,1,60,0,0
59304,-100,4,3,1,30,0,0
59381,-100,4,3,1,65,0,0
59997,-100,4,3,1,70,0,0
60612,-100,4,3,1,75,0,0
61843,-100,4,3,1,80,0,0
63074,-100,4,2,10,60,0,0
63304,-100,4,3,1,30,0,0
63381,-100,4,3,1,80,0,1
64766,-100,4,3,2,80,0,1
64843,-100,4,3,1,80,0,1
65074,-100,4,3,2,80,0,1
65151,-100,4,3,1,80,0,1
65997,-100,4,3,2,80,0,1
66074,-100,4,3,1,80,0,1
66920,-100,4,3,2,80,0,1
66997,-100,4,3,1,80,0,1
67535,-100,4,3,2,80,0,1
67612,-100,4,3,1,80,0,1
69689,-100,4,3,2,80,0,1
69766,-100,4,3,1,80,0,1
69997,-100,4,3,2,80,0,1
70074,-100,4,3,1,80,0,1
70458,-100,4,3,1,85,0,1
70689,-100,4,3,1,30,0,1
70766,-100,4,3,1,85,0,1
71689,-100,4,3,1,90,0,0
72920,-100,4,3,1,80,0,1
74304,-100,4,3,2,80,0,1
74381,-100,4,3,1,80,0,1
74920,-100,4,3,2,80,0,1
74997,-100,4,3,1,80,0,1
75843,-100,4,3,2,80,0,1
75920,-100,4,3,1,80,0,1
76151,-100,4,3,2,80,0,1
76228,-100,4,3,1,80,0,1
76766,-100,4,3,2,80,0,1
76843,-100,4,3,1,80,0,1
77074,-100,4,3,2,80,0,1
77151,-100,4,3,1,80,0,1
79228,-100,4,3,2,80,0,1
79304,-100,4,3,1,80,0,1
79843,-100,4,3,2,80,0,1
79920,-100,4,3,1,80,0,1
80304,-100,4,3,1,85,0,1
81535,-100,4,3,1,90,0,1
82458,-100,4,2,10,60,0,0
82689,-100,4,3,1,30,0,0
82766,307.692307692308,3,3,1,70,1,0
86458,-100,3,3,1,75,0,0
89535,-100,3,3,1,80,0,0
90150,307.692307692308,4,3,1,60,1,0
92611,-100,4,3,1,65,0,0
92842,-100,4,3,1,30,0,0
92919,-100,4,3,1,65,0,0
93842,-100,4,3,1,70,0,0
94457,-100,4,3,1,75,0,0
95073,307.692307692308,3,3,1,80,1,0
95380,-100,3,3,1,70,0,0
95996,-100,3,3,1,60,0,0
96919,-100,3,3,1,50,0,0
98149,-100,3,3,1,40,0,0
98919,-100,3,3,20,50,0,0
99226,-100,3,3,20,60,0,0
99688,-100,3,3,1,70,0,0
100611,-100,3,3,2,70,0,0
100688,-100,3,3,1,70,0,0
102457,-100,3,3,2,70,0,0
102534,-100,3,3,1,70,0,0
103073,-100,3,3,2,70,0,0
103149,-100,3,3,1,70,0,0
104303,-100,3,3,2,70,0,0
104380,-100,3,3,1,70,0,0
105534,-100,3,3,2,65,0,0
105637,-100,3,3,1,65,0,0
106149,-100,3,3,2,65,0,0
106226,-100,3,3,1,65,0,0
107073,-100,3,3,1,70,0,0
107996,-100,3,3,2,70,0,0
108073,-100,3,3,1,70,0,0
109842,-100,3,3,2,65,0,0
109919,-100,3,3,1,65,0,0
110457,-100,3,3,2,65,0,0
110534,-100,3,3,1,65,0,0
110765,-100,3,3,1,70,0,0
111380,-100,3,3,2,70,0,0
111457,-100,3,3,1,70,0,0
111688,-100,3,3,1,75,0,0
111996,-100,3,3,2,75,0,0
112073,-100,3,3,1,75,0,0
112303,-100,3,3,2,75,0,0
112380,-100,3,3,1,75,0,0
112611,-100,3,3,1,80,0,0
113226,-100,3,3,2,80,0,0
113303,-100,3,3,1,80,0,0
113534,-100,3,3,1,85,0,0
114149,-100,3,3,2,85,0,0
114226,-100,3,3,1,85,0,0
114457,307.692307692308,4,2,10,60,1,0
114687,-100,4,3,1,30,0,0
114764,-100,4,3,1,85,0,1
116303,-100,4,3,1,90,0,1
116457,-100,4,3,2,90,0,1
116533,-100,4,3,1,90,0,1
116764,-100,4,3,2,90,0,1
116841,-100,4,3,1,90,0,1
116918,-100,4,3,1,60,0,0
117149,-100,4,3,1,30,0,0
117226,-100,4,3,1,85,0,1
118303,-100,4,3,2,85,0,1
118380,-100,4,3,1,85,0,1
118764,-100,4,3,1,90,0,1
118918,-100,4,3,2,90,0,1
118995,-100,4,3,1,90,0,1
119226,-100,4,3,2,90,0,1
119303,-100,4,3,1,90,0,1
119380,-100,4,3,1,60,0,0
119610,-100,4,3,1,30,0,0
119687,-100,4,3,1,85,0,1
121226,-100,4,3,1,90,0,1
121380,-100,4,3,2,90,0,1
121457,-100,4,3,1,90,0,1
121687,-100,4,3,2,90,0,1
121764,-100,4,3,1,90,0,1
121841,-100,4,3,1,60,0,0
122072,-100,4,3,1,30,0,0
122149,-100,4,3,1,85,0,1
123226,-100,4,3,2,85,0,1
123303,-100,4,3,1,85,0,1
123687,-100,4,3,1,90,0,1
123841,-100,4,3,2,90,0,1
123918,-100,4,3,1,90,0,1
124149,-100,4,3,2,90,0,1
124226,-100,4,3,1,90,0,1
124303,-100,4,3,1,60,0,0
125533,-100,4,3,1,65,0,0
126764,307.692307692308,3,3,1,70,1,0
130456,-100,3,3,1,75,0,0
130969,-100,3,3,2,75,0,0
131020,-100,3,3,1,75,0,0
131276,-100,3,3,2,75,0,0
131328,-100,3,3,1,75,0,0
131584,-100,3,3,2,75,0,0
131635,-100,3,3,1,75,0,0
131892,-100,3,3,2,75,0,0
131943,-100,3,3,1,75,0,0
132199,-100,3,3,2,75,0,0
132251,-100,3,3,1,75,0,0
132507,-100,3,3,2,75,0,0
132558,-100,3,3,1,75,0,0
132815,-100,3,3,2,75,0,0
132866,-100,3,3,1,75,0,0
133122,-100,3,3,2,75,0,0
133174,-100,3,3,1,75,0,0
133225,-100,3,3,1,80,0,0
133840,-100,3,3,1,85,0,0
134148,307.692307692308,4,3,1,90,1,0
134455,-100,4,3,1,60,0,0
136609,307.692307692308,3,3,1,60,1,0
136916,-100,3,3,1,65,0,0
138147,-100,3,3,1,60,0,0
138378,-100,3,3,1,30,0,0
138455,-100,3,3,1,90,0,1
138609,-100,3,3,20,80,0,0
139378,-100,3,3,20,70,0,0
140301,-100,3,3,20,60,0,0
141224,-100,3,3,20,50,0,0
142147,-100,3,3,20,40,0,0
143070,-100,3,3,20,30,0,0

[Colours]
Combo1 : 193,208,241
Combo2 : 255,227,150
Combo3 : 217,187,223
Combo4 : 168,181,109

[HitObjects]
120,116,1230,6,0,P|96:76|120:20,1,112,6|0,3:1|0:0,0:0:0:0:
176,22,1460,2,0,L|120:20,1,56,0|0,2:3|2:3,0:0:0:0:
344,244,1691,2,0,P|360:168|296:116,1,168,6|0,3:1|2:3,0:0:0:0:
240,118,1999,2,0,L|296:116,1,56,2|2,2:3|3:3,0:0:0:0:
448,172,2153,6,0,L|452:60,1,112,2|0,3:3|2:3,0:0:0:0:
340,172,2460,2,0,L|338:116,2,56,0|0|2,2:3|0:0|3:3,0:0:0:0:
228,176,2768,1,0,2:3:0:0:
452,288,2922,2,0,L|508:290,1,56,2|2,2:3|3:3,0:0:0:0:
356,348,3076,6,0,P|332:308|356:252,1,112,6|0,3:1|0:0,0:0:0:0:
412,250,3306,2,0,L|468:248,1,56,0|0,2:3|2:3,0:0:0:0:
244,136,3537,2,0,P|292:52|356:36,1,168,6|0,3:1|2:3,0:0:0:0:
412,38,3845,2,0,L|356:36,1,56,2|2,2:3|2:3,0:0:0:0:
200,92,3999,6,0,L|88:88,1,112,2|2,3:3|2:3,0:0:0:0:
200,200,4306,1,2,2:3:0:0:
256,198,4383,1,0,0:0:0:0:
312,196,4460,1,2,3:3:0:0:
316,84,4614,1,2,2:3:0:0:
92,308,4768,2,0,L|36:306,1,56,2|2,2:3|3:3,0:0:0:0:
188,248,4922,6,0,P|240:220|256:172,1,112,6|0,3:1|2:3,0:0:0:0:
200,110,5153,2,0,L|144:112,2,56,0|2|0,2:3|2:3|2:3,0:0:0:0:
356,164,5383,2,0,L|468:160,1,112,6|2,2:1|3:3,0:0:0:0:
244,384,5691,2,0,L|242:328,1,56,2|2,3:3|3:3,0:0:0:0:
396,272,5845,6,0,P|380:224|328:196,1,112,2|0,3:3|2:3,0:0:0:0:
272,138,6076,2,0,L|328:136,1,56,0|2,2:3|2:3,0:0:0:0:
384,134,6230,1,0,2:3:0:0:
228,76,6306,2,0,L|116:72,1,112,6|2,2:1|2:3,0:0:0:0:
340,296,6614,2,0,L|284:294,1,56,2|2,2:3|3:3,0:0:0:0:
132,348,6768,6,0,P|136:236|228:196,1,224,6|0,3:1|2:3,0:0:0:0:
248,144,7153,1,0,2:3:0:0:
228,92,7230,1,0,2:3:0:0:
176,68,7306,1,0,2:3:0:0:
72,124,7383,2,0,L|52:72,3,56,0|0|0|0,2:3|2:3|2:3|2:3,0:0:0:0:
156,236,7691,2,0,L|176:184,3,56,0|0|0|0,2:3|2:3|2:3|2:3,0:0:0:0:
280,348,7999,6,0,L|300:296,3,56,0|0|0|0,2:3|2:3|2:3|2:3,0:0:0:0:
132,348,8306,1,2,2:3:0:0:
112,296,8383,1,2,2:3:0:0:
132,244,8460,1,2,2:3:0:0:
184,220,8537,1,2,2:3:0:0:
340,164,8614,6,0,P|428:120|440:76,1,149.333333333333,2|2,2:3|3:3,0:0:0:0:
264,300,8921,2,0,P|176:256|164:212,1,149.333333333333,2|2,2:3|3:3,0:0:0:0:
276,136,9229,2,0,L|316:72,2,74.6666666666667,2|2|2,2:3|3:3|3:3,0:0:0:0:
100,212,9537,2,0,L|28:196,2,74.6666666666667,2|2|2,2:3|3:3|3:3,0:0:0:0:
328,364,9844,6,0,L|400:348,2,74.6666666666667,6|0|0,2:1|0:0|2:3,0:0:0:0:
216,288,10152,1,0,2:3:0:0:
192,260,10203,1,0,0:0:0:0:
184,224,10255,1,0,2:3:0:0:
192,188,10306,1,0,0:0:0:0:
216,160,10357,1,0,2:3:0:0:
252,148,10408,1,0,0:0:0:0:
324,184,10460,6,0,L|332:148,5,37.3333333333333,0|0|0|0|0|0,2:3|0:0|2:3|0:0|2:3|0:0,0:0:0:0:
404,184,10767,2,0,L|428:156,1,37.3333333333333,0|0,2:3|0:0,0:0:0:0:
436,120,10870,1,0,2:3:0:0:
428,84,10921,1,0,0:0:0:0:
404,56,10972,1,0,2:3:0:0:
368,44,11024,1,0,0:0:0:0:
212,8,11075,6,0,P|160:36|144:84,1,112,6|0,3:3|0:0,0:0:0:0:
300,140,11306,2,0,L|356:142,1,56,0|10,2:3|2:3,0:0:0:0:
244,148,11537,1,0,0:0:0:0:
84,260,11690,2,0,L|80:148,1,112,2|0,3:3|1:3,0:0:0:0:
240,36,11998,2,0,L|312:20,2,74.6666666666667,10|0|0,2:3|2:3|2:3,0:0:0:0:
416,112,12306,6,0,P|468:140|484:188,1,112,2|0,3:3|1:3,0:0:0:0:
328,244,12537,2,0,L|272:246,1,56,0|10,2:3|2:3,0:0:0:0:
384,252,12767,1,0,1:3:0:0:
224,364,12921,2,0,L|220:252,1,112,2|0,3:3|1:3,0:0:0:0:
60,140,13229,2,0,L|92:72,1,74.6666666666667,10|0,2:3|2:3,0:0:0:0:
160,52,13434,1,0,2:3:0:0:
336,128,13537,6,0,L|338:72,3,56,2|0|0|0,3:3|2:3|1:3|0:0,0:0:0:0:
188,16,13844,2,0,L|76:12,1,112,10|0,3:3|1:3,0:0:0:0:
236,236,14152,2,0,L|238:180,1,56,2|0,2:3|0:0,0:0:0:0:
170,124,14306,2,0,L|168:68,1,56,0|0,1:3|0:0,0:0:0:0:
320,124,14460,2,0,L|432:128,1,112,10|2,3:3|2:3,0:0:0:0:
208,352,14767,6,0,L|204:240,1,112,2|0,2:3|1:3,0:0:0:0:
364,128,15075,2,0,L|368:16,1,112,10|2,3:3|1:3,0:0:0:0:
312,14,15306,1,2,3:3:0:0:
160,68,15383,6,0,L|48:64,1,112,6|2,3:2|3:3,0:0:0:0:
352,288,15690,2,0,L|464:284,1,112,6|2,3:2|3:3,0:0:0:0:
408,282,15921,1,2,3:3:0:0:
256,224,15998,6,0,P|208:176|256:104,1,168,6|0,3:1|0:0,0:0:0:0:
408,48,16306,2,0,L|412:160,1,112,10|0,2:3|1:3,0:0:0:0:
252,384,16614,2,0,P|300:300|364:284,1,168,2|0,3:3|0:0,0:0:0:0:
212,228,16921,2,0,L|100:224,1,112,10|0,2:3|0:0,0:0:0:0:
324,112,17229,5,2,3:3:0:0:
436,336,17383,2,0,L|438:280,1,56,0|0,1:3|2:3,0:0:0:0:
284,224,17537,1,10,2:3:0:0:
232,200,17614,1,0,0:0:0:0:
212,148,17690,1,0,1:3:0:0:
232,96,17767,1,0,2:3:0:0:
284,72,17844,1,2,2:3:0:0:
124,296,17998,2,0,L|122:240,1,56,0|0,1:3|2:3,0:0:0:0:
276,184,18152,2,0,L|220:182,1,56,10|2,2:3|2:3,0:0:0:0:
68,124,18306,2,0,L|12:122,1,56,2|2,2:3|2:3,0:0:0:0:
164,64,18460,6,0,L|276:60,1,112,6|0,2:1|1:3,0:0:0:0:
116,172,18767,2,0,L|76:108,2,74.6666666666667,10|0|0,3:3|2:3|2:3,0:0:0:0:
292,248,19075,2,0,L|404:244,1,112,2|2,2:3|1:3,0:0:0:0:
244,356,19383,2,0,P|220:316|244:260,1,112,10|2,2:3|2:3,0:0:0:0:
300,258,19614,1,0,2:3:0:0:
452,312,19690,5,6,2:1:0:0:
472,260,19767,1,0,0:0:0:0:
452,208,19844,1,2,3:3:0:0:
400,184,19921,1,2,2:3:0:0:
248,296,19998,2,0,L|246:240,1,56,14|0,2:1|0:0,0:0:0:0:
314,184,20152,2,0,L|316:128,1,56,2|2,3:3|2:3,0:0:0:0:
152,240,20306,5,6,2:1:0:0:
132,188,20383,1,0,0:0:0:0:
152,136,20460,1,2,3:3:0:0:
204,112,20537,1,2,2:3:0:0:
356,224,20614,2,0,L|356:56,1,168,14|0,2:1|3:3,0:0:0:0:
160,280,20921,6,0,P|108:252|92:204,1,112,6|0,3:3|0:0,0:0:0:0:
248,148,21152,2,0,L|304:146,1,56,0|10,2:3|3:3,0:0:0:0:
192,140,21383,1,0,0:0:0:0:
352,252,21537,2,0,P|404:224|420:176,1,112,2|0,3:3|1:3,0:0:0:0:
260,64,21844,2,0,L|188:48,2,74.6666666666667,10|0|0,2:3|2:3|2:3,0:0:0:0:
436,140,22152,6,0,P|420:188|368:216,1,112,2|0,3:3|1:3,0:0:0:0:
216,272,22383,2,0,L|160:270,1,56,0|10,2:3|3:3,0:0:0:0:
272,264,22614,1,0,1:3:0:0:
112,376,22767,2,0,P|88:336|112:280,1,112,2|0,3:3|1:3,0:0:0:0:
272,168,23075,2,0,L|240:100,1,74.6666666666667,10|0,2:3|2:3,0:0:0:0:
172,80,23280,1,0,2:3:0:0:
348,4,23383,5,2,3:3:0:0:
400,28,23460,1,0,2:3:0:0:
420,80,23537,1,0,1:3:0:0:
400,132,23614,1,0,2:3:0:0:
252,186,23690,1,10,3:3:0:0:
308,188,23767,2,0,L|308:300,1,112,0|0,2:3|0:0,0:0:0:0:
156,356,23998,1,2,2:3:0:0:
136,304,24075,1,0,0:0:0:0:
156,252,24152,1,0,1:3:0:0:
208,228,24229,1,0,2:3:0:0:
358,172,24306,1,10,3:3:0:0:
360,116,24383,2,0,L|248:112,1,112,0|0,2:3|0:0,0:0:0:0:
96,168,24614,6,0,L|92:56,1,112,2|0,2:3|1:3,0:0:0:0:
252,280,24921,1,10,2:3:0:0:
272,228,24998,1,0,2:3:0:0:
252,176,25075,1,2,2:3:0:0:
200,152,25152,1,2,2:3:0:0:
352,96,25229,6,0,L|464:92,1,112,6|2,3:2|3:3,0:0:0:0:
160,316,25537,2,0,L|48:312,1,112,6|2,3:2|3:3,0:0:0:0:
104,310,25767,1,2,3:3:0:0:
256,252,25844,6,0,P|320:236|368:152,1,168,6|0,3:1|0:0,0:0:0:0:
212,96,26152,2,0,L|100:92,1,112,10|0,2:3|1:3,0:0:0:0:
260,316,26460,2,0,P|308:268|260:196,1,168,2|0,3:3|0:0,0:0:0:0:
412,252,26767,2,0,L|416:140,1,112,10|0,2:3|0:0,0:0:0:0:
192,28,27075,5,2,2:3:0:0:
80,252,27229,2,0,L|78:196,1,56,0|0,1:3|2:3,0:0:0:0:
232,140,27383,2,0,L|288:138,1,56,10|0,2:3|2:3,0:0:0:0:
232,80,27537,2,0,L|176:78,2,56,0|0|2,1:3|2:3|3:3,0:0:0:0:
392,304,27844,2,0,L|448:302,1,56,2|0,1:3|2:3,0:0:0:0:
296,244,27998,2,0,L|240:242,1,56,10|0,2:3|2:3,0:0:0:0:
392,184,28152,2,0,L|336:182,1,56,2|2,2:3|2:3,0:0:0:0:
140,124,28306,5,6,3:1:0:0:
66,124,28408,2,0,L|64:48,1,74.6666666666667,0|0,2:3|0:0,0:0:0:0:
244,196,28614,2,0,L|316:180,2,74.6666666666667,10|0|0,3:3|2:3|0:0,0:0:0:0:
132,272,28921,2,0,L|60:256,2,74.6666666666667,2|0|0,2:3|0:0|0:0,0:0:0:0:
308,348,29229,2,0,L|310:272,1,74.6666666666667,10|2,2:3|3:3,0:0:0:0:
236,272,29434,1,2,3:3:0:0:
412,196,29537,6,0,P|464:168|480:120,1,112,6|2,2:1|3:3,0:0:0:0:
424,118,29767,1,2,3:3:0:0:
272,172,29844,1,10,2:3:0:0:
252,120,29921,1,0,2:3:0:0:
272,68,29998,1,2,2:3:0:0:
324,44,30075,1,2,2:3:0:0:
128,156,30152,6,0,P|76:128|60:80,1,112,6|2,2:1|3:3,0:0:0:0:
116,78,30383,1,2,2:3:0:0:
312,132,30460,2,0,L|256:134,1,56,10|2,2:3|2:3,0:0:0:0:
104,192,30614,2,0,L|48:194,1,56,2|2,2:3|2:3,0:0:0:0:
244,252,30767,6,0,P|308:304|292:380,1,168,6|0,2:3|0:0,0:0:0:0:
144,324,31074,2,0,L|140:212,1,112,10|0,3:3|1:3,0:0:0:0:
300,100,31382,2,0,L|188:96,1,112,2|2,2:3|1:3,0:0:0:0:
236,94,31613,1,0,0:0:0:0:
396,36,31690,5,10,2:3:0:0:
284,260,31843,2,0,P|216:192|284:108,1,224,2|2,1:3|2:3,0:0:0:0:
332,110,32228,1,0,2:3:0:0:
180,224,32305,2,0,L|68:228,1,112,10|2,2:3|1:3,0:0:0:0:
228,340,32613,6,0,P|244:264|180:212,1,168,2|0,2:3|0:0,0:0:0:0:
332,156,32920,2,0,L|444:152,1,112,10|0,3:3|1:3,0:0:0:0:
396,150,33151,1,0,2:3:0:0:
236,92,33228,6,0,L|124:88,1,112,2|2,2:3|2:3,0:0:0:0:
284,312,33536,2,0,L|340:310,1,56,2|2,2:3|3:3,0:0:0:0:
188,252,33690,1,10,2:3:0:0:
300,140,33843,2,0,L|302:84,1,56,2|2,2:3|2:3,0:0:0:0:
148,28,33997,1,10,2:3:0:0:
260,140,34151,2,0,L|204:138,1,56,2|2,2:3|2:3,0:0:0:0:
52,80,34305,1,10,2:3:0:0:
276,304,34459,6,0,P|340:288|388:204,1,168,6|0,2:1|0:0,0:0:0:0:
236,148,34767,2,0,L|124:144,1,112,10|0,3:3|1:3,0:0:0:0:
284,256,35074,2,0,L|288:144,1,112,2|2,2:3|1:3,0:0:0:0:
240,142,35305,1,0,0:0:0:0:
80,84,35382,5,10,2:3:0:0:
192,308,35536,2,0,P|260:240|192:156,1,224,2|2,1:3|2:3,0:0:0:0:
144,154,35920,1,0,2:3:0:0:
296,44,35997,2,0,L|408:40,1,112,10|2,2:3|1:3,0:0:0:0:
248,264,36305,6,0,P|296:180|360:164,1,168,2|0,2:3|0:0,0:0:0:0:
208,108,36613,2,0,L|96:104,1,112,10|0,3:3|1:3,0:0:0:0:
152,102,36843,1,0,2:3:0:0:
304,44,36920,6,0,L|192:40,1,112,2|2,2:3|2:3,0:0:0:0:
416,264,37228,2,0,L|418:208,1,56,2|2,2:3|2:3,0:0:0:0:
268,152,37381,1,10,2:3:0:0:
156,376,37535,2,0,L|154:320,1,56,2|2,2:3|2:3,0:0:0:0:
304,264,37689,1,10,2:3:0:0:
80,40,37843,5,2,2:3:0:0:
60,92,37920,1,2,2:3:0:0:
80,144,37997,1,10,2:3:0:0:
132,168,38074,1,2,2:3:0:0:
328,224,38151,2,0,L|384:226,1,56,2|2,2:3|2:3,0:0:0:0:
232,284,38304,2,0,L|176:286,1,56,10|2,2:3|2:3,0:0:0:0:
372,344,38458,6,0,P|424:316|440:268,1,112,6|2,3:3|3:3,0:0:0:0:
392,266,38689,1,0,0:0:0:0:
232,208,38766,2,0,L|228:96,1,112,10|2,3:3|3:3,0:0:0:0:
388,208,39074,1,0,2:3:0:0:
408,156,39151,1,0,0:0:0:0:
388,104,39228,1,2,3:3:0:0:
336,80,39304,1,0,0:0:0:0:
184,24,39381,2,0,L|72:20,1,112,10|2,3:3|3:3,0:0:0:0:
232,244,39689,6,0,L|234:188,1,56,2|0,2:3|0:0,0:0:0:0:
166,132,39843,2,0,L|164:76,1,56,2|0,3:3|0:0,0:0:0:0:
316,132,39997,2,0,L|428:128,1,112,10|2,3:3|3:3,0:0:0:0:
264,352,40304,2,0,L|262:296,1,56,0|0,2:3|0:0,0:0:0:0:
330,240,40458,2,0,L|332:184,1,56,2|0,3:3|0:0,0:0:0:0:
180,128,40612,1,10,3:3:0:0:
292,16,40766,2,0,L|236:14,1,56,2|2,2:3|2:3,0:0:0:0:
84,68,40920,6,0,P|60:108|84:164,1,112,6|2,2:1|3:3,0:0:0:0:
132,166,41151,1,0,0:0:0:0:
292,224,41228,2,0,L|404:228,1,112,10|0,2:3|2:3,0:0:0:0:
244,340,41535,2,0,L|132:336,1,112,2|2,2:3|3:3,0:0:0:0:
188,334,41766,1,0,0:0:0:0:
340,276,41843,2,0,P|364:236|340:180,1,112,10|0,2:3|2:3,0:0:0:0:
116,68,42151,6,0,L|114:12,3,56,2|0|2|0,2:3|2:3|2:3|2:3,0:0:0:0:
264,72,42458,2,0,L|376:76,1,112,10|0,2:3|2:3,0:0:0:0:
216,188,42766,2,0,L|212:76,1,112,2|2,2:3|2:3,0:0:0:0:
436,300,43074,1,10,2:3:0:0:
456,248,43151,1,0,2:3:0:0:
436,196,43228,1,2,2:3:0:0:
384,172,43304,1,2,2:3:0:0:
188,228,43381,6,0,P|136:200|120:152,1,112,6|2,2:1|3:3,0:0:0:0:
168,150,43612,1,0,0:0:0:0:
328,92,43689,2,0,L|440:88,1,112,10|2,3:3|3:3,0:0:0:0:
280,312,43997,1,0,2:3:0:0:
260,260,44074,1,0,0:0:0:0:
280,208,44151,1,2,3:3:0:0:
332,184,44228,1,0,0:0:0:0:
184,128,44304,2,0,L|72:124,1,112,10|2,3:3|3:3,0:0:0:0:
232,348,44612,6,0,L|234:292,1,56,2|0,2:3|0:0,0:0:0:0:
166,236,44766,2,0,L|164:180,1,56,2|0,3:3|0:0,0:0:0:0:
316,236,44920,2,0,L|428:240,1,112,10|2,3:3|3:3,0:0:0:0:
204,352,45228,2,0,L|202:296,1,56,0|0,2:3|0:0,0:0:0:0:
270,240,45381,2,0,L|272:184,1,56,2|0,3:3|0:0,0:0:0:0:
76,128,45535,2,0,L|132:126,1,56,10|2,3:3|3:3,0:0:0:0:
284,68,45689,2,0,L|340:66,1,56,2|2,3:3|3:3,0:0:0:0:
144,8,45843,6,0,P|56:52|44:96,1,149.333333333333,6|0,2:3|0:0,0:0:0:0:
220,172,46151,2,0,P|308:216|320:260,1,149.333333333333,10|0,2:3|0:0,0:0:0:0:
208,336,46458,2,0,L|168:272,2,74.6666666666667,2|0|0,2:3|0:0|0:0,0:0:0:0:
384,188,46766,2,0,L|456:172,2,74.6666666666667,10|0|0,2:3|0:0|0:0,0:0:0:0:
272,260,47074,6,0,P|284:216|372:172,1,149.333333333333,2|0,2:3|0:0,0:0:0:0:
196,96,47381,2,0,P|108:52|96:8,1,149.333333333333,10|0,2:3|0:0,0:0:0:0:
208,80,47689,2,0,L|248:16,2,74.6666666666667,2|0|0,2:3|2:3|2:3,0:0:0:0:
32,228,47997,2,0,L|104:212,2,74.6666666666667,10|0|2,2:3|2:3|2:3,0:0:0:0:
260,376,48304,6,0,P|348:332|360:288,1,149.333333333333,6|0,2:1|0:0,0:0:0:0:
184,212,48612,2,0,L|172:64,1,149.333333333333,10|0,2:3|0:0,0:0:0:0:
284,140,48920,2,0,P|272:96|184:52,1,149.333333333333,2|0,2:3|0:0,0:0:0:0:
360,128,49228,2,0,L|432:112,2,74.6666666666667,10|2|2,2:3|2:3|2:3,0:0:0:0:
132,276,49535,6,0,P|100:252|132:164,1,149.333333333333,6|0,2:1|0:0,0:0:0:0:
308,240,49843,2,0,L|276:172,1,74.6666666666667,10|2,2:3|2:3,0:0:0:0:
208,152,50048,1,2,2:3:0:0:
384,304,50151,2,0,L|456:288,2,74.6666666666667,6|0|2,2:1|2:3|3:3,0:0:0:0:
156,228,50458,2,0,L|120:220,1,37.3333333333333,14|0,2:1|0:0,0:0:0:0:
248,184,50561,2,0,L|284:176,1,37.3333333333333,2|0,2:3|0:0,0:0:0:0:
156,140,50663,2,0,L|120:132,1,37.3333333333333,2|0,2:3|0:0,0:0:0:0:
328,8,50766,6,0,B|400:220|400:220|472:8|472:8|400:220|400:220|328:8|328:8|400:220|400:220|472:8|472:8|328:180|328:180|184:8|184:8|112:220|112:220|40:8|40:8|112:220|112:220|184:8|184:8|112:220|112:220|40:8|40:8|256:69|256:69|472:8|472:8|400:220|400:220|328:8|328:8|184:180|184:180|40:8|40:8|112:220|112:220|184:8,1,4928,6|2,2:3|2:3,0:0:0:0:
296,16,54304,1,0,2:3:0:0:
136,316,54458,5,0,2:3:0:0:
80,268,54561,1,0,2:3:0:0:
60,196,54663,1,0,2:3:0:0:
80,124,54766,1,0,2:3:0:0:
136,76,54869,1,0,2:3:0:0:
208,60,54971,1,0,2:3:0:0:
320,136,55074,2,0,L|392:120,2,74.6666666666667,0|0|0,2:3|2:3|2:3,0:0:0:0:
208,212,55381,2,0,L|136:196,2,74.6666666666667,0|0|0,2:3|2:3|2:3,0:0:0:0:
440,364,55689,6,0,L|440:140,1,224,6|0,2:3|1:3,0:0:0:0:
424,88,56074,1,0,2:3:0:0:
380,52,56151,1,0,2:3:0:0:
327,40,56228,1,0,2:3:0:0:
176,96,56304,1,10,2:3:0:0:
160,148,56381,1,0,2:3:0:0:
176,200,56458,1,0,2:3:0:0:
220,236,56535,1,0,2:3:0:0:
272,248,56612,2,0,L|271:80,1,168,0|0,1:3|0:0,0:0:0:0:
168,24,56920,6,0,P|76:52|20:160,1,224,0|2,2:3|1:3,0:0:0:0:
36,212,57304,1,0,2:3:0:0:
80,248,57381,1,0,2:3:0:0:
133,260,57458,1,0,2:3:0:0:
284,316,57535,1,10,2:3:0:0:
336,292,57612,1,0,2:3:0:0:
356,240,57689,1,0,2:3:0:0:
336,188,57766,1,0,2:3:0:0:
284,164,57843,1,0,1:3:0:0:
124,160,57997,1,2,3:3:0:0:
348,48,58151,6,0,P|440:76|496:184,1,224,2|0,2:3|1:3,0:0:0:0:
480,236,58535,1,0,2:3:0:0:
436,272,58612,1,0,2:3:0:0:
383,284,58689,1,0,2:3:0:0:
216,340,58766,1,10,3:3:0:0:
196,288,58843,1,0,2:3:0:0:
216,236,58920,1,0,2:3:0:0:
268,212,58997,1,0,2:3:0:0:
216,188,59074,2,0,P|152:204|104:288,1,168,0|0,1:3|0:0,0:0:0:0:
300,344,59381,6,0,P|368:276|300:192,1,224,6|2,2:1|2:3,0:0:0:0:
244,194,59766,2,0,L|300:192,1,56,0|0,0:0|2:3,0:0:0:0:
244,194,59920,1,0,0:0:0:0:
440,252,59997,6,0,P|508:184|440:100,1,224,14|2,2:1|2:3,0:0:0:0:
384,102,60381,2,0,L|440:100,1,56,2|2,3:3|2:3,0:0:0:0:
384,102,60535,1,2,2:3:0:0:
188,160,60612,6,0,P|120:92|188:8,1,224,6|2,2:1|2:3,0:0:0:0:
300,12,61074,1,2,2:3:0:0:
76,124,61228,2,0,L|72:236,1,112,10|2,2:3|2:3,0:0:0:0:
296,348,61535,2,0,L|184:344,1,112,2|2,2:3|2:3,0:0:0:0:
240,342,61766,1,0,2:3:0:0:
436,284,61843,6,0,L|438:228,1,56,10|2,2:3|2:3,0:0:0:0:
240,172,61997,2,0,L|184:170,1,56,2|2,2:3|2:3,0:0:0:0:
336,112,62151,2,0,L|392:110,1,56,2|2,2:3|2:3,0:0:0:0:
196,164,62304,2,0,L|194:108,1,56,2|2,2:3|2:3,0:0:0:0:
392,52,62458,1,10,2:3:0:0:
412,104,62535,1,2,2:3:0:0:
392,156,62612,1,2,2:3:0:0:
340,180,62689,1,2,2:3:0:0:
144,236,62766,1,2,2:3:0:0:
124,288,62843,1,2,2:3:0:0:
144,340,62920,1,2,2:3:0:0:
196,364,62997,1,2,2:3:0:0:
348,308,63074,6,0,L|348:140,1,168,0|0,2:3|0:0,0:0:0:0:
152,192,63381,6,0,L|40:188,1,112,14|0,2:3|2:3,0:0:0:0:
200,76,63689,2,0,L|312:80,1,112,2|0,2:3|0:0,0:0:0:0:
88,304,63997,2,0,L|86:248,1,56,10|0,2:3|2:3,2:3:0:0:
154,192,64151,2,0,L|98:190,1,56,2|0,2:3|2:3,2:3:0:0:
288,120,64304,6,0,L|176:116,1,112,2|0,2:3|1:3,0:0:0:0:
400,340,64612,2,0,L|404:228,1,112,10|0,2:3|1:3,0:0:0:0:
244,340,64920,1,2,2:3:0:0:
192,316,64997,1,0,2:3:0:0:
172,264,65074,1,0,1:3:0:0:
192,212,65151,1,0,2:3:0:0:
344,156,65228,2,0,L|400:154,1,56,10|0,2:3|2:3,0:0:0:0:
248,96,65381,2,0,L|192:94,1,56,2|0,2:3|2:3,0:0:0:0:
344,36,65535,6,0,L|456:32,1,112,2|0,2:3|1:3,0:0:0:0:
232,144,65843,2,0,L|228:32,1,112,10|0,2:3|1:3,0:0:0:0:
68,256,66151,2,0,L|64:144,1,112,2|0,2:3|1:3,0:0:0:0:
288,368,66458,1,10,2:3:0:0:
308,316,66535,1,0,2:3:0:0:
288,264,66612,1,2,2:3:0:0:
236,240,66689,1,0,2:3:0:0:
84,184,66766,6,0,L|28:182,1,56,2|0,2:3|2:3,0:0:0:0:
96,124,66920,2,0,L|40:122,1,56,0|0,1:3|2:3,0:0:0:0:
192,64,67074,2,0,L|304:60,1,112,10|0,2:3|1:3,0:0:0:0:
144,284,67381,1,2,2:3:0:0:
124,232,67458,1,0,2:3:0:0:
144,180,67535,1,0,1:3:0:0:
196,156,67612,1,0,2:3:0:0:
392,100,67689,2,0,L|336:98,1,56,10|2,2:3|2:3,0:0:0:0:
184,40,67843,2,0,L|128:38,1,56,2|2,2:3|2:3,0:0:0:0:
280,148,67997,6,0,L|392:144,1,112,6|0,2:3|0:0,0:0:0:0:
168,256,68304,2,0,L|164:144,1,112,10|0,2:3|2:3,0:0:0:0:
324,368,68612,2,0,L|328:256,1,112,2|0,2:3|0:0,0:0:0:0:
104,368,68920,1,10,2:3:0:0:
120,316,68997,1,0,2:3:0:0:
164,280,69074,1,2,2:3:0:0:
216,268,69151,1,0,2:3:0:0:
64,212,69228,6,0,L|60:100,1,112,2|0,2:3|1:3,0:0:0:0:
284,324,69535,2,0,L|396:320,1,112,10|0,2:3|1:3,0:0:0:0:
236,208,69843,1,2,2:3:0:0:
184,196,69920,1,0,2:3:0:0:
140,160,69997,1,0,1:3:0:0:
124,108,70074,1,0,2:3:0:0:
276,52,70151,2,0,L|332:50,1,56,10|0,2:3|2:3,0:0:0:0:
180,104,70304,2,0,L|124:102,1,56,2|0,2:3|2:3,0:0:0:0:
320,156,70458,6,0,P|336:232|272:284,1,168,6|0,2:3|0:0,0:0:0:0:
168,340,70766,1,10,2:3:0:0:
148,288,70843,1,0,2:3:0:0:
168,236,70920,1,0,2:3:0:0:
220,212,70997,1,0,2:3:0:0:
324,268,71074,2,0,L|344:216,3,56,2|0|0|0,2:3|2:3|2:3|2:3,0:0:0:0:
448,156,71381,2,0,L|450:100,1,56,10|0,2:3|2:3,0:0:0:0:
296,44,71535,2,0,L|240:42,1,56,2|2,2:3|2:3,0:0:0:0:
392,152,71689,6,0,L|464:136,2,74.6666666666667,2|2|2,2:3|3:3|3:3,0:0:0:0:
216,300,71997,2,0,L|248:232,1,74.6666666666667,10|2,2:3|3:3,0:0:0:0:
316,212,72202,1,2,3:3:0:0:
140,360,72304,2,0,L|68:344,2,74.6666666666667,2|2|2,2:3|3:3|3:3,0:0:0:0:
372,284,72612,2,0,L|300:268,1,74.6666666666667,10|2,2:3|3:3,0:0:0:0:
124,192,72817,1,2,3:3:0:0:
356,116,72920,6,0,L|468:112,1,112,6|0,2:3|0:0,0:0:0:0:
242,336,73228,2,0,L|224:284,3,56,10|0|0|0,2:3|2:3|2:3|2:3,0:0:0:0:
328,224,73535,2,0,L|332:112,1,112,2|0,2:3|2:3,0:0:0:0:
276,110,73766,1,0,2:3:0:0:
108,0,73843,1,10,2:3:0:0:
88,52,73920,1,0,2:3:0:0:
108,104,73997,1,2,2:3:0:0:
160,128,74074,1,0,2:3:0:0:
312,184,74151,5,2,2:3:0:0:
364,208,74228,1,0,2:3:0:0:
384,260,74304,1,0,1:3:0:0:
364,312,74381,1,0,2:3:0:0:
212,368,74458,2,0,L|208:256,1,112,10|0,2:3|1:3,0:0:0:0:
368,368,74766,1,2,2:3:0:0:
352,316,74843,1,0,2:3:0:0:
308,280,74920,1,0,1:3:0:0:
256,268,74997,1,0,2:3:0:0:
104,212,75074,2,0,L|48:210,1,56,10|0,2:3|2:3,0:0:0:0:
200,152,75228,2,0,L|256:150,1,56,2|0,2:3|2:3,0:0:0:0:
104,260,75381,6,0,L|100:148,1,112,2|0,2:3|1:3,0:0:0:0:
324,372,75689,1,10,2:3:0:0:
376,348,75766,1,0,2:3:0:0:
396,296,75843,1,0,1:3:0:0:
376,244,75920,1,0,2:3:0:0:
272,300,75997,2,0,L|270:244,1,56,2|0,2:3|2:3,0:0:0:0:
338,188,76151,2,0,L|340:132,1,56,0|0,1:3|2:3,0:0:0:0:
188,20,76304,1,10,2:3:0:0:
168,72,76381,1,0,2:3:0:0:
188,124,76458,1,2,2:3:0:0:
240,148,76535,1,0,2:3:0:0:
436,92,76612,6,0,L|492:94,1,56,2|0,2:3|2:3,0:0:0:0:
340,152,76766,2,0,L|284:154,1,56,0|0,1:3|2:3,0:0:0:0:
132,212,76920,2,0,L|76:214,1,56,10|0,2:3|2:3,0:0:0:0:
228,272,77074,2,0,L|284:274,1,56,0|0,1:3|2:3,0:0:0:0:
132,332,77228,1,2,2:3:0:0:
112,280,77304,1,0,0:0:0:0:
132,228,77381,1,0,1:3:0:0:
184,204,77458,1,0,0:0:0:0:
380,148,77535,2,0,L|324:146,1,56,10|2,2:3|2:3,0:0:0:0:
172,88,77689,2,0,L|116:86,1,56,2|2,2:3|2:3,0:0:0:0:
268,28,77843,6,0,L|380:24,1,112,6|0,2:3|0:0,0:0:0:0:
156,248,78151,1,10,2:3:0:0:
87,227,78253,2,0,L|56:160,1,74.6666666666667,0|0,0:0|2:3,0:0:0:0:
168,80,78458,2,0,L|240:64,2,74.6666666666667,2|0|0,2:3|0:0|2:3,0:0:0:0:
348,232,78766,1,10,2:3:0:0:
417,211,78869,2,0,L|448:144,1,74.6666666666667,0|0,2:3|2:3,0:0:0:0:
220,288,79074,6,0,L|218:232,1,56,2|0,2:3|2:3,0:0:0:0:
286,176,79228,2,0,L|288:120,1,56,0|0,1:3|2:3,0:0:0:0:
136,178,79381,1,10,2:3:0:0:
80,176,79458,2,0,P|96:128|148:100,1,112,0|0,2:3|0:0,0:0:0:0:
300,212,79689,6,0,L|302:156,1,56,2|0,2:3|2:3,0:0:0:0:
234,100,79843,2,0,L|232:44,1,56,0|0,1:3|2:3,0:0:0:0:
428,156,79997,2,0,L|484:154,1,56,10|2,2:3|2:3,0:0:0:0:
332,96,80151,2,0,L|276:94,1,56,2|2,2:3|2:3,0:0:0:0:
448,204,80304,5,6,2:3:0:0:
472,232,80356,1,0,3:3:0:0:
480,268,80407,1,2,2:3:0:0:
472,304,80458,1,0,3:3:0:0:
448,332,80510,1,2,2:3:0:0:
412,344,80561,1,0,3:3:0:0:
284,308,80612,1,2,3:3:0:0:
268,272,80663,1,0,0:0:0:0:
284,236,80715,1,2,2:3:0:0:
320,224,80766,1,0,3:3:0:0:
336,188,80817,1,2,2:3:0:0:
320,152,80869,1,0,3:3:0:0:
192,116,80920,5,2,2:3:0:0:
168,144,80971,1,0,3:3:0:0:
160,180,81022,1,2,2:3:0:0:
168,216,81074,1,0,3:3:0:0:
192,244,81125,1,2,2:3:0:0:
228,256,81176,1,0,3:3:0:0:
352,224,81228,2,0,L|388:216,1,37.3333333333333,2|0,2:3|3:3,0:0:0:0:
260,180,81330,2,0,L|224:172,1,37.3333333333333,2|0,2:3|3:3,0:0:0:0:
96,136,81433,2,0,L|132:128,1,37.3333333333333,2|0,2:3|3:3,0:0:0:0:
296,92,81535,6,0,L|312:56,2,37.3333333333333,2|0|0,2:3|3:3|3:3,0:0:0:0:
224,316,81689,2,0,L|208:280,2,37.3333333333333,2|0|0,2:3|3:3|3:3,0:0:0:0:
388,168,81843,2,0,L|404:132,2,37.3333333333333,2|0|0,2:3|3:3|3:3,0:0:0:0:
316,240,81997,2,0,L|300:204,2,37.3333333333333,2|0|0,2:3|3:3|3:3,0:0:0:0:
480,312,82151,5,2,2:3:0:0:
504,284,82202,1,2,3:3:0:0:
512,248,82253,1,2,3:3:0:0:
504,212,82304,1,2,2:3:0:0:
480,184,82356,1,2,3:3:0:0:
444,172,82407,1,2,3:3:0:0:
316,208,82458,2,0,P|364:124|428:108,1,168,0|0,2:3|0:0,0:0:0:0:
256,52,82766,6,0,L|144:48,2,112,6|0|10,3:3|0:0|3:3,0:0:0:0:
32,276,83227,2,0,L|30:220,1,56,0|0,2:3|0:0,0:0:0:0:
184,164,83381,2,0,L|296:160,1,112,2|0,2:3|1:3,0:0:0:0:
248,158,83612,1,0,0:0:0:0:
400,268,83689,6,0,P|452:240|468:192,1,112,10|0,3:3|1:3,0:0:0:0:
448,140,83919,1,0,0:0:0:0:
396,116,83996,1,2,2:3:0:0:
244,228,84073,1,0,2:3:0:0:
192,204,84150,1,0,2:3:0:0:
172,152,84227,1,0,2:3:0:0:
324,96,84304,2,0,L|436:92,1,112,10|2,2:3|2:3,0:0:0:0:
212,204,84612,6,0,P|188:164|212:108,1,112,2|0,3:3|0:0,0:0:0:0:
268,106,84842,2,0,L|212:108,1,56,0|10,0:0|3:3,0:0:0:0:
436,332,85073,2,0,L|438:276,1,56,0|0,2:3|0:0,0:0:0:0:
284,220,85227,2,0,L|172:216,1,112,2|0,2:3|1:3,0:0:0:0:
220,214,85458,1,0,0:0:0:0:
68,324,85535,6,0,P|44:284|68:228,1,112,10|0,3:3|1:3,0:0:0:0:
124,226,85766,1,0,0:0:0:0:
272,336,85842,1,2,2:3:0:0:
292,284,85919,1,0,2:3:0:0:
272,232,85996,1,2,2:3:0:0:
220,208,86073,1,0,2:3:0:0:
372,152,86150,2,0,L|316:150,1,56,10|2,2:3|2:3,0:0:0:0:
160,92,86304,2,0,L|104:90,1,56,2|0,2:3|2:3,0:0:0:0:
256,32,86458,6,0,L|368:28,2,112,6|0|10,3:1|0:0|3:3,0:0:0:0:
480,256,86919,2,0,L|424:254,1,56,0|0,2:3|0:0,0:0:0:0:
272,308,87073,2,0,P|248:268|272:212,1,112,2|0,2:3|1:3,0:0:0:0:
320,210,87304,1,0,0:0:0:0:
168,264,87381,6,0,P|116:236|100:188,1,112,10|0,3:3|1:3,0:0:0:0:
148,186,87612,1,0,0:0:0:0:
300,296,87689,2,0,L|302:240,1,56,2|0,2:3|2:3,0:0:0:0:
234,184,87842,2,0,L|232:128,1,56,0|0,2:3|2:3,0:0:0:0:
384,184,87996,1,10,2:3:0:0:
404,132,88073,1,0,2:3:0:0:
384,80,88150,1,2,2:3:0:0:
332,56,88227,1,0,2:3:0:0:
180,112,88304,6,0,P|196:64|248:36,1,112,2|0,3:3|0:0,0:0:0:0:
304,38,88535,2,0,L|248:36,1,56,0|10,0:0|3:3,0:0:0:0:
24,260,88766,2,0,L|80:258,1,56,0|0,2:3|0:0,0:0:0:0:
232,312,88919,2,0,P|256:272|232:216,1,112,2|2,2:3|1:3,0:0:0:0:
184,214,89150,1,0,0:0:0:0:
336,268,89227,6,0,P|388:240|404:192,1,112,10|2,3:3|1:3,0:0:0:0:
356,190,89458,1,0,0:0:0:0:
160,132,89535,2,0,L|272:128,1,112,2|2,2:3|2:3,0:0:0:0:
224,126,89766,1,2,3:3:0:0:
36,180,89842,2,0,P|52:132|104:104,1,112,10|2,2:3|2:3,0:0:0:0:
152,102,90073,1,2,3:3:0:0:
340,44,90150,6,0,L|396:46,2,56,6|0|0,2:3|2:3|0:0,0:0:0:0:
236,100,90380,1,0,2:3:0:0:
216,152,90457,1,0,0:0:0:0:
236,204,90534,1,0,2:3:0:0:
288,228,90611,1,0,0:0:0:0:
308,280,90688,1,0,2:3:0:0:
288,332,90765,1,0,0:0:0:0:
184,276,90842,1,0,2:3:0:0:
152,232,90919,1,0,0:0:0:0:
140,176,90996,1,0,2:3:0:0:
152,120,91073,1,0,0:0:0:0:
184,76,91150,1,0,2:3:0:0:
232,48,91226,1,0,0:0:0:0:
288,40,91303,1,0,2:3:0:0:
136,96,91380,5,2,3:3:0:0:
84,120,91457,1,0,2:3:0:0:
64,172,91534,1,2,3:3:0:0:
84,224,91611,1,0,2:3:0:0:
236,280,91688,2,0,L|292:278,1,56,2|0,3:3|2:3,0:0:0:0:
224,220,91842,2,0,L|168:218,1,56,2|0,3:3|2:3,0:0:0:0:
364,328,91996,5,2,3:3:0:0:
384,276,92073,1,0,2:3:0:0:
364,224,92150,1,2,3:3:0:0:
312,200,92226,1,0,2:3:0:0:
116,144,92303,2,0,L|172:142,1,56,2|0,3:3|2:3,0:0:0:0:
324,84,92457,2,0,L|380:82,1,56,2|0,3:3|2:3,0:0:0:0:
184,24,92611,6,0,P|120:76|136:152,1,168,6|0,3:3|0:0,0:0:0:0:
240,208,92919,2,0,L|260:156,3,56,2|2|2|2,3:3|3:3|3:3|3:3,0:0:0:0:
444,376,93226,6,0,L|446:320,1,56,2|2,2:3|2:3,0:0:0:0:
370,264,93380,2,0,L|368:208,1,56,2|2,3:3|2:3,0:0:0:0:
208,320,93534,2,0,L|206:264,1,56,2|2,2:3|3:3,0:0:0:0:
282,208,93688,2,0,L|284:152,1,56,2|2,2:3|3:3,0:0:0:0:
88,96,93842,6,0,L|32:94,1,56,2|2,2:3|3:3,0:0:0:0:
108,36,93996,2,0,L|52:34,1,56,2|2,2:3|3:3,0:0:0:0:
248,256,94150,2,0,L|304:254,1,56,2|2,2:3|3:3,0:0:0:0:
152,140,94303,2,0,L|96:138,1,56,2|2,2:3|3:3,0:0:0:0:
292,360,94457,6,0,L|348:358,1,56,2|2,2:3|3:3,0:0:0:0:
272,300,94611,2,0,L|216:298,1,56,2|2,2:3|3:3,0:0:0:0:
412,240,94765,2,0,L|356:238,1,56,2|2,2:3|2:3,0:0:0:0:
204,180,94919,2,0,L|260:178,1,56,2|2,2:3|3:3,0:0:0:0:
456,120,95073,6,0,P|424:300|332:328,1,298.666666666667,6|0,3:3|2:3,0:0:0:0:
284,320,95551,1,0,2:3:0:0:
244,288,95620,1,0,2:3:0:0:
232,240,95688,1,0,0:0:0:0:
248,188,95765,1,0,2:3:0:0:
292,152,95842,1,0,2:3:0:0:
344,140,95919,1,0,2:3:0:0:
240,196,95996,5,2,3:3:0:0:
168,172,96098,1,0,2:3:0:0:
140,108,96201,1,0,2:3:0:0:
168,44,96303,1,0,2:3:0:0:
240,20,96406,1,0,2:3:0:0:
312,44,96508,1,0,2:3:0:0:
340,108,96611,1,0,2:3:0:0:
312,172,96714,1,0,2:3:0:0:
240,196,96816,1,0,2:3:0:0:
128,272,96919,5,2,2:3:0:0:
60,272,97073,1,0,2:3:0:0:
128,272,97226,1,0,2:3:0:0:
240,272,97431,1,0,2:3:0:0:
316,272,97637,1,0,2:3:0:0:
352,272,97842,1,0,2:3:0:0:
296,272,98149,1,0,2:3:0:0:
184,272,98457,1,0,2:3:0:0:
16,272,98765,5,0,2:3:0:0:
256,192,98919,12,0,99534,0:0:0:0:
360,352,99688,6,0,L|360:128,1,224,6|0,2:3|1:3,0:0:0:0:
200,240,100149,2,0,P|132:172|200:88,1,224,2|2,3:3|2:3,0:0:0:0:
236,80,100508,2,0,L|272:72,1,37.3333333333333,0|0,2:3|2:3,0:0:0:0:
140,36,100611,2,0,L|28:32,1,112,6|2,1:1|3:3,0:0:0:0:
188,144,100919,2,0,L|300:140,2,112,0|0|0,2:3|0:0|1:3,0:0:0:0:
348,368,101380,2,0,L|350:312,1,56,2|0,2:3|0:0,0:0:0:0:
196,256,101534,6,0,P|128:188|196:104,1,224,2|0,2:3|1:3,0:0:0:0:
356,216,101996,2,0,P|300:108|208:80,1,224,2|2,3:3|2:3,0:0:0:0:
172,88,102355,2,0,L|208:80,1,37.3333333333333,0|0,2:3|2:3,0:0:0:0:
336,44,102457,2,0,L|448:40,1,112,6|2,1:1|3:3,0:0:0:0:
288,264,102765,2,0,L|284:152,1,112,2|0,2:3|0:0,0:0:0:0:
124,376,103073,2,0,L|120:264,1,112,0|2,1:3|3:3,0:0:0:0:
176,262,103303,1,2,3:3:0:0:
328,204,103380,6,0,P|420:176|476:68,1,224,2|0,2:3|1:3,0:0:0:0:
316,292,103842,2,0,P|248:224|316:140,1,224,2|2,3:3|2:3,0:0:0:0:
352,148,104201,2,0,L|316:140,1,37.3333333333333,0|0,2:3|2:3,0:0:0:0:
188,176,104303,2,0,L|184:64,1,112,6|2,1:1|3:3,0:0:0:0:
344,288,104611,2,0,L|348:176,1,112,0|0,2:3|0:0,0:0:0:0:
236,172,104919,1,0,1:3:0:0:
396,60,105073,2,0,L|452:58,1,56,2|0,2:3|0:0,0:0:0:0:
300,0,105226,6,0,P|232:68|300:152,1,224,2|0,2:3|1:3,0:0:0:0:
372,168,105637,2,0,L|300:152,1,74.6666666666667,0|0,2:3|2:3,0:0:0:0:
124,228,105842,2,0,L|52:244,2,74.6666666666667,2|0|0,2:3|2:3|2:3,0:0:0:0:
236,304,106149,2,0,L|238:248,1,56,2|0,1:3|0:0,0:0:0:0:
170,192,106303,2,0,L|168:136,1,56,2|0,3:3|0:0,0:0:0:0:
320,192,106457,1,2,2:3:0:0:
372,168,106534,1,0,2:3:0:0:
392,116,106611,1,2,2:3:0:0:
372,64,106688,1,0,2:3:0:0:
320,40,106765,1,2,2:3:0:0:
480,264,106919,2,0,L|424:262,1,56,2|2,3:3|3:3,0:0:0:0:
228,316,107073,6,0,L|228:92,1,224,6|0,3:3|1:3,0:0:0:0:
388,204,107534,2,0,P|332:96|240:68,1,224,2|2,3:3|2:3,0:0:0:0:
204,60,107893,2,0,L|168:52,1,37.3333333333333,0|0,2:3|2:3,0:0:0:0:
300,16,107996,2,0,L|412:12,1,112,6|2,1:1|3:3,0:0:0:0:
252,124,108303,2,0,L|140:120,2,112,0|0|0,2:3|0:0|1:3,0:0:0:0:
92,348,108765,2,0,L|90:292,1,56,2|0,2:3|0:0,0:0:0:0:
244,236,108919,6,0,P|312:168|244:84,1,224,2|0,2:3|1:3,0:0:0:0:
84,196,109380,2,0,P|16:128|84:44,1,224,2|2,3:3|2:3,0:0:0:0:
120,36,109739,2,0,L|156:28,1,37.3333333333333,0|0,2:3|2:3,0:0:0:0:
288,64,109842,2,0,L|292:176,1,112,4|2,1:1|3:3,0:0:0:0:
68,288,110149,2,0,L|180:284,1,112,0|0,2:3|0:0,0:0:0:0:
404,172,110457,1,0,1:3:0:0:
292,168,110611,2,0,L|290:112,1,56,2|2,3:3|3:3,0:0:0:0:
488,168,110765,6,0,P|440:84|376:68,1,168,6|2,2:3|3:3,0:0:0:0:
272,12,111073,1,2,1:3:0:0:
228,48,111149,1,2,3:3:0:0:
212,100,111226,1,2,2:3:0:0:
228,152,111303,1,2,2:3:0:0:
272,188,111380,1,2,1:3:0:0:
324,200,111457,1,2,3:3:0:0:
172,256,111534,2,0,L|116:258,1,56,2|2,2:3|2:3,0:0:0:0:
268,316,111688,6,0,L|380:320,1,112,6|2,2:1|3:3,0:0:0:0:
424,284,111919,1,2,3:3:0:0:
440,232,111996,1,2,1:3:0:0:
424,180,112073,1,2,2:3:0:0:
380,144,112149,1,2,2:3:0:0:
328,132,112226,1,2,2:3:0:0:
224,188,112303,2,0,L|168:190,1,56,2|2,1:3|2:3,0:0:0:0:
320,248,112457,2,0,L|376:250,1,56,2|2,2:3|2:3,0:0:0:0:
224,308,112611,6,0,L|112:304,1,112,6|2,3:1|3:3,0:0:0:0:
96,252,112842,1,2,3:3:0:0:
112,200,112919,1,2,1:3:0:0:
156,164,112996,1,2,3:3:0:0:
208,152,113073,1,2,2:3:0:0:
156,140,113149,1,2,2:3:0:0:
308,196,113226,2,0,L|364:198,1,56,2|2,1:3|2:3,0:0:0:0:
212,256,113380,2,0,L|156:258,1,56,2|2,2:3|2:3,0:0:0:0:
308,316,113534,6,0,L|420:320,1,112,6|2,3:1|3:3,0:0:0:0:
440,268,113765,1,2,3:3:0:0:
420,216,113842,1,2,1:3:0:0:
368,192,113919,1,2,3:3:0:0:
216,248,113996,2,0,L|160:246,1,56,2|2,2:3|2:3,0:0:0:0:
228,188,114149,2,0,L|284:186,1,56,2|2,1:3|2:3,0:0:0:0:
132,128,114303,2,0,L|76:126,1,56,2|2,2:3|2:3,0:0:0:0:
276,68,114457,6,0,P|292:144|228:196,1,168,0|0,2:3|0:0,0:0:0:0:
32,140,114764,6,0,P|16:216|80:268,1,168,6|0,3:3|0:0,0:0:0:0:
184,324,115072,2,0,L|204:272,3,56,2|0|0|0,3:3|0:0|2:3|2:3,0:0:0:0:
356,212,115380,5,10,3:3:0:0:
376,160,115457,1,0,0:0:0:0:
356,108,115533,1,0,2:3:0:0:
304,84,115610,1,0,2:3:0:0:
208,140,115687,1,2,3:3:0:0:
188,88,115764,1,0,0:0:0:0:
208,36,115841,1,0,1:3:0:0:
260,12,115918,1,0,0:0:0:0:
412,68,115995,2,0,L|432:120,3,56,10|0|0|0,3:3|0:0|1:3|0:0,0:0:0:0:
264,180,116303,6,0,L|262:236,1,56,2|0,2:3|2:3,0:0:0:0:
330,236,116457,2,0,L|332:292,1,56,0|0,1:3|2:3,0:0:0:0:
136,348,116610,2,0,L|80:346,1,56,10|0,2:3|2:3,0:0:0:0:
232,288,116764,2,0,L|288:286,1,56,2|2,1:3|3:3,0:0:0:0:
136,228,116918,6,0,P|120:152|184:100,1,168,2|0,3:3|0:0,0:0:0:0:
380,156,117226,6,0,P|396:80|332:28,1,168,6|0,3:3|0:0,0:0:0:0:
228,84,117533,2,0,L|208:136,3,56,2|0|0|0,3:3|0:0|2:3|2:3,0:0:0:0:
360,196,117841,6,0,L|416:198,1,56,10|0,3:3|0:0,0:0:0:0:
340,256,117995,2,0,L|284:258,1,56,0|0,2:3|2:3,0:0:0:0:
360,196,118149,2,0,L|416:198,1,56,2|0,3:3|0:0,0:0:0:0:
340,256,118303,2,0,L|284:258,1,56,0|0,1:3|2:3,0:0:0:0:
444,316,118457,2,0,L|464:264,3,56,10|0|0|0,3:3|0:0|1:3|0:0,0:0:0:0:
296,204,118764,6,0,L|240:202,1,56,2|2,2:3|2:3,0:0:0:0:
88,144,118918,2,0,L|86:88,1,56,2|0,1:3|2:3,0:0:0:0:
240,312,119072,2,0,L|296:310,1,56,10|2,2:3|2:3,0:0:0:0:
448,252,119226,2,0,L|450:196,1,56,2|0,1:3|2:3,0:0:0:0:
296,252,119380,6,0,P|344:168|408:152,1,168,2|0,3:3|0:0,0:0:0:0:
212,208,119687,6,0,P|148:192|100:108,1,168,6|0,3:3|0:0,0:0:0:0:
204,52,119995,1,2,3:3:0:0:
256,76,120072,1,0,0:0:0:0:
276,128,120149,1,0,2:3:0:0:
256,180,120226,1,0,2:3:0:0:
104,236,120303,5,10,3:3:0:0:
84,288,120380,1,0,0:0:0:0:
104,340,120457,1,0,2:3:0:0:
156,364,120533,1,0,2:3:0:0:
308,308,120610,2,0,L|310:252,1,56,2|0,3:3|0:0,0:0:0:0:
242,196,120764,2,0,L|240:140,1,56,0|0,1:3|0:0,0:0:0:0:
392,84,120918,1,10,3:3:0:0:
412,136,120995,1,0,0:0:0:0:
392,188,121072,1,0,1:3:0:0:
340,212,121149,1,0,0:0:0:0:
188,268,121226,6,0,L|132:266,1,56,2|0,2:3|2:3,0:0:0:0:
200,208,121380,2,0,L|144:206,1,56,0|0,1:3|2:3,0:0:0:0:
340,148,121533,2,0,L|284:146,1,56,10|0,2:3|2:3,0:0:0:0:
132,88,121687,2,0,L|76:86,1,56,2|2,1:3|2:3,0:0:0:0:
228,28,121841,6,0,P|180:112|116:128,1,168,2|0,3:3|0:0,0:0:0:0:
312,184,122149,6,0,P|376:200|424:284,1,168,6|0,3:3|0:0,0:0:0:0:
320,340,122457,1,2,3:3:0:0:
300,288,122533,1,0,0:0:0:0:
320,236,122610,1,0,2:3:0:0:
372,212,122687,1,0,2:3:0:0:
220,156,122764,6,0,L|164:154,1,56,10|0,3:3|0:0,0:0:0:0:
240,96,122918,2,0,L|296:94,1,56,0|0,2:3|2:3,0:0:0:0:
220,156,123072,2,0,L|164:154,1,56,2|0,3:3|0:0,0:0:0:0:
240,96,123226,2,0,L|296:94,1,56,0|0,1:3|2:3,0:0:0:0:
136,148,123380,1,10,3:3:0:0:
116,96,123457,1,0,0:0:0:0:
136,44,123533,1,2,1:3:0:0:
188,20,123610,1,2,3:3:0:0:
340,76,123687,6,0,L|396:78,1,56,2|2,2:3|2:3,0:0:0:0:
244,136,123841,2,0,L|188:138,1,56,2|2,1:3|2:3,0:0:0:0:
340,196,123995,2,0,L|284:198,1,56,10|2,2:3|2:3,0:0:0:0:
132,256,124149,2,0,L|188:258,1,56,2|2,1:3|2:3,0:0:0:0:
384,316,124303,6,0,P|452:248|384:164,1,224,6|0,2:1|2:3,0:0:0:0:
312,148,124713,2,0,L|384:164,1,74.6666666666667,0|0,2:3|2:3,0:0:0:0:
208,240,124918,2,0,L|196:92,1,149.333333333333,2|0,2:3|0:0,0:0:0:0:
308,168,125226,2,0,L|320:20,1,149.333333333333,2|0,2:3|0:0,0:0:0:0:
144,244,125533,6,0,P|76:176|144:92,1,224,6|0,2:1|2:3,0:0:0:0:
216,76,125944,2,0,L|144:92,1,74.6666666666667,0|0,2:3|2:3,0:0:0:0:
320,20,126149,2,0,P|408:64|420:108,1,149.333333333333,2|0,2:3|0:0,0:0:0:0:
308,184,126457,2,0,P|220:228|208:272,1,149.333333333333,2|0,2:3|0:0,0:0:0:0:
436,348,126764,6,0,L|448:200,1,149.333333333333,6|0,2:3|1:3,0:0:0:0:
272,276,127071,1,10,3:3:0:0:
203,255,127174,2,0,L|172:188,1,74.6666666666667,2|2,3:3|3:3,0:0:0:0:
284,112,127379,2,0,P|372:68|384:24,1,149.333333333333,2|0,2:3|1:3,0:0:0:0:
208,248,127687,6,0,L|196:100,1,149.333333333333,10|0,2:3|1:3,0:0:0:0:
308,176,127994,2,0,L|324:104,2,74.6666666666667,2|2|2,3:3|3:3|3:3,0:0:0:0:
132,252,128302,2,0,L|280:264,1,149.333333333333,10|0,2:3|1:3,0:0:0:0:
104,340,128610,6,0,P|16:296|4:252,1,149.333333333333,2|0,2:3|1:3,0:0:0:0:
180,324,128917,2,0,L|252:308,2,74.6666666666667,10|2|2,3:3|3:3|3:3,0:0:0:0:
68,252,129225,2,0,L|56:104,1,149.333333333333,2|0,2:3|1:3,0:0:0:0:
232,180,129533,6,0,P|320:136|332:92,1,149.333333333333,10|0,2:3|1:3,0:0:0:0:
220,16,129840,2,0,L|148:32,2,74.6666666666667,2|2|2,3:3|3:3|3:3,0:0:0:0:
396,316,130148,2,0,L|408:168,1,149.333333333333,10|2,2:3|3:3,0:0:0:0:
176,92,130456,6,0,P|144:116|176:204,1,149.333333333333,6|0,2:1|1:3,0:0:0:0:
288,280,130764,2,0,L|328:216,2,74.6666666666667,10|0|0,2:3|2:3|1:3,0:0:0:0:
112,356,131071,2,0,L|72:292,2,74.6666666666667,2|0|0,2:3|2:3|1:3,0:0:0:0:
288,280,131379,5,10,2:3:0:0:
344,232,131481,1,0,2:3:0:0:
364,160,131584,1,0,1:3:0:0:
344,88,131687,1,2,2:3:0:0:
288,40,131789,1,2,2:3:0:0:
216,24,131892,1,2,1:3:0:0:
392,248,131994,2,0,L|404:100,1,149.333333333333,10|2,2:3|1:3,0:0:0:0:
368,92,132251,1,2,3:3:0:0:
244,128,132302,6,0,L|172:112,2,74.6666666666667,2|2|2,3:3|2:3|1:3,0:0:0:0:
68,280,132610,1,10,2:3:0:0:
48,208,132712,1,2,2:3:0:0:
68,136,132815,1,2,1:3:0:0:
124,88,132917,1,2,2:3:0:0:
196,72,133020,1,2,2:3:0:0:
124,88,133122,1,2,1:3:0:0:
300,164,133225,6,0,L|448:152,1,149.333333333333,6|0,2:1|0:0,0:0:0:0:
224,228,133533,2,0,L|212:80,1,149.333333333333,6|0,2:1|0:0,0:0:0:0:
488,212,133840,2,0,L|340:200,1,149.333333333333,6|0,2:1|0:0,0:0:0:0:
112,348,134148,5,6,2:3:0:0:
112,348,134455,2,0,B|112:124|112:124|112:276,1,373.333333333333,2|0,2:3|0:0,0:0:0:0:
168,224,135071,1,0,0:0:0:0:
188,152,135174,1,0,2:3:0:0:
168,80,135276,1,0,0:0:0:0:
112,32,135378,1,0,2:3:0:0:
40,16,135481,1,0,2:3:0:0:
152,92,135583,6,0,L|224:108,1,74.6666666666667,0|0,2:3|2:3,0:0:0:0:
152,184,135789,2,0,L|224:200,1,74.6666666666667,0|0,2:3|2:3,0:0:0:0:
336,352,135994,1,0,2:3:0:0:
364,288,136096,1,0,2:3:0:0:
336,224,136199,1,0,2:3:0:0:
264,200,136301,1,0,2:3:0:0:
236,136,136404,1,0,2:3:0:0:
264,72,136506,1,0,2:3:0:0:
440,352,136609,6,0,L|440:128,1,224,0|0,2:3|2:3,0:0:0:0:
424,76,136993,1,0,2:3:0:0:
380,40,137070,1,0,2:3:0:0:
327,28,137147,1,0,2:3:0:0:
224,84,137224,1,0,2:3:0:0:
180,120,137301,1,0,2:3:0:0:
164,172,137378,1,0,2:3:0:0:
180,224,137455,1,0,2:3:0:0:
224,260,137532,5,0,2:3:0:0:
276,272,137609,1,0,2:3:0:0:
224,328,137685,1,0,2:3:0:0:
276,316,137762,1,0,2:3:0:0:
320,280,137839,1,0,2:3:0:0:
336,228,137916,1,0,2:3:0:0:
320,176,137993,1,0,2:3:0:0:
276,140,138070,1,0,2:3:0:0:
172,84,138147,6,0,L|172:252,1,168,2|0,3:3|0:0,0:0:0:0:
428,308,138455,5,6,3:3:0:0:
256,192,138609,12,0,143993,0:0:0:0:
