osu file format v14

[General]
AudioFilename: audio.mp3
AudioLeadIn: 0
PreviewTime: 76927
Countdown: 0
SampleSet: Soft
StackLeniency: 0.7
Mode: 0
LetterboxInBreaks: 0
WidescreenStoryboard: 0

[Editor]
Bookmarks: 589,10285,13316,15134,15437,21195,22407,22710,24831,28467,29679,30134,32104,34528,41801,43013,44528,51195,51498,53922,58770,61195,63619,63922,68467,73619,78164,78467,78770,87861,88164,97558,107255,110285,111498,112407,114528
DistanceSpacing: 0.9
BeatDivisor: 4
GridSize: 4
TimelineZoom: 3.499999

[Metadata]
Title:Enigma
TitleUnicode:Enigma
Artist:Toromaru
ArtistUnicode:とろまる
Creator:Namo
Version:VOLTEX
Source:SOUND VOLTEX III GRAVITY WARS
Tags:SOUND VOLTEX III SDVX III Game Piano コナミ KONAMI
BeatmapID:992815
BeatmapSetID:463649

[Difficulty]
HPDrainRate:6
CircleSize:4.2
OverallDifficulty:8
ApproachRate:9.5
SliderMultiplier:1.7
SliderTickRate:1

[Events]
//Background and Video events
0,0,"image.jpg",0,0
//Break Periods
//Storyboard Layer 0 (Background)
//Storyboard Layer 1 (Fail)
//Storyboard Layer 2 (Pass)
//Storyboard Layer 3 (Foreground)
//Storyboard Sound Samples

[TimingPoints]
589,303.030303030303,4,2,1,70,1,0
2558,-133.333333333333,4,2,1,70,0,0
3013,-100,4,2,1,70,0,0
4831,-76.9230769230769,4,2,1,70,0,0
5437,-100,4,2,1,70,0,0
7407,-66.6666666666667,4,2,1,70,0,0
7861,-100,4,2,1,70,0,0
9679,-57.1428571428571,4,2,1,70,0,0
10285,-100,4,2,1,70,0,0
14225,-100,4,2,1,70,0,0
14528,-76.9230769230769,4,2,1,70,0,0
14831,-66.6666666666667,4,2,1,70,0,0
15134,-200,4,2,1,70,0,0
15437,-76.9230769230769,4,2,1,70,0,0
17558,-50,4,2,1,70,0,0
17861,-76.9230769230769,4,2,1,70,0,0
19982,-200,4,2,1,50,0,0
20285,-100,4,2,1,70,0,0
22407,-66.6666666666667,4,2,1,70,0,0
22710,-133.333333333333,4,2,1,70,0,0
23619,-100,4,2,1,70,0,0
24831,-100,4,2,1,65,0,0
28467,-100,4,2,1,70,0,0
28770,-76.9230769230769,4,2,1,70,0,0
29073,-66.6666666666667,4,2,1,70,0,0
29376,-57.1428571428571,4,2,1,70,0,0
29679,-100,4,2,1,65,0,0
32104,-200,4,2,1,70,0,0
32710,-100,4,2,1,70,0,0
33316,-76.9230769230769,4,2,1,70,0,0
33922,-66.6666666666667,4,2,1,70,0,0
34528,-100,4,2,1,70,0,0
36952,-76.9230769230769,4,2,1,70,0,0
39376,-66.6666666666667,4,2,1,70,0,0
41801,-100,4,1,1,70,0,0
43013,-100,4,2,1,70,0,0
46346,-200,4,2,1,70,0,0
46649,-100,4,2,1,70,0,0
46952,-100,4,2,1,70,0,0
49073,-76.9230769230769,4,2,1,70,0,0
49376,-100,4,2,1,70,0,0
50285,-76.9230769230769,4,2,1,70,0,0
51195,-200,4,2,1,70,0,0
51498,-100,4,1,1,70,0,0
52710,-76.9230769230769,4,1,1,70,0,0
54225,-133.333333333333,4,2,1,30,0,0
57861,-133.333333333333,4,2,1,40,0,0
58770,-100,4,2,1,70,0,0
63013,-100,4,2,1,70,0,0
63619,-133.333333333333,4,2,1,70,0,0
67255,-100,4,2,1,70,0,0
68770,-200,4,2,1,70,0,0
69376,-100,4,2,1,70,0,0
69982,-200,4,2,1,70,0,0
70588,-133.333333333333,4,2,1,70,0,0
70892,-200,4,2,1,70,0,0
71801,-100,4,2,1,70,0,0
73316,-200,4,2,1,70,0,0
74831,-133.333333333333,4,2,1,70,0,0
75134,-100,4,2,1,70,0,0
75437,-76.9230769230769,4,2,1,70,0,0
75740,-76.9230769230769,4,1,1,70,0,0
76043,-100,4,1,1,70,0,0
76346,-133.333333333333,4,1,1,70,0,0
76649,-200,4,1,1,70,0,0
76952,-100,4,1,1,70,0,0
78164,-200,4,2,1,50,0,0
78467,-100,4,2,1,70,0,0
78770,-100,4,2,1,75,0,1
79528,-133.333333333333,4,2,1,75,0,1
80588,-133.333333333333,4,1,1,75,0,1
80892,-133.333333333333,4,2,1,75,0,1
81043,-100,4,2,1,75,0,1
83013,-100,4,2,1,80,0,1
83164,-100,4,2,1,75,0,1
83619,-66.6666666666667,4,2,1,75,0,1
84225,-100,4,2,1,75,0,1
85437,-100,4,1,1,80,0,1
85513,-100,4,2,1,75,0,1
86649,-76.9230769230769,4,2,1,75,0,1
87861,-200,4,2,1,5,0,0
88164,-133.333333333333,4,2,1,75,0,1
89073,-100,4,2,1,75,0,1
90285,-100,4,1,1,75,0,1
90361,-100,4,2,1,75,0,1
90588,-133.333333333333,4,2,1,75,0,1
90892,-100,4,2,1,75,0,1
91195,-133.333333333333,4,2,1,75,0,1
91498,-100,4,2,1,75,0,1
95134,-100,4,1,1,75,0,1
95285,-100,4,2,1,75,0,1
97255,-133.333333333333,4,2,1,75,0,1
97558,-100,4,1,1,70,0,0
97861,-100,4,2,1,70,0,0
99528,-133.333333333333,4,2,1,70,0,0
99982,-100,4,2,1,70,0,0
101801,-76.9230769230769,4,2,1,70,0,0
102407,-100,4,2,1,70,0,0
103619,-100,4,1,1,70,0,0
104301,-100,4,2,1,70,0,0
106649,-57.1428571428571,4,2,1,70,0,0
107255,-100,4,2,1,70,0,0
109982,-100,4,1,1,70,0,0
110058,-100,4,2,1,70,0,0
110285,-133.333333333333,4,2,1,70,0,0
110892,-100,4,2,1,77,0,0
111498,-83.3333333333333,4,2,1,85,0,0
112407,-100,4,2,1,30,0,0

[Colours]
Combo1 : 171,46,131
Combo2 : 9,3,222
Combo3 : 53,97,136
Combo4 : 106,32,174
Combo5 : 141,133,197
Combo6 : 153,15,15
Combo7 : 156,73,18

[HitObjects]
92,284,589,6,0,L|176:136,1,170,4|0,0:0|0:0,0:0:0:0:
244,24,1043,1,4,0:0:0:0:
412,152,1346,1,0,0:0:0:0:
290,205,1498,1,0,0:0:0:0:
360,316,1649,1,0,0:0:0:0:
180,275,1801,5,0,0:0:0:0:
146,292,1876,1,0,0:0:0:0:
107,293,1952,1,0,0:0:0:0:
76,270,2028,1,0,0:0:0:0:
65,233,2104,5,0,0:0:0:0:
98,214,2179,1,0,0:0:0:0:
127,189,2255,1,0,0:0:0:0:
137,152,2331,1,0,0:0:0:0:
126,115,2407,1,0,0:0:0:0:
102,85,2482,1,0,0:0:0:0:
65,77,2558,2,8,B|127:77|127:77|160:100|160:100|188:100,1,127.500004863739
408,84,3013,6,0,L|336:240,1,170,4|0,0:0|0:0,0:0:0:0:
276,352,3467,1,4,0:0:0:0:
216,148,3770,1,0,0:0:0:0:
163,29,3922,1,0,0:0:0:0:
56,112,4073,1,0,0:0:0:0:
100,260,4225,53,0,0:0:0:0:
131,281,4301,1,0,0:0:0:0:
167,291,4376,1,8,0:0:0:0:
205,286,4452,1,0,0:0:0:0:
238,267,4528,5,0,0:0:0:0:
225,230,4604,1,0,0:0:0:0:
216,193,4679,1,8,0:0:0:0:
221,155,4755,1,0,0:0:0:0:
240,122,4831,2,0,L|272:168,1,55.2499974708558
356,296,4982,2,8,L|340:232,1,55.2499974708558
304,88,5134,2,0,L|296:144,1,55.2499974708558
280,312,5285,2,0,L|300:260,1,55.2499974708558,8|0,0:0|0:0,0:0:0:0:
360,100,5437,6,0,B|320:84|320:84|276:76,1,85,4|0,0:0|0:0,0:0:0:0:
72,100,5740,2,0,B|112:84|112:84|156:76,1,85,0|4,0:0|0:0,0:0:0:0:
56,200,6043,1,0,0:0:0:0:
268,280,6195,1,0,0:0:0:0:
32,276,6346,1,0,0:0:0:0:
244,228,6498,5,0,0:0:0:0:
244,228,6573,1,0,0:0:0:0:
244,228,6649,2,0,L|288:216,3,42.5
372,80,6952,2,0,L|328:72,3,42.5
160,20,7255,1,0,0:0:0:0:
160,20,7331,1,0,0:0:0:0:
160,20,7407,2,8,B|152:84|152:84|128:144,1,127.500004863739,8|0,0:0|0:0,0:0:0:0:
40,332,7710,1,8,0:0:0:0:
176,297,7861,54,0,B|220:308|220:308|264:308,1,85,4|0,0:0|0:0,0:0:0:0:
424,184,8164,2,0,B|380:184|380:184|340:192,1,85,0|4,0:0|0:0,0:0:0:0:
136,208,8467,1,0,0:0:0:0:
12,108,8619,1,0,0:0:0:0:
272,128,8770,1,0,0:0:0:0:
132,280,8922,5,0,0:0:0:0:
132,280,8998,1,0,0:0:0:0:
132,280,9073,2,0,L|172:296,3,42.5,0|0|8|0,0:0|0:0|0:0|0:0,0:0:0:0:
320,256,9376,2,0,L|360:244,3,42.5,0|0|8|0,0:0|0:0|0:0|0:0,0:0:0:0:
424,120,9679,6,0,B|387:116|387:116|348:120,1,74.3750007092953
148,184,9831,2,8,B|185:188|185:188|224:184,1,74.3750007092953
439,100,9982,2,0,B|403:100|403:100|366:106,1,74.3750007092953
132,208,10134,2,0,B|168:208|168:208|205:202,1,74.3750007092953,8|0,0:0|0:0,0:0:0:0:
404,184,10285,5,4,0:0:0:0:
240,320,10437,1,0,0:0:0:0:
420,252,10589,1,0,0:0:0:0:
252,204,10740,53,4,0:0:0:0:
36,232,10892,1,0,0:0:0:0:
216,268,11043,1,0,0:0:0:0:
268,80,11195,5,4,0:0:0:0:
120,244,11346,1,0,0:0:0:0:
292,152,11498,1,0,0:0:0:0:
144,40,11649,5,4,0:0:0:0:
56,232,11801,1,0,0:0:0:0:
180,100,11952,1,0,0:0:0:0:
224,256,12104,1,4,0:0:0:0:
388,256,12255,1,0,0:0:0:0:
364,128,12407,1,0,0:0:0:0:
332,107,12482,1,0,0:0:0:0:
295,94,12558,1,0,0:0:0:0:
256,95,12634,1,0,0:0:0:0:
220,110,12710,6,0,P|232:176|224:236,1,127.5
220,248,13013,1,2,0:0:0:0:
44,236,13164,1,0,0:0:0:0:
152,96,13316,1,0,0:0:0:0:
180,121,13392,1,0,0:0:0:0:
214,136,13467,1,0,0:0:0:0:
252,135,13543,1,0,0:0:0:0:
287,120,13619,1,0,0:0:0:0:
315,93,13695,1,0,0:0:0:0:
332,59,13770,53,0,0:0:0:0:
365,77,13846,1,0,0:0:0:0:
383,110,13922,1,0,0:0:0:0:
392,147,13998,1,0,0:0:0:0:
393,184,14073,1,0,0:0:0:0:
386,221,14149,1,0,0:0:0:0:
364,253,14225,2,0,L|332:284,1,42.5
208,256,14376,2,0,L|240:287,1,42.5
96,148,14528,6,0,L|128:100,1,55.2499974708558
296,148,14679,2,0,L|264:100,1,55.2499974708558
440,228,14831,6,0,L|376:248,1,63.7500024318696
180,228,14982,2,0,L|244:248,1,63.7500024318696
80,332,15134,70,0,P|85:300|80:268,1,63.75,4|0,0:0|0:0,0:0:0:0:
80,252,15437,1,8,0:0:0:0:
132,96,15588,1,0,0:0:0:0:
216,236,15740,2,0,B|248:192|248:192|296:160,1,110.499994941712
416,112,16043,1,8,0:0:0:0:
320,284,16195,1,0,0:0:0:0:
448,248,16346,5,0,0:0:0:0:
410,193,16447,1,0,0:0:0:0:
352,160,16548,1,0,0:0:0:0:
308,220,16649,5,8,0:0:0:0:
247,192,16750,1,0,0:0:0:0:
210,136,16851,1,0,0:0:0:0:
136,128,16952,5,0,0:0:0:0:
97,181,17053,1,0,0:0:0:0:
86,246,17154,1,0,0:0:0:0:
156,264,17255,53,8,0:0:0:0:
214,296,17356,1,0,0:0:0:0:
280,300,17457,1,0,0:0:0:0:
320,238,17558,2,0,B|320:192|320:192|328:164|328:164|320:144|320:120|320:120|328:88|328:88|320:68,1,170,6|0,0:0|0:0,0:0:0:0:
72,120,17861,5,8,0:0:0:0:
104,324,18013,1,0,0:0:0:0:
144,156,18164,1,0,0:0:0:0:
240,316,18316,1,0,0:0:0:0:
216,152,18467,1,8,0:0:0:0:
368,240,18619,1,0,0:0:0:0:
408,88,18770,5,0,0:0:0:0:
408,88,18871,2,0,L|332:72,1,73.6666632944744
272,192,19073,1,0,0:0:0:0:
272,192,19174,2,0,L|192:192,1,73.6666632944744
144,312,19376,1,0,0:0:0:0:
144,312,19477,2,0,L|64:332,1,73.6666632944744
276,324,19679,1,0,0:0:0:0:
336,328,19780,1,0,0:0:0:0:
380,288,19881,1,0,0:0:0:0:
384,228,19982,6,0,L|384:156,1,63.75
384,152,20285,1,6,0:0:0:0:
184,140,20437,1,0,0:0:0:0:
400,112,20589,1,0,0:0:0:0:
184,180,20740,2,0,B|152:208|152:208|128:244,2,85,0|8|0,0:0|0:0|0:0,0:0:0:0:
124,72,21195,54,0,P|112:48|92:24,2,56.6666666666667
136,236,21498,2,0,P|128:264|126:291,2,56.6666666666667,8|0|0,0:0|0:0|0:0,0:0:0:0:
232,96,21801,2,0,P|252:84|286:72,2,56.6666666666667
52,172,22104,2,0,P|28:184|-4:192,2,56.6666666666667,8|0|0,0:0|0:0|0:0,0:0:0:0:
296,192,22407,6,0,P|376:200|339:136,1,191.250007295609,2|0,0:0|0:0,0:0:0:0:
260,96,22710,1,8,0:0:0:0:
232,88,22785,1,0,0:0:0:0:
203,86,22861,1,0,0:0:0:0:
174,91,22937,1,0,0:0:0:0:
148,104,23013,5,0,0:0:0:0:
126,123,23088,1,0,0:0:0:0:
112,148,23164,1,0,0:0:0:0:
107,176,23240,1,0,0:0:0:0:
110,204,23316,5,8,0:0:0:0:
121,230,23392,1,0,0:0:0:0:
141,250,23467,1,0,0:0:0:0:
165,264,23543,1,0,0:0:0:0:
192,271,23619,1,0,0:0:0:0:
248,284,23720,54,0,B|276:288|276:288|304:276,1,56.6666666666667
432,168,23922,1,0,0:0:0:0:
400,120,24023,2,0,B|384:96|384:96|356:80,1,56.6666666666667
184,56,24225,1,0,0:0:0:0:
132,80,24326,2,0,B|104:92|104:92|88:116,1,56.6666666666667
108,280,24528,1,0,0:0:0:0:
160,304,24629,2,0,B|186:311|186:311|216:304,1,56.6666666666667
288,164,24831,5,4,0:0:0:0:
380,288,24982,1,0,0:0:0:0:
412,136,25134,2,0,P|388:92|368:64,1,85,8|0,0:0|0:0,0:0:0:0:
228,184,25437,1,0,0:0:0:0:
124,68,25588,1,0,0:0:0:0:
112,228,25740,2,0,P|144:264|164:296,1,85,8|0,0:0|0:0,0:0:0:0:
280,280,26043,5,0,0:0:0:0:
456,200,26195,1,0,0:0:0:0:
288,304,26346,1,8,0:0:0:0:
444,180,26498,2,0,L|444:8,1,170
328,80,26952,2,0,B|284:80|284:80|244:76,1,85,8|0,0:0|0:0,0:0:0:0:
16,184,27255,6,0,L|188:184,1,170,0|8,0:0|0:0,0:0:0:0:
368,232,27710,2,0,L|192:232,1,170
116,80,28164,1,8,0:0:0:0:
116,80,28240,1,0,0:0:0:0:
116,80,28316,1,0,0:0:0:0:
116,80,28392,1,0,0:0:0:0:
116,80,28467,2,0,L|112:124,3,42.5
120,296,28770,2,0,L|172:276,3,55.2499974708558
284,128,29073,2,0,L|324:180,3,63.7500024318696
368,344,29376,2,0,L|292:344,3,74.3750007092953
112,320,29679,54,0,L|112:144,1,170,6|8,0:0|0:0,0:0:0:0:
216,76,30134,5,0,0:0:0:0:
336,56,30285,1,0,0:0:0:0:
424,128,30437,1,0,0:0:0:0:
228,152,30588,5,8,0:0:0:0:
352,216,30740,1,0,0:0:0:0:
392,344,30892,1,0,0:0:0:0:
240,248,31043,6,0,B|188:252|188:252|124:224|124:224|72:228,1,170
112,80,31498,2,0,P|148:100|184:132,1,85
344,188,31801,1,8,0:0:0:0:
288,52,31952,1,0,0:0:0:0:
164,136,32104,53,0,0:0:0:0:
147,145,32179,1,0,0:0:0:0:
133,158,32255,1,0,0:0:0:0:
123,174,32331,1,0,0:0:0:0:
119,192,32407,1,8,0:0:0:0:
120,210,32482,1,0,0:0:0:0:
126,228,32558,1,0,0:0:0:0:
136,244,32634,1,0,0:0:0:0:
151,255,32710,5,0,0:0:0:0:
174,225,32785,1,0,0:0:0:0:
205,203,32861,1,0,0:0:0:0:
240,188,32937,1,0,0:0:0:0:
277,181,33013,1,8,0:0:0:0:
314,183,33089,1,0,0:0:0:0:
350,195,33164,1,0,0:0:0:0:
382,214,33240,1,0,0:0:0:0:
409,240,33316,6,0,L|356:253,1,55.2499974708558
212,288,33467,2,0,L|260:260,1,55.2499974708558
420,180,33619,6,0,L|372:148,1,55.2499974708558,8|0,0:0|0:0,0:0:0:0:
256,60,33770,2,0,L|280:112,1,55.2499974708558
348,264,33922,54,8,L|284:252,1,63.7500024318696,8|0,0:0|0:0,0:0:0:0:
136,220,34073,2,0,L|200:208,1,63.7500024318696
392,168,34225,6,8,L|344:120,1,63.7500024318696,8|0,0:0|0:0,0:0:0:0:
236,4,34376,2,8,L|244:68,1,63.7500024318696
260,236,34528,5,6,0:0:0:0:
116,296,34679,1,0,0:0:0:0:
124,140,34831,1,8,0:0:0:0:
272,116,34982,1,0,0:0:0:0:
280,116,35058,1,0,0:0:0:0:
288,116,35134,1,0,0:0:0:0:
416,196,35285,1,0,0:0:0:0:
336,296,35437,5,8,0:0:0:0:
332,300,35513,1,0,0:0:0:0:
328,304,35589,1,0,0:0:0:0:
324,308,35664,1,0,0:0:0:0:
320,312,35740,2,0,L|332:228,1,85
240,108,36043,1,8,0:0:0:0:
236,104,36119,1,0,0:0:0:0:
232,100,36195,1,0,0:0:0:0:
228,96,36270,1,0,0:0:0:0:
224,92,36346,1,0,0:0:0:0:
360,40,36498,1,0,0:0:0:0:
344,176,36649,1,8,0:0:0:0:
136,176,36801,1,0,0:0:0:0:
188,296,36952,54,0,L|280:236,1,110.499994941712,2|0,0:0|0:0,0:0:0:0:
440,188,37255,1,8,0:0:0:0:
356,56,37407,1,0,0:0:0:0:
352,52,37482,1,0,0:0:0:0:
348,48,37558,2,0,L|316:156,1,110.499994941712
172,248,37861,1,8,0:0:0:0:
168,248,37937,1,0,0:0:0:0:
164,248,38013,1,0,0:0:0:0:
160,248,38089,1,0,0:0:0:0:
156,248,38164,1,0,0:0:0:0:
96,92,38316,5,0,0:0:0:0:
248,136,38467,1,8,0:0:0:0:
252,140,38543,1,0,0:0:0:0:
256,144,38619,1,0,0:0:0:0:
260,148,38695,1,0,0:0:0:0:
264,152,38770,1,0,0:0:0:0:
444,224,38922,1,0,0:0:0:0:
200,208,39073,1,8,0:0:0:0:
432,128,39225,1,0,0:0:0:0:
440,124,39301,1,0,0:0:0:0:
448,120,39376,2,0,L|348:36,1,127.500004863739,4|0,0:0|0:0,0:0:0:0:
348,184,39679,5,8,0:0:0:0:
196,92,39831,1,0,0:0:0:0:
188,88,39907,1,0,0:0:0:0:
180,84,39982,1,0,0:0:0:0:
48,248,40134,1,0,0:0:0:0:
240,160,40285,1,8,0:0:0:0:
244,168,40361,1,0,0:0:0:0:
248,176,40437,1,0,0:0:0:0:
252,184,40513,1,0,0:0:0:0:
256,192,40589,2,0,L|356:272,1,127.500004863739
192,300,40892,5,8,0:0:0:0:
184,300,40967,1,0,0:0:0:0:
176,300,41043,1,0,0:0:0:0:
168,300,41119,1,0,0:0:0:0:
160,300,41195,1,0,0:0:0:0:
88,124,41346,1,0,0:0:0:0:
268,52,41498,1,8,0:0:0:0:
212,220,41649,1,0,0:0:0:0:
376,312,41801,53,8,0:0:0:0:
368,252,41902,1,0,0:0:0:0:
360,192,42003,1,0,0:0:0:0:
404,148,42104,5,8,0:0:0:0:
344,128,42205,1,0,0:0:0:0:
284,104,42306,1,0,0:0:0:0:
260,48,42407,5,8,0:0:0:0:
220,96,42508,1,0,0:0:0:0:
184,144,42609,1,0,0:0:0:0:
120,148,42710,5,8,0:0:0:0:
152,200,42811,1,0,0:0:0:0:
184,252,42912,1,0,0:0:0:0:
172,312,43013,54,0,L|220:304,3,42.5
396,224,43316,2,0,L|352:216,3,42.5
168,160,43619,2,0,L|208:144,3,42.5
356,36,43922,2,0,L|364:80,3,42.5
368,92,44225,5,6,0:0:0:0:
388,236,44376,1,0,0:0:0:0:
284,100,44528,1,8,0:0:0:0:
248,84,44604,1,0,0:0:0:0:
210,80,44679,1,0,0:0:0:0:
173,91,44755,1,0,0:0:0:0:
144,116,44831,5,0,0:0:0:0:
129,151,44907,1,0,0:0:0:0:
134,188,44982,1,0,0:0:0:0:
154,220,45058,1,0,0:0:0:0:
187,237,45134,5,8,0:0:0:0:
225,235,45210,1,0,0:0:0:0:
257,216,45285,1,0,0:0:0:0:
280,185,45361,1,0,0:0:0:0:
284,146,45437,54,0,L|283:104,1,42.5
360,176,45588,2,0,L|360:220,1,42.5
288,304,45740,6,0,L|288:352,1,42.5,8|0,0:0|0:0,0:0:0:0:
212,280,45892,2,0,L|212:232,1,42.5
152,92,46043,6,0,L|152:48,1,42.5
72,116,46195,2,0,L|72:164,1,42.5
108,276,46346,2,0,L|172:276,1,63.75,8|0,0:0|0:0,0:0:0:0:
188,276,46649,5,2,0:0:0:0:
340,336,46801,1,0,0:0:0:0:
396,192,46952,1,8,0:0:0:0:
382,151,47028,1,0,0:0:0:0:
354,118,47104,1,0,0:0:0:0:
317,97,47179,1,0,0:0:0:0:
276,85,47255,53,0,0:0:0:0:
233,84,47331,1,0,0:0:0:0:
192,94,47407,1,0,0:0:0:0:
161,122,47482,1,0,0:0:0:0:
141,159,47558,5,8,0:0:0:0:
183,155,47634,1,0,0:0:0:0:
223,167,47710,1,0,0:0:0:0:
257,189,47785,1,0,0:0:0:0:
280,224,47861,86,0,L|296:268,1,42.5
388,316,48013,2,0,L|372:272,1,42.5
312,88,48164,6,0,L|324:128,1,42.5,8|0,0:0|0:0,0:0:0:0:
420,184,48316,2,0,L|408:144,1,42.5
224,88,48467,5,0,0:0:0:0:
224,268,48619,1,0,0:0:0:0:
208,68,48770,1,0,0:0:0:0:
236,288,48922,1,0,0:0:0:0:
240,292,48998,1,0,0:0:0:0:
244,296,49073,6,0,L|360:296,1,110.499994941712,4|0,0:0|0:0,0:0:0:0:
428,148,49376,1,8,0:0:0:0:
397,171,49452,1,0,0:0:0:0:
360,182,49528,1,0,0:0:0:0:
321,178,49604,1,0,0:0:0:0:
288,158,49679,53,0,0:0:0:0:
259,132,49755,1,0,0:0:0:0:
222,121,49831,1,0,0:0:0:0:
183,122,49907,1,0,0:0:0:0:
146,132,49982,5,8,0:0:0:0:
115,154,50058,1,0,0:0:0:0:
98,188,50134,1,0,0:0:0:0:
101,226,50210,1,0,0:0:0:0:
125,255,50285,86,0,L|181:255,1,55.2499974708558
328,254,50437,2,0,L|272:244,1,55.2499974708558
152,216,50588,2,0,L|204:244,1,55.2499974708558,8|0,0:0|0:0,0:0:0:0:
320,296,50740,2,0,L|276:264,1,55.2499974708558
192,200,50892,2,0,L|232:256,1,55.2499974708558
292,328,51043,2,0,L|260:276,1,55.2499974708558
192,136,51195,2,0,L|192:56,1,63.75,8|0,0:0|0:0,0:0:0:0:
192,56,51498,5,8,0:0:0:0:
248,36,51599,2,0,L|288:80,1,56.6666666666667
368,228,51801,1,8,0:0:0:0:
348,284,51902,2,0,L|288:280,1,56.6666666666667
132,196,52104,1,8,0:0:0:0:
180,232,52205,2,0,L|228:192,1,56.6666666666667
244,40,52407,1,8,0:0:0:0:
208,88,52508,2,0,L|252:124,1,56.6666666666667
396,208,52710,6,0,L|356:256,3,55.2499974708558
216,244,53013,2,0,L|160:228,3,55.2499974708558
220,60,53316,2,0,L|264:96,3,55.2499974708558
72,124,53619,2,0,L|56:176,3,55.2499974708558
160,312,53922,1,4,0:0:0:0:
436,288,56043,6,0,P|376:280|308:288,1,127.500004863739
96,164,56952,2,0,B|160:176|224:160|224:160|252:104|248:36,1,255.000009727478
412,172,58013,53,0,0:0:0:0:
412,176,58088,1,0,0:0:0:0:
412,180,58164,2,8,L|412:204,3,21.2500008106232
352,296,58467,1,8,0:0:0:0:
236,296,58619,1,8,0:0:0:0:
120,296,58770,6,0,L|72:224,1,85,4|0,0:0|0:0,0:0:0:0:
112,80,59073,2,0,L|112:128,3,42.5
196,188,59376,2,0,L|196:236,3,42.5,8|0|0|0,0:0|0:0|0:0|0:0,0:0:0:0:
280,272,59679,2,0,L|280:320,3,42.5
352,348,59982,5,0,0:0:0:0:
444,176,60285,2,0,L|400:176,3,42.5
336,80,60588,2,0,L|288:80,3,42.5,8|0|0|0,0:0|0:0|0:0|0:0,0:0:0:0:
240,164,60892,2,0,L|188:164,3,42.5
152,100,61195,5,2,0:0:0:0:
152,208,61346,1,0,0:0:0:0:
152,316,61498,1,8,0:0:0:0:
16,208,61649,53,0,0:0:0:0:
152,208,61801,1,0,0:0:0:0:
288,208,61952,1,8,0:0:0:0:
220,84,62104,5,0,0:0:0:0:
363,83,62255,1,0,0:0:0:0:
368,88,62331,1,0,0:0:0:0:
372,92,62407,1,8,0:0:0:0:
440,208,62558,86,0,B|408:200|408:200|392:216|392:216|360:208,2,85,0|0|8,0:0|0:0|0:0,0:0:0:0:
296,268,63013,1,0,0:0:0:0:
196,188,63164,1,0,0:0:0:0:
140,300,63316,1,0,0:0:0:0:
244,380,63467,1,0,0:0:0:0:
436,312,63619,6,0,L|392:192,1,127.500004863739,6|8,0:0|0:0,0:0:0:0:
368,124,63998,1,0,0:0:0:0:
349,102,64073,1,0,0:0:0:0:
325,85,64149,1,0,0:0:0:0:
298,72,64225,1,0,0:0:0:0:
270,62,64301,1,0,0:0:0:0:
242,57,64376,1,0,0:0:0:0:
213,57,64452,1,0,0:0:0:0:
184,63,64528,2,0,L|184:192,1,127.500004863739,8|0,0:0|0:0,0:0:0:0:
188,264,64907,5,0,0:0:0:0:
159,262,64982,1,0,0:0:0:0:
131,252,65058,1,0,0:0:0:0:
116,227,65134,1,8,0:0:0:0:
110,198,65210,1,0,0:0:0:0:
112,169,65285,1,0,0:0:0:0:
128,145,65361,1,0,0:0:0:0:
152,130,65437,5,0,0:0:0:0:
180,128,65513,1,0,0:0:0:0:
206,137,65589,1,0,0:0:0:0:
227,156,65664,1,0,0:0:0:0:
242,180,65740,1,8,0:0:0:0:
266,195,65816,1,0,0:0:0:0:
293,202,65892,1,0,0:0:0:0:
321,201,65967,1,0,0:0:0:0:
348,192,66043,2,0,L|348:57,1,127.500004863739,4|8,0:0|0:0,0:0:0:0:
412,28,66422,53,0,0:0:0:0:
432,47,66498,1,0,0:0:0:0:
443,72,66573,1,0,0:0:0:0:
447,100,66649,1,0,0:0:0:0:
444,128,66725,1,0,0:0:0:0:
434,155,66801,1,0,0:0:0:0:
416,177,66876,1,0,0:0:0:0:
392,193,66952,1,8,0:0:0:0:
364,201,67028,1,0,0:0:0:0:
335,200,67104,1,0,0:0:0:0:
307,195,67179,1,0,0:0:0:0:
282,183,67255,6,0,L|240:152,3,42.5
92,152,67558,2,0,L|116:112,3,42.5,8|0|0|0,0:0|0:0|0:0|0:0,0:0:0:0:
116,296,67861,2,0,L|156:276,3,42.5,8|0|0|0,0:0|0:0|0:0|0:0,0:0:0:0:
252,144,68164,2,0,L|272:184,3,42.5,8|0|0|0,0:0|0:0|0:0|0:0,0:0:0:0:
284,328,68467,5,4,0:0:0:0:
464,296,68619,1,4,0:0:0:0:
260,312,68770,2,0,L|172:312,1,85,4|0,0:0|0:0,0:0:0:0:
164,304,69149,1,0,0:0:0:0:
148,296,69225,1,0,0:0:0:0:
136,288,69301,1,0,0:0:0:0:
124,280,69376,2,0,L|124:192,1,85,8|0,0:0|0:0,0:0:0:0:
272,160,69679,5,4,0:0:0:0:
96,112,69831,1,4,0:0:0:0:
300,148,69982,2,0,L|388:148,1,85,12|0,0:0|0:0,0:0:0:0:
398,161,70361,1,0,0:0:0:0:
411,174,70437,1,0,0:0:0:0:
424,188,70513,1,0,0:0:0:0:
436,201,70589,1,8,0:0:0:0:
414,220,70664,1,0,0:0:0:0:
392,239,70740,1,0,0:0:0:0:
371,258,70816,1,0,0:0:0:0:
344,280,70892,53,6,0:0:0:0:
184,216,71043,1,4,0:0:0:0:
380,284,71195,2,0,L|400:196,1,85,12|0,0:0|0:0,0:0:0:0:
383,190,71573,1,0,0:0:0:0:
366,179,71649,1,0,0:0:0:0:
349,168,71725,1,0,0:0:0:0:
332,156,71801,2,0,L|332:60,1,85,8|0,0:0|0:0,0:0:0:0:
100,104,72104,5,4,0:0:0:0:
320,52,72255,1,4,0:0:0:0:
92,84,72407,1,12,0:0:0:0:
232,216,72558,1,0,0:0:0:0:
236,208,72634,1,0,0:0:0:0:
240,200,72710,1,4,0:0:0:0:
60,292,72861,1,4,0:0:0:0:
240,180,73013,1,12,0:0:0:0:
360,284,73164,5,0,0:0:0:0:
364,276,73240,1,0,0:0:0:0:
368,268,73316,2,0,L|368:180,1,85,4|8,0:0|0:0,0:0:0:0:
366,163,73695,1,0,0:0:0:0:
357,146,73770,1,0,0:0:0:0:
344,131,73846,1,0,0:0:0:0:
328,119,73922,5,0,0:0:0:0:
311,109,73998,1,0,0:0:0:0:
293,102,74073,1,8,0:0:0:0:
274,98,74149,1,0,0:0:0:0:
254,99,74225,1,0,0:0:0:0:
235,104,74301,1,0,0:0:0:0:
218,112,74376,1,0,0:0:0:0:
204,125,74452,1,0,0:0:0:0:
192,140,74528,54,0,L|216:140,1,21.25,8|0,0:0|0:0,0:0:0:0:
184,212,74679,2,0,L|162:212,1,21.25
240,280,74831,6,0,L|272:280,1,31.8750012159348
236,352,74982,2,0,L|204:352,1,31.8750012159348,8|0,0:0|0:0,0:0:0:0:
364,292,75134,6,0,L|408:292,1,42.5
360,220,75285,2,0,L|317:220,1,42.5,8|0,0:0|0:0,0:0:0:0:
280,148,75437,6,0,L|336:148,1,55.2499974708558
276,72,75588,2,0,L|220:72,1,55.2499974708558,8|0,0:0|0:0,0:0:0:0:
440,40,75740,54,0,L|480:84,3,55.2499974708558,6|0|0|0,0:0|0:0|0:0|0:0,0:0:0:0:
432,208,76043,2,0,L|384:224,3,42.5,2|0|0|0,0:0|0:0|0:0|0:0,0:0:0:0:
280,160,76346,2,0,L|256:132,3,31.8750012159348,2|0|0|0,0:0|0:0|0:0|0:0,0:0:0:0:
152,160,76649,2,0,L|140:192,3,21.25,2|0|0|0,0:0|0:0|0:0|0:0,0:0:0:0:
156,288,76952,6,0,L|196:272,1,42.5,2|0,0:0|0:0,0:0:0:0:
312,224,77104,2,0,L|272:240,1,42.5
152,316,77255,2,0,L|188:292,1,42.5,2|0,0:0|0:0,0:0:0:0:
312,196,77407,2,0,L|276:220,1,42.5
80,152,77558,6,0,L|128:156,1,42.5,2|0,0:0|0:0,0:0:0:0:
272,168,77710,2,0,L|229:164,1,42.5
92,128,77861,2,0,L|132:140,1,42.5,2|0,0:0|0:0,0:0:0:0:
264,192,78013,2,0,L|224:180,1,42.5
160,56,78164,70,0,B|180:48|184:48|200:56|204:56|220:48|224:48,1,63.75,2|0,0:0|0:0,0:0:0:0:
236,44,78467,54,0,B|320:56|320:56|380:120,1,170,4|0,0:0|0:0,0:0:0:0:
432,192,78846,1,0,0:0:0:0:
396,177,78922,1,0,0:0:0:0:
357,173,78998,1,0,0:0:0:0:
320,182,79073,2,0,L|280:196,1,42.5
176,148,79225,2,0,L|144:176,1,42.5
132,308,79376,5,0,0:0:0:0:
360,284,79528,2,0,B|352:252|352:252|360:220|360:188,1,95.6250036478044
260,80,79831,2,0,B|268:108|268:108|264:140|264:176,1,95.6250036478044
168,284,80134,2,0,B|176:252|176:252|168:220|168:156,1,127.500004863739
156,80,80513,5,0,0:0:0:0:
152,60,80588,2,0,L|96:28,1,63.7500024318696,2|0,0:0|0:0,0:0:0:0:
388,76,80892,1,0,0:0:0:0:
160,116,81043,1,0,0:0:0:0:
356,172,81195,2,0,L|396:184,3,42.5,8|0|0|0,0:0|0:0|0:0|0:0,0:0:0:0:
348,304,81498,2,0,L|300:312,3,42.5
188,272,81801,70,0,L|140:196,1,85
108,120,82028,1,0,0:0:0:0:
136,108,82104,2,0,L|180:88,3,42.5
208,180,82407,1,8,0:0:0:0:
243,192,82482,1,0,0:0:0:0:
281,192,82558,1,0,0:0:0:0:
316,178,82634,1,0,0:0:0:0:
344,156,82710,2,0,L|380:180,3,42.5
448,248,83013,5,2,0:0:0:0:
240,304,83164,1,0,0:0:0:0:
376,248,83316,1,0,0:0:0:0:
156,228,83467,1,0,0:0:0:0:
296,148,83619,2,0,P|356:112|280:64,1,191.250007295609,8|0,0:0|0:0,0:0:0:0:
212,112,83922,2,0,P|144:132|172:48,1,191.250007295609
240,12,84225,6,0,L|324:28,1,85
464,48,84528,1,0,0:0:0:0:
292,104,84679,1,0,0:0:0:0:
296,240,84831,1,8,0:0:0:0:
148,300,84982,2,0,B|192:292|192:292|232:272,1,85
364,344,85285,69,0,0:0:0:0:
376,352,85361,1,0,0:0:0:0:
388,360,85437,2,0,L|420:332,3,42.5,2|0|0|0,0:0|0:0|0:0|0:0,0:0:0:0:
324,220,85740,2,0,L|288:192,3,42.5
408,88,86043,2,0,L|444:56,3,42.5,8|0|0|0,0:0|0:0|0:0|0:0,0:0:0:0:
280,72,86346,2,0,L|244:100,3,42.5
152,60,86649,5,0,0:0:0:0:
64,176,86801,1,0,0:0:0:0:
60,180,86876,1,0,0:0:0:0:
56,184,86952,2,0,L|44:296,1,110.499994941712,8|0,0:0|0:0,0:0:0:0:
196,240,87255,1,0,0:0:0:0:
200,236,87331,1,0,0:0:0:0:
204,232,87407,2,0,L|284:308,1,110.499994941712,8|0,0:0|0:0,0:0:0:0:
444,88,87861,38,0,L|352:88,1,85,0|4,0:0|0:0,0:0:0:0:
330,92,88240,37,0,0:0:0:0:
305,107,88316,1,0,0:0:0:0:
287,129,88392,1,0,0:0:0:0:
264,146,88467,5,0,0:0:0:0:
235,151,88543,1,0,0:0:0:0:
208,139,88619,1,0,0:0:0:0:
192,114,88695,1,0,0:0:0:0:
192,85,88770,5,8,0:0:0:0:
212,64,88846,1,0,0:0:0:0:
240,59,88922,1,0,0:0:0:0:
264,74,88998,1,0,0:0:0:0:
280,96,89073,70,0,L|352:140,1,85
416,272,89376,1,8,0:0:0:0:
416,272,89452,1,0,0:0:0:0:
416,272,89528,2,0,P|376:256|336:264,1,85
184,324,89831,1,0,0:0:0:0:
176,328,89907,1,0,0:0:0:0:
168,332,89982,2,0,L|128:312,3,42.5,8|0|0|0,0:0|0:0|0:0|0:0,0:0:0:0:
100,228,90285,5,2,0:0:0:0:
95,189,90361,1,0,0:0:0:0:
100,151,90437,1,0,0:0:0:0:
119,117,90513,1,0,0:0:0:0:
147,92,90588,2,0,L|172:152,1,63.7500024318696,8|0,0:0|0:0,0:0:0:0:
248,320,90892,5,0,0:0:0:0:
269,288,90967,1,0,0:0:0:0:
277,250,91043,1,0,0:0:0:0:
275,211,91119,1,0,0:0:0:0:
263,174,91195,2,0,L|324:200,1,63.7500024318696,8|0,0:0|0:0,0:0:0:0:
464,212,91498,69,2,0:0:0:0:
458,174,91573,1,0,0:0:0:0:
437,141,91649,1,0,0:0:0:0:
408,115,91725,1,0,0:0:0:0:
371,103,91801,1,8,0:0:0:0:
333,103,91876,1,0,0:0:0:0:
301,125,91952,1,0,0:0:0:0:
293,162,92028,1,0,0:0:0:0:
306,197,92104,5,0,0:0:0:0:
279,224,92179,1,0,0:0:0:0:
244,240,92255,1,0,0:0:0:0:
205,242,92331,1,0,0:0:0:0:
168,229,92407,1,8,0:0:0:0:
137,206,92482,1,0,0:0:0:0:
115,174,92558,1,0,0:0:0:0:
108,136,92634,1,0,0:0:0:0:
111,97,92710,6,0,L|124:72,5,28.3333333333333,4|0|0|0|0|0,0:0|0:0|0:0|0:0|0:0|0:0,0:0:0:0:
208,128,93013,2,0,L|216:160,5,28.3333333333333
296,84,93316,2,0,L|292:56,5,28.3333333333333
360,156,93619,2,0,L|340:176,5,28.3333333333333
456,188,93922,69,2,0:0:0:0:
392,324,94073,1,0,0:0:0:0:
324,236,94225,1,8,0:0:0:0:
285,268,94326,1,0,0:0:0:0:
236,285,94427,1,0,0:0:0:0:
185,281,94528,1,0,0:0:0:0:
141,253,94629,1,0,0:0:0:0:
125,204,94730,1,0,0:0:0:0:
132,153,94831,1,8,0:0:0:0:
166,115,94932,1,0,0:0:0:0:
215,104,95033,1,0,0:0:0:0:
262,122,95134,6,0,L|262:207,1,85,2|0,0:0|0:0,0:0:0:0:
344,304,95437,1,8,0:0:0:0:
379,288,95513,1,0,0:0:0:0:
407,262,95588,1,0,0:0:0:0:
426,229,95664,1,0,0:0:0:0:
434,191,95740,5,0,0:0:0:0:
434,152,95816,1,0,0:0:0:0:
418,116,95892,1,0,0:0:0:0:
389,91,95967,1,0,0:0:0:0:
352,79,96043,69,8,0:0:0:0:
357,116,96119,1,0,0:0:0:0:
353,154,96195,1,0,0:0:0:0:
328,182,96270,1,0,0:0:0:0:
291,194,96346,1,4,0:0:0:0:
132,84,96498,6,0,L|96:56,2,42.5
376,104,96801,1,4,0:0:0:0:
128,188,96952,2,0,L|88:200,2,42.5
328,184,97255,2,0,L|392:184,1,63.7500024318696
420,284,97558,22,0,L|336:136,1,170,4|4,0:0|0:0,0:0:0:0:
272,28,98013,1,4,0:0:0:0:
100,152,98315,1,0,0:0:0:0:
232,204,98467,1,0,0:0:0:0:
152,316,98618,1,0,0:0:0:0:
332,275,98770,5,0,0:0:0:0:
366,292,98845,1,0,0:0:0:0:
405,293,98921,1,0,0:0:0:0:
436,270,98997,1,0,0:0:0:0:
447,233,99073,5,0,0:0:0:0:
414,214,99148,1,0,0:0:0:0:
385,189,99224,1,0,0:0:0:0:
375,152,99300,1,0,0:0:0:0:
386,115,99376,1,0,0:0:0:0:
410,85,99451,1,0,0:0:0:0:
447,77,99528,2,8,B|385:77|385:77|352:100|352:100|324:100,1,127.500004863739
104,84,99982,6,0,L|176:240,1,170,4|0,0:0|0:0,0:0:0:0:
240,356,100437,2,0,L|308:300,1,85,6|0,0:0|0:0,0:0:0:0:
296,148,100739,1,0,0:0:0:0:
348,28,100891,1,0,0:0:0:0:
456,112,101042,1,0,0:0:0:0:
412,260,101194,53,0,0:0:0:0:
381,281,101270,1,0,0:0:0:0:
345,291,101345,1,8,0:0:0:0:
307,286,101421,1,0,0:0:0:0:
274,267,101497,5,0,0:0:0:0:
287,230,101573,1,0,0:0:0:0:
296,193,101648,1,8,0:0:0:0:
291,155,101724,1,0,0:0:0:0:
272,122,101801,2,0,L|240:168,1,55.2499974708558
156,296,101952,2,8,L|172:232,1,55.2499974708558
208,88,102104,2,0,L|216:144,1,55.2499974708558
232,312,102255,2,0,L|212:259,1,55.2499974708558,8|0,0:0|0:0,0:0:0:0:
152,100,102407,6,0,B|192:84|192:84|236:76,1,85,4|0,0:0|0:0,0:0:0:0:
440,100,102709,2,0,B|400:84|400:84|356:76,1,85,0|4,0:0|0:0,0:0:0:0:
444,208,103012,1,0,0:0:0:0:
232,280,103164,1,0,0:0:0:0:
472,284,103315,1,0,0:0:0:0:
268,228,103467,5,8,0:0:0:0:
268,228,103542,1,8,0:0:0:0:
268,228,103619,2,0,B|264:184|264:184|256:144,1,85,2|0,0:0|0:0,0:0:0:0:
208,16,103846,2,0,B|196:56|196:56|192:104,1,85,2|0,0:0|0:0,0:0:0:0:
204,276,104073,2,0,B|216:236|216:236|224:192,1,85,2|0,0:0|0:0,0:0:0:0:
304,60,104301,54,0,L|340:92,1,42.5
344,180,104452,2,0,L|368:228,1,42.5
276,272,104604,2,0,L|280:320,2,42.5
264,148,104831,5,6,0:0:0:0:
148,36,104982,1,0,0:0:0:0:
88,184,105133,2,0,B|132:184|132:184|172:192,1,85,0|4,0:0|0:0,0:0:0:0:
376,204,105436,1,0,0:0:0:0:
488,116,105588,1,0,0:0:0:0:
248,124,105739,1,0,0:0:0:0:
380,280,105891,5,8,0:0:0:0:
380,280,105967,1,8,0:0:0:0:
380,280,106042,2,0,L|340:296,3,42.5
192,256,106345,2,0,L|152:244,3,42.5,0|0|0|2,0:0|0:0|0:0|0:0,0:0:0:0:
88,120,106649,6,0,B|125:116|125:116|164:120,1,74.3750007092953
364,184,106800,2,0,B|327:188|327:188|288:184,1,74.3750007092953
73,100,106952,2,0,B|109:100|109:100|146:106,1,74.3750007092953,8|0,0:0|0:0,0:0:0:0:
380,208,107103,2,0,B|344:208|344:208|307:202,1,74.3750007092953
116,188,107255,53,4,0:0:0:0:
276,324,107406,1,0,0:0:0:0:
88,248,107558,1,0,0:0:0:0:
260,204,107709,5,4,0:0:0:0:
480,252,107861,1,0,0:0:0:0:
284,256,108012,1,0,0:0:0:0:
240,76,108164,5,4,0:0:0:0:
396,260,108315,1,0,0:0:0:0:
204,164,108467,1,0,0:0:0:0:
364,56,108619,5,4,0:0:0:0:
484,240,108770,1,0,0:0:0:0:
328,108,108921,1,0,0:0:0:0:
280,264,109073,53,4,0:0:0:0:
108,264,109224,1,0,0:0:0:0:
148,128,109376,1,0,0:0:0:0:
180,107,109451,1,0,0:0:0:0:
217,94,109527,1,0,0:0:0:0:
256,95,109603,1,0,0:0:0:0:
292,110,109679,6,0,P|280:176|288:236,1,127.5,4|0,0:0|0:0,0:0:0:0:
292,248,109982,1,2,0:0:0:0:
456,240,110133,1,0,0:0:0:0:
420,84,110285,1,0,0:0:0:0:
393,73,110361,1,0,0:0:0:0:
365,65,110437,1,0,0:0:0:0:
336,61,110513,1,0,0:0:0:0:
307,59,110588,1,0,0:0:0:0:
278,59,110664,1,0,0:0:0:0:
249,62,110740,1,0,0:0:0:0:
221,68,110816,1,0,0:0:0:0:
196,80,110892,5,0,0:0:0:0:
229,96,110967,1,0,0:0:0:0:
260,117,111043,1,0,0:0:0:0:
287,144,111119,1,0,0:0:0:0:
303,178,111195,1,0,0:0:0:0:
309,215,111270,1,0,0:0:0:0:
297,251,111346,1,0,0:0:0:0:
271,279,111422,1,0,0:0:0:0:
240,302,111498,5,0,0:0:0:0:
211,266,111573,1,0,0:0:0:0:
201,221,111649,1,0,0:0:0:0:
201,174,111725,1,0,0:0:0:0:
221,132,111801,1,0,0:0:0:0:
257,104,111876,1,0,0:0:0:0:
299,85,111952,1,0,0:0:0:0:
344,87,112028,1,0,0:0:0:0:
387,102,112104,1,6,0:0:0:0:
256,192,112407,12,0,114528,0:0:0:0:
