osu file format v14

[General]
AudioFilename: audio.mp3
AudioLeadIn: 0
PreviewTime: 76927
Countdown: 0
SampleSet: Soft
StackLeniency: 0.7
Mode: 1
LetterboxInBreaks: 0
WidescreenStoryboard: 0

[Editor]
Bookmarks: 589,10285,15134,24831,34528,41801,44225,51498,53922,58770,63619,68467,73316,78164,78770,97558,107255,109679,112104,114528
DistanceSpacing: 0.9
BeatDivisor: 4
GridSize: 32
TimelineZoom: 1.4

[Metadata]
Title:Enigma
TitleUnicode:Enigma
Artist:Toromaru
ArtistUnicode:とろまる
Creator:Namo
Version:Terror Oni
Source:SOUND VOLTEX III GRAVITY WARS
Tags:SOUND VOLTEX III SDVX III Game Piano コナミ KONAMI
BeatmapID:992814
BeatmapSetID:463649

[Difficulty]
HPDrainRate:5
CircleSize:2
OverallDifficulty:6.2
ApproachRate:10
SliderMultiplier:1.7
SliderTickRate:1

[Events]
//Background and Video events
0,0,"image.jpg",0,0
//Break Periods
//Storyboard Layer 0 (Background)
//Storyboard Layer 1 (Fail)
//Storyboard Layer 2 (Pass)
//Storyboard Layer 3 (Foreground)
//Storyboard Sound Samples

[TimingPoints]
589,303.030303030303,4,2,1,70,1,0
589,-100,4,2,1,70,0,0
14528,-100,4,2,1,75,0,0
15437,-100,4,2,1,70,0,0
33922,-100,4,2,1,75,0,0
34831,-100,4,2,1,70,0,0
39376,-90.9090909090909,4,2,1,70,0,0
41801,-100,4,2,1,70,0,0
56043,-111.111111111111,4,2,1,60,0,0
58770,-100,4,2,1,70,0,0
78770,-90.9090909090909,4,2,1,75,0,1
87861,-133.333333333333,4,2,1,70,0,0
88164,-90.9090909090909,4,2,1,75,0,1
97558,-100,4,2,1,70,0,0
111498,-100,4,2,1,75,0,0
112407,-100,4,2,1,65,0,0

[Colours]
Combo1 : 141,133,197
Combo2 : 9,3,222
Combo3 : 18,157,224
Combo4 : 106,32,174

[HitObjects]
384,96,589,5,4,0:0:0:0:
128,96,892,1,0,0:0:0:0:
160,288,1043,1,6,0:0:0:0:
128,96,1346,1,0,0:0:0:0:
128,96,1498,1,0,0:0:0:0:
384,288,1649,1,2,0:0:0:0:
128,96,1801,1,0,0:0:0:0:
128,96,1876,1,0,0:0:0:0:
128,96,1952,1,0,0:0:0:0:
128,96,2028,1,0,0:0:0:0:
384,288,2104,1,2,0:0:0:0:
384,288,2179,1,2,0:0:0:0:
128,64,2255,1,0,0:0:0:0:
128,96,2331,1,0,0:0:0:0:
384,288,2407,1,2,0:0:0:0:
128,96,2482,1,0,0:0:0:0:
384,288,2558,1,2,0:0:0:0:
128,288,2861,1,6,0:0:0:0:
384,96,3013,1,4,0:0:0:0:
128,96,3316,1,0,0:0:0:0:
128,288,3467,1,6,0:0:0:0:
128,96,3770,1,0,0:0:0:0:
128,96,3922,1,0,0:0:0:0:
384,288,4073,1,2,0:0:0:0:
128,96,4225,1,0,0:0:0:0:
128,96,4301,1,0,0:0:0:0:
416,288,4376,1,2,0:0:0:0:
416,288,4452,1,2,0:0:0:0:
128,96,4528,1,0,0:0:0:0:
128,96,4604,1,0,0:0:0:0:
416,288,4679,1,2,0:0:0:0:
384,288,4755,1,2,0:0:0:0:
128,96,4831,1,0,0:0:0:0:
128,96,4907,1,0,0:0:0:0:
384,256,4982,1,2,0:0:0:0:
160,96,5058,1,0,0:0:0:0:
384,256,5134,1,2,0:0:0:0:
160,96,5210,1,0,0:0:0:0:
416,288,5285,1,2,0:0:0:0:
160,96,5361,1,0,0:0:0:0:
384,288,5437,1,2,0:0:0:0:
128,96,5589,1,0,0:0:0:0:
128,96,5740,1,0,0:0:0:0:
160,288,5892,1,6,0:0:0:0:
160,96,6043,1,0,0:0:0:0:
160,96,6195,1,0,0:0:0:0:
416,288,6346,1,2,0:0:0:0:
160,96,6498,1,0,0:0:0:0:
160,96,6649,1,0,0:0:0:0:
160,96,6725,1,0,0:0:0:0:
128,96,6801,1,0,0:0:0:0:
128,96,6876,1,0,0:0:0:0:
384,288,6952,1,2,0:0:0:0:
384,288,7028,1,2,0:0:0:0:
384,288,7104,1,2,0:0:0:0:
384,288,7179,1,2,0:0:0:0:
160,96,7255,1,0,0:0:0:0:
160,96,7331,1,0,0:0:0:0:
384,288,7407,1,2,0:0:0:0:
160,256,7710,1,6,0:0:0:0:
384,128,7861,1,4,0:0:0:0:
128,96,8013,1,0,0:0:0:0:
128,96,8164,1,0,0:0:0:0:
160,288,8316,1,6,0:0:0:0:
128,96,8467,1,0,0:0:0:0:
128,96,8619,1,0,0:0:0:0:
384,288,8770,1,2,0:0:0:0:
160,96,8922,1,0,0:0:0:0:
160,96,8998,1,0,0:0:0:0:
384,288,9073,1,2,0:0:0:0:
384,288,9149,1,2,0:0:0:0:
160,96,9225,1,0,0:0:0:0:
128,96,9301,1,0,0:0:0:0:
384,288,9376,1,2,0:0:0:0:
384,288,9452,1,2,0:0:0:0:
160,96,9528,1,0,0:0:0:0:
160,96,9604,1,0,0:0:0:0:
384,288,9679,1,2,0:0:0:0:
384,288,9755,1,2,0:0:0:0:
160,128,9831,1,0,0:0:0:0:
160,128,9907,1,0,0:0:0:0:
384,256,9982,1,2,0:0:0:0:
384,256,10058,1,2,0:0:0:0:
352,288,10134,1,2,0:0:0:0:
352,288,10210,1,2,0:0:0:0:
128,96,10285,1,0,0:0:0:0:
128,96,10437,1,0,0:0:0:0:
128,96,10588,1,0,0:0:0:0:
128,288,10740,1,6,0:0:0:0:
384,288,10892,1,2,0:0:0:0:
384,288,11043,1,2,0:0:0:0:
384,96,11195,1,4,0:0:0:0:
128,96,11346,1,0,0:0:0:0:
128,96,11498,1,0,0:0:0:0:
128,288,11649,1,6,0:0:0:0:
128,96,11801,1,0,0:0:0:0:
128,96,11952,1,0,0:0:0:0:
128,288,12104,1,6,0:0:0:0:
128,96,12255,1,0,0:0:0:0:
128,96,12407,1,0,0:0:0:0:
128,96,12482,1,0,0:0:0:0:
128,96,12558,1,0,0:0:0:0:
128,96,12634,1,0,0:0:0:0:
384,288,12710,1,2,0:0:0:0:
384,288,12861,1,2,0:0:0:0:
128,96,13013,1,0,0:0:0:0:
128,96,13164,1,0,0:0:0:0:
128,96,13316,1,0,0:0:0:0:
128,96,13392,1,0,0:0:0:0:
128,96,13467,1,0,0:0:0:0:
128,96,13543,1,0,0:0:0:0:
384,288,13619,1,2,0:0:0:0:
384,288,13695,1,2,0:0:0:0:
384,288,13770,1,2,0:0:0:0:
384,288,13846,1,2,0:0:0:0:
128,128,13922,1,0,0:0:0:0:
128,128,13998,1,0,0:0:0:0:
128,96,14073,1,0,0:0:0:0:
128,96,14149,1,0,0:0:0:0:
416,288,14225,1,2,0:0:0:0:
384,288,14301,1,2,0:0:0:0:
384,288,14376,1,2,0:0:0:0:
384,288,14452,1,2,0:0:0:0:
128,96,14528,1,0,0:0:0:0:
128,96,14604,1,0,0:0:0:0:
384,256,14679,1,2,0:0:0:0:
384,256,14755,1,2,0:0:0:0:
384,288,14831,1,2,0:0:0:0:
128,96,14907,1,0,0:0:0:0:
384,288,14982,1,2,0:0:0:0:
384,288,15058,1,2,0:0:0:0:
128,96,15134,1,0,0:0:0:0:
384,288,15437,1,2,0:0:0:0:
416,288,15588,1,2,0:0:0:0:
416,288,15664,1,2,0:0:0:0:
96,128,15740,1,0,0:0:0:0:
128,96,15892,1,0,0:0:0:0:
416,288,16043,1,2,0:0:0:0:
128,96,16195,1,0,0:0:0:0:
384,288,16346,1,2,0:0:0:0:
128,96,16447,1,0,0:0:0:0:
128,96,16548,1,0,0:0:0:0:
384,288,16649,1,2,0:0:0:0:
128,96,16750,1,0,0:0:0:0:
128,96,16851,1,0,0:0:0:0:
416,288,16952,1,2,0:0:0:0:
160,96,17053,1,0,0:0:0:0:
160,96,17154,1,0,0:0:0:0:
384,288,17255,1,2,0:0:0:0:
416,288,17356,1,2,0:0:0:0:
416,288,17457,1,2,0:0:0:0:
384,96,17558,1,4,0:0:0:0:
384,256,17861,1,2,0:0:0:0:
128,96,18013,1,0,0:0:0:0:
128,96,18164,1,0,0:0:0:0:
128,96,18316,1,0,0:0:0:0:
384,288,18467,1,2,0:0:0:0:
128,96,18619,1,0,0:0:0:0:
160,128,18770,1,0,0:0:0:0:
128,128,18871,1,0,0:0:0:0:
384,288,18972,1,2,0:0:0:0:
128,96,19073,1,0,0:0:0:0:
128,96,19174,1,0,0:0:0:0:
384,288,19275,1,2,0:0:0:0:
128,96,19376,1,0,0:0:0:0:
128,96,19477,1,0,0:0:0:0:
128,96,19578,1,0,0:0:0:0:
384,288,19679,1,2,0:0:0:0:
384,288,19780,1,2,0:0:0:0:
384,288,19881,1,2,0:0:0:0:
384,128,19982,1,4,0:0:0:0:
384,288,20285,1,6,0:0:0:0:
128,96,20437,1,0,0:0:0:0:
128,96,20589,1,0,0:0:0:0:
160,96,20740,1,0,0:0:0:0:
384,288,20892,1,2,0:0:0:0:
160,96,21043,1,0,0:0:0:0:
160,96,21195,1,0,0:0:0:0:
160,96,21296,1,0,0:0:0:0:
384,288,21397,1,2,0:0:0:0:
160,96,21498,1,0,0:0:0:0:
160,96,21599,1,0,0:0:0:0:
384,288,21700,1,2,0:0:0:0:
128,128,21801,1,0,0:0:0:0:
160,128,21902,1,0,0:0:0:0:
416,288,22003,1,2,0:0:0:0:
128,96,22104,1,0,0:0:0:0:
128,96,22205,1,0,0:0:0:0:
416,288,22306,1,2,0:0:0:0:
352,128,22407,1,4,0:0:0:0:
416,288,22710,1,2,0:0:0:0:
416,288,22785,1,2,0:0:0:0:
416,288,22861,1,2,0:0:0:0:
416,288,22937,1,2,0:0:0:0:
128,96,23013,1,0,0:0:0:0:
128,96,23089,1,0,0:0:0:0:
128,96,23164,1,0,0:0:0:0:
128,96,23240,1,0,0:0:0:0:
416,288,23316,1,2,0:0:0:0:
416,288,23392,1,2,0:0:0:0:
416,288,23467,1,2,0:0:0:0:
416,288,23543,1,2,0:0:0:0:
128,96,23619,1,0,0:0:0:0:
128,96,23720,1,0,0:0:0:0:
416,288,23821,1,2,0:0:0:0:
128,96,23922,1,0,0:0:0:0:
128,96,24023,1,0,0:0:0:0:
448,320,24124,1,2,0:0:0:0:
96,96,24225,1,0,0:0:0:0:
128,96,24326,1,0,0:0:0:0:
448,288,24427,1,2,0:0:0:0:
96,96,24528,1,0,0:0:0:0:
384,320,24629,1,2,0:0:0:0:
416,320,24730,1,2,0:0:0:0:
128,320,24831,1,6,0:0:0:0:
128,96,25134,1,0,0:0:0:0:
384,288,25285,1,2,0:0:0:0:
384,288,25437,1,2,0:0:0:0:
128,96,25589,1,0,0:0:0:0:
384,288,25740,1,2,0:0:0:0:
384,288,25892,1,2,0:0:0:0:
128,96,26043,1,0,0:0:0:0:
128,96,26195,1,0,0:0:0:0:
128,96,26346,1,0,0:0:0:0:
384,288,26498,1,2,0:0:0:0:
128,96,26801,1,0,0:0:0:0:
416,288,26952,1,2,0:0:0:0:
384,288,27104,1,2,0:0:0:0:
384,288,27255,1,2,0:0:0:0:
128,96,27558,1,0,0:0:0:0:
384,288,27710,1,2,0:0:0:0:
128,96,28013,1,0,0:0:0:0:
416,288,28164,1,2,0:0:0:0:
416,288,28240,1,2,0:0:0:0:
416,288,28316,1,2,0:0:0:0:
416,288,28392,1,2,0:0:0:0:
128,96,28467,1,0,0:0:0:0:
128,96,28543,1,0,0:0:0:0:
128,96,28619,1,0,0:0:0:0:
128,96,28695,1,0,0:0:0:0:
416,288,28770,1,2,0:0:0:0:
416,288,28846,1,2,0:0:0:0:
416,288,28922,1,2,0:0:0:0:
416,288,28998,1,2,0:0:0:0:
128,96,29073,1,0,0:0:0:0:
128,96,29149,1,0,0:0:0:0:
448,288,29225,1,2,0:0:0:0:
448,288,29301,1,2,0:0:0:0:
128,128,29376,1,0,0:0:0:0:
128,128,29452,1,0,0:0:0:0:
448,288,29528,1,2,0:0:0:0:
448,288,29604,1,2,0:0:0:0:
128,96,29679,1,0,0:0:0:0:
128,128,29982,1,0,0:0:0:0:
448,288,30134,1,2,0:0:0:0:
448,288,30285,1,2,0:0:0:0:
96,96,30437,1,0,0:0:0:0:
416,288,30589,1,2,0:0:0:0:
416,288,30740,1,2,0:0:0:0:
128,96,30892,1,0,0:0:0:0:
128,96,31043,1,0,0:0:0:0:
384,288,31195,1,2,0:0:0:0:
96,96,31346,1,0,0:0:0:0:
128,96,31649,1,0,0:0:0:0:
384,288,31801,1,2,0:0:0:0:
384,288,31876,1,2,0:0:0:0:
384,288,31952,1,2,0:0:0:0:
160,96,32104,1,0,0:0:0:0:
160,96,32179,1,0,0:0:0:0:
160,96,32255,1,0,0:0:0:0:
384,256,32331,1,2,0:0:0:0:
160,96,32407,1,0,0:0:0:0:
160,96,32482,1,0,0:0:0:0:
160,96,32558,1,0,0:0:0:0:
384,256,32634,1,2,0:0:0:0:
160,96,32710,1,0,0:0:0:0:
160,96,32785,1,0,0:0:0:0:
160,96,32861,1,0,0:0:0:0:
384,256,32937,1,2,0:0:0:0:
160,96,33013,1,0,0:0:0:0:
160,96,33088,1,0,0:0:0:0:
160,96,33164,1,0,0:0:0:0:
384,256,33240,1,2,0:0:0:0:
128,96,33316,1,0,0:0:0:0:
128,96,33392,1,0,0:0:0:0:
352,256,33467,1,2,0:0:0:0:
352,256,33543,1,2,0:0:0:0:
160,96,33619,1,0,0:0:0:0:
160,96,33695,1,0,0:0:0:0:
160,96,33770,1,0,0:0:0:0:
160,96,33846,1,0,0:0:0:0:
352,288,33922,1,2,0:0:0:0:
352,288,33998,1,2,0:0:0:0:
352,288,34073,1,2,0:0:0:0:
160,96,34149,1,0,0:0:0:0:
192,96,34225,1,0,0:0:0:0:
160,96,34301,1,0,0:0:0:0:
352,288,34376,1,2,0:0:0:0:
352,288,34452,1,2,0:0:0:0:
160,96,34528,1,0,0:0:0:0:
128,96,34679,1,0,0:0:0:0:
352,288,34831,1,2,0:0:0:0:
160,96,34982,1,0,0:0:0:0:
160,96,35058,1,0,0:0:0:0:
128,96,35134,1,0,0:0:0:0:
128,96,35285,1,0,0:0:0:0:
352,288,35437,1,2,0:0:0:0:
160,64,35588,1,0,0:0:0:0:
160,64,35664,1,0,0:0:0:0:
160,64,35740,1,0,0:0:0:0:
160,64,35892,1,0,0:0:0:0:
352,288,36043,1,2,0:0:0:0:
160,96,36195,1,0,0:0:0:0:
128,64,36270,1,0,0:0:0:0:
160,96,36346,1,0,0:0:0:0:
160,96,36498,1,0,0:0:0:0:
384,96,36649,1,4,0:0:0:0:
384,96,36801,1,4,0:0:0:0:
128,288,36952,1,6,0:0:0:0:
128,288,37104,1,6,0:0:0:0:
128,96,37255,1,0,0:0:0:0:
160,96,37407,1,0,0:0:0:0:
160,96,37482,1,0,0:0:0:0:
160,96,37558,1,0,0:0:0:0:
160,96,37710,1,0,0:0:0:0:
384,288,37861,1,2,0:0:0:0:
384,288,37937,1,2,0:0:0:0:
384,288,38013,1,2,0:0:0:0:
384,288,38088,1,2,0:0:0:0:
128,96,38164,1,0,0:0:0:0:
128,96,38316,1,0,0:0:0:0:
128,96,38467,1,0,0:0:0:0:
128,96,38543,1,0,0:0:0:0:
128,96,38619,1,0,0:0:0:0:
128,96,38695,1,0,0:0:0:0:
352,288,38770,1,2,0:0:0:0:
128,288,38922,1,6,0:0:0:0:
128,288,39073,1,6,0:0:0:0:
128,96,39225,1,0,0:0:0:0:
128,96,39301,1,0,0:0:0:0:
128,96,39376,1,2,0:0:0:0:
128,96,39528,1,0,0:0:0:0:
384,288,39679,1,2,0:0:0:0:
384,288,39755,1,2,0:0:0:0:
384,288,39831,1,2,0:0:0:0:
384,288,39907,1,2,0:0:0:0:
128,96,39982,1,0,0:0:0:0:
128,96,40134,1,0,0:0:0:0:
128,128,40285,1,0,0:0:0:0:
128,128,40361,1,0,0:0:0:0:
384,288,40437,1,2,0:0:0:0:
384,288,40513,1,2,0:0:0:0:
128,96,40588,1,0,0:0:0:0:
160,96,40740,1,0,0:0:0:0:
384,288,40892,1,2,0:0:0:0:
384,288,40967,1,2,0:0:0:0:
128,96,41043,1,0,0:0:0:0:
128,96,41119,1,0,0:0:0:0:
384,256,41195,1,2,0:0:0:0:
384,288,41346,1,2,0:0:0:0:
128,96,41498,1,0,0:0:0:0:
384,256,41649,1,2,0:0:0:0:
384,288,41801,1,2,0:0:0:0:
96,96,41902,1,0,0:0:0:0:
96,96,42003,1,0,0:0:0:0:
352,256,42104,1,2,0:0:0:0:
128,128,42205,1,0,0:0:0:0:
128,128,42306,1,0,0:0:0:0:
384,288,42407,1,2,0:0:0:0:
96,96,42508,1,0,0:0:0:0:
96,96,42609,1,0,0:0:0:0:
352,288,42710,1,2,0:0:0:0:
128,96,42811,1,0,0:0:0:0:
128,96,42912,1,0,0:0:0:0:
128,96,43013,1,0,0:0:0:0:
96,96,43088,1,0,0:0:0:0:
96,96,43164,1,0,0:0:0:0:
96,96,43240,1,0,0:0:0:0:
384,288,43316,1,2,0:0:0:0:
384,288,43392,1,2,0:0:0:0:
384,288,43467,1,2,0:0:0:0:
384,288,43543,1,2,0:0:0:0:
128,96,43619,1,0,0:0:0:0:
128,96,43695,1,0,0:0:0:0:
128,96,43770,1,0,0:0:0:0:
128,96,43846,1,0,0:0:0:0:
384,288,43922,1,2,0:0:0:0:
384,288,43998,1,2,0:0:0:0:
384,288,44073,1,2,0:0:0:0:
384,288,44149,1,2,0:0:0:0:
128,96,44225,1,0,0:0:0:0:
128,96,44376,1,0,0:0:0:0:
128,96,44528,1,0,0:0:0:0:
128,96,44604,1,0,0:0:0:0:
128,96,44679,1,0,0:0:0:0:
128,96,44755,1,0,0:0:0:0:
384,288,44831,1,2,0:0:0:0:
128,96,44907,1,0,0:0:0:0:
384,288,44982,1,2,0:0:0:0:
384,288,45058,1,2,0:0:0:0:
384,288,45134,1,2,0:0:0:0:
384,288,45210,1,2,0:0:0:0:
96,96,45285,1,0,0:0:0:0:
96,96,45361,1,0,0:0:0:0:
384,256,45437,1,2,0:0:0:0:
384,256,45513,1,2,0:0:0:0:
96,64,45588,1,0,0:0:0:0:
96,96,45664,1,0,0:0:0:0:
384,288,45740,1,2,0:0:0:0:
96,96,45816,1,0,0:0:0:0:
96,96,45892,1,0,0:0:0:0:
96,96,45967,1,0,0:0:0:0:
416,288,46043,1,2,0:0:0:0:
96,96,46119,1,0,0:0:0:0:
96,96,46195,1,0,0:0:0:0:
96,96,46270,1,0,0:0:0:0:
96,96,46346,1,0,0:0:0:0:
96,96,46498,1,0,0:0:0:0:
128,288,46649,1,6,0:0:0:0:
128,288,46801,1,6,0:0:0:0:
384,288,46952,1,2,0:0:0:0:
384,288,47028,1,2,0:0:0:0:
384,288,47104,1,2,0:0:0:0:
384,288,47179,1,2,0:0:0:0:
160,96,47255,1,0,0:0:0:0:
160,96,47331,1,0,0:0:0:0:
160,96,47407,1,0,0:0:0:0:
160,96,47482,1,0,0:0:0:0:
384,288,47558,1,2,0:0:0:0:
384,288,47634,1,2,0:0:0:0:
128,96,47710,1,0,0:0:0:0:
128,96,47785,1,0,0:0:0:0:
384,288,47861,1,2,0:0:0:0:
128,96,47937,1,0,0:0:0:0:
384,256,48013,1,2,0:0:0:0:
128,96,48088,1,0,0:0:0:0:
128,96,48164,1,0,0:0:0:0:
128,96,48240,1,0,0:0:0:0:
128,96,48316,1,0,0:0:0:0:
352,288,48392,1,2,0:0:0:0:
128,96,48467,1,0,0:0:0:0:
352,128,48619,1,4,0:0:0:0:
160,288,48770,1,6,0:0:0:0:
128,96,48922,1,0,0:0:0:0:
128,96,48998,1,0,0:0:0:0:
352,288,49073,1,2,0:0:0:0:
352,288,49225,1,2,0:0:0:0:
352,288,49376,1,2,0:0:0:0:
128,96,49452,1,0,0:0:0:0:
352,288,49528,1,2,0:0:0:0:
352,288,49604,1,2,0:0:0:0:
128,96,49679,1,0,0:0:0:0:
128,96,49755,1,0,0:0:0:0:
128,96,49831,1,0,0:0:0:0:
128,96,49907,1,0,0:0:0:0:
352,288,49982,1,2,0:0:0:0:
352,288,50058,1,2,0:0:0:0:
352,288,50134,1,2,0:0:0:0:
352,288,50210,1,2,0:0:0:0:
128,96,50285,1,0,0:0:0:0:
128,96,50361,1,0,0:0:0:0:
128,96,50437,1,0,0:0:0:0:
128,96,50513,1,0,0:0:0:0:
352,288,50588,1,2,0:0:0:0:
128,96,50664,1,0,0:0:0:0:
128,96,50740,1,0,0:0:0:0:
352,288,50816,1,2,0:0:0:0:
352,288,50892,1,2,0:0:0:0:
128,64,50967,1,0,0:0:0:0:
128,96,51043,1,0,0:0:0:0:
352,288,51119,1,2,0:0:0:0:
352,288,51195,1,2,0:0:0:0:
128,96,51498,1,0,0:0:0:0:
128,96,51599,1,0,0:0:0:0:
384,288,51700,1,2,0:0:0:0:
128,128,51801,1,0,0:0:0:0:
128,128,51902,1,0,0:0:0:0:
384,288,52003,1,2,0:0:0:0:
128,128,52104,1,0,0:0:0:0:
128,128,52205,1,0,0:0:0:0:
416,288,52306,1,2,0:0:0:0:
128,96,52407,1,0,0:0:0:0:
128,96,52508,1,0,0:0:0:0:
352,256,52609,1,2,0:0:0:0:
352,288,52710,1,2,0:0:0:0:
96,128,52785,1,0,0:0:0:0:
96,96,52861,1,0,0:0:0:0:
96,96,52937,1,0,0:0:0:0:
384,288,53013,1,2,0:0:0:0:
128,128,53088,1,0,0:0:0:0:
128,128,53164,1,0,0:0:0:0:
128,128,53240,1,0,0:0:0:0:
416,320,53316,1,2,0:0:0:0:
128,128,53392,1,0,0:0:0:0:
128,128,53467,1,0,0:0:0:0:
128,128,53543,1,0,0:0:0:0:
416,288,53619,1,2,0:0:0:0:
128,128,53695,1,0,0:0:0:0:
128,128,53770,1,0,0:0:0:0:
128,128,53846,1,0,0:0:0:0:
128,96,53922,1,0,0:0:0:0:
384,288,56043,1,2,0:0:0:0:
128,128,56346,1,0,0:0:0:0:
160,64,56952,1,0,0:0:0:0:
384,288,57558,1,2,0:0:0:0:
128,64,58013,1,0,0:0:0:0:
128,96,58088,1,0,0:0:0:0:
384,288,58164,1,2,0:0:0:0:
384,288,58215,1,2,0:0:0:0:
384,288,58265,1,2,0:0:0:0:
160,128,58316,1,0,0:0:0:0:
352,288,58467,1,2,0:0:0:0:
352,288,58619,1,2,0:0:0:0:
384,128,58770,1,4,0:0:0:0:
160,96,59073,1,0,0:0:0:0:
160,96,59149,1,0,0:0:0:0:
352,256,59225,1,2,0:0:0:0:
160,96,59301,1,0,0:0:0:0:
160,96,59376,1,0,0:0:0:0:
352,256,59452,1,2,0:0:0:0:
160,96,59528,1,0,0:0:0:0:
160,96,59604,1,0,0:0:0:0:
160,96,59679,1,0,0:0:0:0:
160,96,59755,1,0,0:0:0:0:
160,96,59831,1,0,0:0:0:0:
160,96,59907,1,0,0:0:0:0:
352,256,59982,1,2,0:0:0:0:
128,96,60285,1,0,0:0:0:0:
128,96,60361,1,0,0:0:0:0:
128,96,60437,1,0,0:0:0:0:
128,96,60513,1,0,0:0:0:0:
352,256,60588,1,2,0:0:0:0:
352,256,60664,1,2,0:0:0:0:
128,96,60740,1,0,0:0:0:0:
128,96,60816,1,0,0:0:0:0:
128,96,60892,1,0,0:0:0:0:
128,128,60967,1,0,0:0:0:0:
128,128,61043,1,0,0:0:0:0:
128,128,61119,1,0,0:0:0:0:
320,288,61195,1,2,0:0:0:0:
96,96,61346,1,0,0:0:0:0:
96,96,61498,1,0,0:0:0:0:
352,288,61649,1,2,0:0:0:0:
128,128,61801,1,0,0:0:0:0:
128,128,61952,1,0,0:0:0:0:
352,256,62104,1,2,0:0:0:0:
128,128,62255,1,0,0:0:0:0:
128,96,62331,1,0,0:0:0:0:
128,128,62407,1,0,0:0:0:0:
352,288,62558,1,2,0:0:0:0:
128,96,62710,1,0,0:0:0:0:
128,96,62861,1,0,0:0:0:0:
352,288,63013,1,2,0:0:0:0:
352,288,63164,1,2,0:0:0:0:
128,96,63316,1,0,0:0:0:0:
128,96,63467,1,0,0:0:0:0:
384,96,63619,1,4,0:0:0:0:
352,288,63922,1,2,0:0:0:0:
352,288,63998,1,2,0:0:0:0:
128,128,64073,1,0,0:0:0:0:
352,288,64149,1,2,0:0:0:0:
160,128,64225,1,0,0:0:0:0:
128,128,64301,1,0,0:0:0:0:
128,128,64376,1,0,0:0:0:0:
128,128,64452,1,0,0:0:0:0:
384,288,64528,1,2,0:0:0:0:
160,96,64831,1,0,0:0:0:0:
160,96,64907,1,0,0:0:0:0:
160,96,64982,1,0,0:0:0:0:
384,288,65058,1,2,0:0:0:0:
128,96,65134,1,0,0:0:0:0:
128,96,65210,1,0,0:0:0:0:
128,96,65285,1,0,0:0:0:0:
384,288,65361,1,2,0:0:0:0:
128,96,65437,1,0,0:0:0:0:
128,96,65513,1,0,0:0:0:0:
128,96,65588,1,0,0:0:0:0:
128,96,65664,1,0,0:0:0:0:
384,288,65740,1,2,0:0:0:0:
384,288,65816,1,2,0:0:0:0:
384,288,65892,1,2,0:0:0:0:
384,256,65967,1,2,0:0:0:0:
128,96,66043,1,0,0:0:0:0:
384,288,66346,1,2,0:0:0:0:
352,256,66422,1,2,0:0:0:0:
352,256,66498,1,2,0:0:0:0:
128,128,66573,1,0,0:0:0:0:
384,288,66649,1,2,0:0:0:0:
384,288,66725,1,2,0:0:0:0:
384,288,66801,1,2,0:0:0:0:
128,128,66876,1,0,0:0:0:0:
128,96,66952,1,0,0:0:0:0:
160,96,67255,1,0,0:0:0:0:
160,96,67331,1,0,0:0:0:0:
160,96,67407,1,0,0:0:0:0:
384,256,67482,1,2,0:0:0:0:
160,96,67558,1,0,0:0:0:0:
160,96,67634,1,0,0:0:0:0:
160,96,67710,1,0,0:0:0:0:
384,256,67785,1,2,0:0:0:0:
160,128,67861,1,0,0:0:0:0:
160,128,67937,1,0,0:0:0:0:
160,128,68013,1,0,0:0:0:0:
352,256,68088,1,2,0:0:0:0:
160,96,68164,1,0,0:0:0:0:
160,96,68240,1,0,0:0:0:0:
160,96,68316,1,0,0:0:0:0:
352,288,68392,1,2,0:0:0:0:
160,96,68467,1,0,0:0:0:0:
384,96,68619,1,4,0:0:0:0:
384,96,68770,1,4,0:0:0:0:
128,128,69073,1,0,0:0:0:0:
128,128,69149,1,0,0:0:0:0:
128,128,69225,1,0,0:0:0:0:
384,288,69301,1,2,0:0:0:0:
128,128,69376,1,0,0:0:0:0:
384,288,69528,1,2,0:0:0:0:
352,96,69679,1,4,0:0:0:0:
352,96,69831,1,4,0:0:0:0:
352,96,69982,1,4,0:0:0:0:
128,128,70285,1,0,0:0:0:0:
128,128,70361,1,0,0:0:0:0:
128,128,70437,1,0,0:0:0:0:
384,256,70513,1,2,0:0:0:0:
128,96,70588,1,0,0:0:0:0:
128,96,70664,1,0,0:0:0:0:
384,256,70740,1,2,0:0:0:0:
384,256,70816,1,2,0:0:0:0:
160,96,70892,1,0,0:0:0:0:
352,96,71043,1,4,0:0:0:0:
352,96,71195,1,4,0:0:0:0:
128,96,71498,1,0,0:0:0:0:
128,96,71573,1,0,0:0:0:0:
128,96,71649,1,0,0:0:0:0:
352,256,71725,1,2,0:0:0:0:
160,96,71801,1,0,0:0:0:0:
352,96,71952,1,4,0:0:0:0:
128,288,72104,1,6,0:0:0:0:
352,96,72255,1,4,0:0:0:0:
128,288,72407,1,6,0:0:0:0:
128,96,72558,1,0,0:0:0:0:
128,96,72634,1,0,0:0:0:0:
352,288,72710,1,2,0:0:0:0:
96,96,72861,1,0,0:0:0:0:
352,288,73013,1,2,0:0:0:0:
96,96,73164,1,0,0:0:0:0:
96,96,73240,1,0,0:0:0:0:
352,288,73316,1,2,0:0:0:0:
96,96,73619,2,0,B|416:96|416:96|416:288|416:288|96:288|96:288|96:160|96:160|256:160,1,1105
384,288,75740,1,2,0:0:0:0:
384,288,75816,1,2,0:0:0:0:
384,288,75892,1,2,0:0:0:0:
128,96,75967,1,0,0:0:0:0:
352,288,76043,1,2,0:0:0:0:
352,288,76119,1,2,0:0:0:0:
384,288,76195,1,2,0:0:0:0:
128,128,76270,1,0,0:0:0:0:
128,128,76346,1,0,0:0:0:0:
128,128,76422,1,0,0:0:0:0:
128,96,76498,1,0,0:0:0:0:
128,64,76573,1,0,0:0:0:0:
384,288,76649,1,2,0:0:0:0:
384,288,76725,1,2,0:0:0:0:
384,288,76801,1,2,0:0:0:0:
384,288,76876,1,2,0:0:0:0:
128,96,76952,1,0,0:0:0:0:
128,96,77028,1,0,0:0:0:0:
352,288,77104,1,2,0:0:0:0:
352,288,77179,1,2,0:0:0:0:
128,96,77255,1,0,0:0:0:0:
128,96,77331,1,0,0:0:0:0:
352,288,77407,1,2,0:0:0:0:
352,288,77482,1,2,0:0:0:0:
128,128,77558,1,0,0:0:0:0:
128,128,77634,1,0,0:0:0:0:
352,256,77710,1,2,0:0:0:0:
352,256,77785,1,2,0:0:0:0:
128,96,77861,1,0,0:0:0:0:
128,96,77937,1,0,0:0:0:0:
384,256,78013,1,2,0:0:0:0:
384,256,78088,1,2,0:0:0:0:
160,128,78164,1,0,0:0:0:0:
160,288,78467,1,6,0:0:0:0:
352,128,78770,1,4,0:0:0:0:
160,96,79073,1,0,0:0:0:0:
352,288,79225,1,2,0:0:0:0:
160,96,79376,1,0,0:0:0:0:
384,288,79528,1,2,0:0:0:0:
160,96,79831,1,0,0:0:0:0:
160,128,79907,1,0,0:0:0:0:
352,288,79982,1,2,0:0:0:0:
128,96,80134,1,0,0:0:0:0:
160,96,80437,1,0,0:0:0:0:
160,96,80513,1,0,0:0:0:0:
384,288,80588,1,2,0:0:0:0:
384,288,80892,1,2,0:0:0:0:
384,288,81043,1,2,0:0:0:0:
128,96,81195,1,0,0:0:0:0:
128,96,81270,1,0,0:0:0:0:
128,96,81346,1,0,0:0:0:0:
128,96,81422,1,0,0:0:0:0:
384,288,81498,1,2,0:0:0:0:
384,288,81573,1,2,0:0:0:0:
384,288,81649,1,2,0:0:0:0:
384,96,81801,1,4,0:0:0:0:
352,288,81952,1,2,0:0:0:0:
352,288,82028,1,2,0:0:0:0:
128,96,82104,1,0,0:0:0:0:
384,288,82255,1,2,0:0:0:0:
384,288,82331,1,2,0:0:0:0:
128,96,82407,1,0,0:0:0:0:
384,288,82558,1,2,0:0:0:0:
384,288,82634,1,2,0:0:0:0:
128,96,82710,1,0,0:0:0:0:
128,96,82861,1,0,0:0:0:0:
384,96,83013,1,4,0:0:0:0:
128,96,83164,1,0,0:0:0:0:
384,288,83316,1,2,0:0:0:0:
384,256,83467,1,2,0:0:0:0:
96,96,83619,1,0,0:0:0:0:
128,96,83695,1,0,0:0:0:0:
128,96,83770,1,0,0:0:0:0:
128,96,83846,1,0,0:0:0:0:
384,288,83922,1,2,0:0:0:0:
128,96,84225,1,0,0:0:0:0:
128,96,84528,1,0,0:0:0:0:
384,288,84679,1,2,0:0:0:0:
128,96,84831,1,0,0:0:0:0:
128,96,84982,1,0,0:0:0:0:
128,96,85134,1,0,0:0:0:0:
128,96,85285,1,0,0:0:0:0:
128,96,85361,1,0,0:0:0:0:
384,288,85437,1,2,0:0:0:0:
128,96,85513,1,0,0:0:0:0:
416,288,85588,1,2,0:0:0:0:
128,96,85664,1,0,0:0:0:0:
416,288,85740,1,2,0:0:0:0:
416,288,85816,1,2,0:0:0:0:
416,288,85892,1,2,0:0:0:0:
416,288,85967,1,2,0:0:0:0:
128,96,86043,1,0,0:0:0:0:
128,96,86119,1,0,0:0:0:0:
128,96,86195,1,0,0:0:0:0:
128,96,86270,1,0,0:0:0:0:
416,288,86346,1,2,0:0:0:0:
416,288,86422,1,2,0:0:0:0:
416,288,86498,1,2,0:0:0:0:
416,288,86573,1,2,0:0:0:0:
128,128,86649,1,0,0:0:0:0:
128,96,86801,1,0,0:0:0:0:
128,96,86876,1,0,0:0:0:0:
384,256,86952,1,2,0:0:0:0:
128,96,87104,1,0,0:0:0:0:
128,128,87255,1,0,0:0:0:0:
128,128,87331,1,0,0:0:0:0:
384,288,87407,1,2,0:0:0:0:
128,288,87558,1,6,0:0:0:0:
384,96,88164,1,4,0:0:0:0:
128,96,88467,1,0,0:0:0:0:
128,96,88619,1,0,0:0:0:0:
384,288,88770,1,2,0:0:0:0:
384,288,88846,1,2,0:0:0:0:
128,128,88922,1,0,0:0:0:0:
128,96,89073,1,0,0:0:0:0:
128,96,89225,1,0,0:0:0:0:
128,96,89376,1,0,0:0:0:0:
128,96,89452,1,0,0:0:0:0:
416,288,89528,1,2,0:0:0:0:
160,96,89831,1,0,0:0:0:0:
160,64,89907,1,0,0:0:0:0:
384,288,89982,1,2,0:0:0:0:
128,96,90058,1,0,0:0:0:0:
384,288,90134,1,2,0:0:0:0:
384,288,90285,1,2,0:0:0:0:
384,288,90361,1,2,0:0:0:0:
160,96,90437,1,0,0:0:0:0:
160,96,90513,1,0,0:0:0:0:
160,96,90588,1,0,0:0:0:0:
160,96,90892,1,0,0:0:0:0:
160,96,90967,1,0,0:0:0:0:
160,96,91043,1,0,0:0:0:0:
160,96,91119,1,0,0:0:0:0:
416,288,91195,1,2,0:0:0:0:
128,96,91498,1,0,0:0:0:0:
128,96,91573,1,0,0:0:0:0:
128,96,91649,1,0,0:0:0:0:
128,96,91725,1,0,0:0:0:0:
352,288,91801,1,2,0:0:0:0:
352,288,91876,1,2,0:0:0:0:
352,288,91952,1,2,0:0:0:0:
352,288,92028,1,2,0:0:0:0:
128,96,92104,1,0,0:0:0:0:
128,96,92179,1,0,0:0:0:0:
352,288,92255,1,2,0:0:0:0:
352,256,92331,1,2,0:0:0:0:
128,96,92407,1,0,0:0:0:0:
128,96,92482,1,0,0:0:0:0:
384,256,92558,1,2,0:0:0:0:
384,256,92634,1,2,0:0:0:0:
128,96,92710,1,0,0:0:0:0:
384,288,92785,1,2,0:0:0:0:
128,96,92861,1,0,0:0:0:0:
384,288,92936,1,2,0:0:0:0:
128,96,93013,1,0,0:0:0:0:
384,288,93088,1,2,0:0:0:0:
128,96,93164,1,0,0:0:0:0:
384,288,93239,1,2,0:0:0:0:
128,96,93316,1,0,0:0:0:0:
384,288,93391,1,2,0:0:0:0:
128,96,93467,1,0,0:0:0:0:
384,288,93542,1,2,0:0:0:0:
128,96,93619,1,0,0:0:0:0:
384,288,93694,1,2,0:0:0:0:
128,96,93770,1,0,0:0:0:0:
384,288,93845,1,2,0:0:0:0:
64,96,93922,1,0,0:0:0:0:
416,288,94073,1,2,0:0:0:0:
384,288,94225,1,2,0:0:0:0:
384,288,94326,1,2,0:0:0:0:
160,128,94427,1,0,0:0:0:0:
384,288,94528,1,2,0:0:0:0:
384,288,94629,1,2,0:0:0:0:
384,288,94730,1,2,0:0:0:0:
192,128,94831,1,0,0:0:0:0:
128,96,94932,1,0,0:0:0:0:
160,96,95033,1,0,0:0:0:0:
160,96,95083,1,0,0:0:0:0:
384,288,95134,1,2,0:0:0:0:
128,96,95437,1,0,0:0:0:0:
384,288,95513,1,2,0:0:0:0:
384,288,95588,1,2,0:0:0:0:
384,288,95664,1,2,0:0:0:0:
160,128,95740,1,0,0:0:0:0:
160,128,95816,1,0,0:0:0:0:
160,128,95892,1,0,0:0:0:0:
160,128,95967,1,0,0:0:0:0:
384,288,96043,1,2,0:0:0:0:
384,288,96195,1,2,0:0:0:0:
352,128,96346,1,4,0:0:0:0:
128,96,96498,1,0,0:0:0:0:
128,96,96573,1,0,0:0:0:0:
128,96,96649,1,0,0:0:0:0:
128,288,96801,1,6,0:0:0:0:
384,288,96952,1,2,0:0:0:0:
384,288,97028,1,2,0:0:0:0:
384,288,97104,1,2,0:0:0:0:
128,96,97255,1,0,0:0:0:0:
128,96,97407,1,0,0:0:0:0:
352,96,97558,1,4,0:0:0:0:
128,96,97861,1,0,0:0:0:0:
160,288,98012,1,6,0:0:0:0:
128,96,98315,1,0,0:0:0:0:
128,96,98467,1,0,0:0:0:0:
384,288,98618,1,2,0:0:0:0:
128,96,98770,1,0,0:0:0:0:
128,96,98845,1,0,0:0:0:0:
128,96,98921,1,0,0:0:0:0:
128,96,98997,1,0,0:0:0:0:
384,288,99073,1,2,0:0:0:0:
384,288,99148,1,2,0:0:0:0:
128,64,99224,1,0,0:0:0:0:
128,96,99300,1,0,0:0:0:0:
384,288,99376,1,2,0:0:0:0:
128,96,99451,1,0,0:0:0:0:
384,288,99527,1,2,0:0:0:0:
448,288,99830,1,2,0:0:0:0:
384,96,99982,1,4,0:0:0:0:
128,96,100134,1,0,0:0:0:0:
128,96,100285,1,0,0:0:0:0:
128,288,100436,1,6,0:0:0:0:
96,64,100588,1,0,0:0:0:0:
128,96,100739,1,0,0:0:0:0:
128,96,100891,1,0,0:0:0:0:
384,288,101042,1,2,0:0:0:0:
128,96,101194,1,0,0:0:0:0:
128,96,101270,1,0,0:0:0:0:
416,288,101345,1,2,0:0:0:0:
416,288,101421,1,2,0:0:0:0:
128,96,101497,1,0,0:0:0:0:
128,96,101573,1,0,0:0:0:0:
416,288,101648,1,2,0:0:0:0:
384,288,101724,1,2,0:0:0:0:
128,96,101800,1,0,0:0:0:0:
128,96,101876,1,0,0:0:0:0:
384,256,101951,1,2,0:0:0:0:
160,96,102027,1,0,0:0:0:0:
384,256,102103,1,2,0:0:0:0:
160,96,102179,1,0,0:0:0:0:
416,288,102254,1,2,0:0:0:0:
160,96,102330,1,0,0:0:0:0:
352,288,102406,1,2,0:0:0:0:
128,96,102558,1,0,0:0:0:0:
128,96,102709,1,0,0:0:0:0:
160,288,102861,1,6,0:0:0:0:
160,96,103012,1,0,0:0:0:0:
160,96,103164,1,0,0:0:0:0:
416,288,103315,1,2,0:0:0:0:
160,96,103467,1,0,0:0:0:0:
160,96,103618,1,0,0:0:0:0:
160,96,103694,1,0,0:0:0:0:
128,96,103770,1,0,0:0:0:0:
128,96,103845,1,0,0:0:0:0:
384,288,103921,1,2,0:0:0:0:
384,288,103997,1,2,0:0:0:0:
384,288,104073,1,2,0:0:0:0:
384,288,104148,1,2,0:0:0:0:
160,96,104224,1,0,0:0:0:0:
160,96,104300,1,0,0:0:0:0:
352,288,104376,1,2,0:0:0:0:
128,96,104528,1,0,0:0:0:0:
160,256,104679,1,6,0:0:0:0:
384,128,104830,1,4,0:0:0:0:
128,96,104982,1,0,0:0:0:0:
128,96,105133,1,0,0:0:0:0:
160,288,105285,1,6,0:0:0:0:
128,96,105436,1,0,0:0:0:0:
128,96,105588,1,0,0:0:0:0:
384,288,105739,1,2,0:0:0:0:
160,96,105891,1,0,0:0:0:0:
160,96,105967,1,0,0:0:0:0:
384,288,106042,1,2,0:0:0:0:
384,288,106118,1,2,0:0:0:0:
160,96,106194,1,0,0:0:0:0:
128,96,106270,1,0,0:0:0:0:
384,288,106345,1,2,0:0:0:0:
384,288,106421,1,2,0:0:0:0:
416,320,106498,1,2,0:0:0:0:
416,320,106573,1,2,0:0:0:0:
160,96,106649,1,0,0:0:0:0:
160,96,106725,1,0,0:0:0:0:
160,128,106800,1,0,0:0:0:0:
160,128,106876,1,0,0:0:0:0:
384,256,106951,1,2,0:0:0:0:
384,256,107027,1,2,0:0:0:0:
128,96,107103,1,0,0:0:0:0:
128,96,107179,1,0,0:0:0:0:
160,96,107254,1,0,0:0:0:0:
128,96,107406,1,0,0:0:0:0:
128,96,107557,1,0,0:0:0:0:
128,288,107709,1,6,0:0:0:0:
384,288,107861,1,2,0:0:0:0:
384,288,108012,1,2,0:0:0:0:
384,96,108164,1,4,0:0:0:0:
128,96,108315,1,0,0:0:0:0:
128,96,108467,1,0,0:0:0:0:
128,288,108618,1,6,0:0:0:0:
128,96,108770,1,0,0:0:0:0:
128,96,108921,1,0,0:0:0:0:
128,288,109073,1,6,0:0:0:0:
128,96,109224,1,0,0:0:0:0:
128,96,109376,1,0,0:0:0:0:
128,96,109451,1,0,0:0:0:0:
128,96,109527,1,0,0:0:0:0:
128,96,109603,1,0,0:0:0:0:
384,288,109679,1,2,0:0:0:0:
128,96,109982,1,0,0:0:0:0:
128,96,110133,1,0,0:0:0:0:
128,96,110285,1,0,0:0:0:0:
128,96,110361,1,0,0:0:0:0:
128,96,110436,1,0,0:0:0:0:
128,96,110512,1,0,0:0:0:0:
384,288,110588,1,2,0:0:0:0:
384,288,110664,1,2,0:0:0:0:
384,288,110739,1,2,0:0:0:0:
384,288,110815,1,2,0:0:0:0:
128,128,110891,1,0,0:0:0:0:
128,128,110967,1,0,0:0:0:0:
128,96,111042,1,0,0:0:0:0:
128,96,111118,1,0,0:0:0:0:
416,288,111194,1,2,0:0:0:0:
384,288,111270,1,2,0:0:0:0:
384,288,111345,1,2,0:0:0:0:
384,288,111421,1,2,0:0:0:0:
128,96,111497,1,0,0:0:0:0:
128,96,111573,1,0,0:0:0:0:
384,256,111648,1,2,0:0:0:0:
384,256,111724,1,2,0:0:0:0:
128,96,111800,1,0,0:0:0:0:
128,96,111876,1,0,0:0:0:0:
384,288,111951,1,2,0:0:0:0:
384,288,112027,1,2,0:0:0:0:
352,128,112103,1,4,0:0:0:0:
256,192,112407,12,0,114528,0:0:0:0:
