osu file format v14

[General]
AudioFilename: audio.mp3
AudioLeadIn: 0
PreviewTime: 34560
Countdown: 0
SampleSet: Soft
StackLeniency: 0.7
Mode: 3
LetterboxInBreaks: 0
SpecialStyle: 0
WidescreenStoryboard: 0

[Editor]
Bookmarks: 621,12742,15166,20014,24863,34560,44257,51530,53954,58802,63651,68499,73348,78196,78499,87893,88196,97590,107287,109711,112136,114560
DistanceSpacing: 1
BeatDivisor: 4
GridSize: 8
TimelineZoom: 1.7

[Metadata]
Title:Enigma
TitleUnicode:Enigma
Artist:Toromaru
ArtistUnicode:とろまる
Creator:Kawawa
Version:EXHAUST
Source:SOUND VOLTEX III GRAVITY WARS
Tags:Piano The 5th KACオリジナル楽曲コンテスト Original Song Contest KONAMI BEMANI
BeatmapID:946876
BeatmapSetID:440024

[Difficulty]
HPDrainRate:8.5
CircleSize:7
OverallDifficulty:8
ApproachRate:5
SliderMultiplier:1.4
SliderTickRate:1

[Events]
//Background and Video events
0,0,"Background loli.jpg",0,0
//Break Periods
//Storyboard Layer 0 (Background)
//Storyboard Layer 1 (Fail)
//Storyboard Layer 2 (Pass)
//Storyboard Layer 3 (Foreground)
//Storyboard Sound Samples

[TimingPoints]
621,303.030303030303,4,2,1,30,1,0
12742,-100,4,2,1,30,0,1
15166,-100,4,2,1,30,0,0
51530,-100,4,2,1,30,0,1
53954,-100,4,2,1,30,0,0
78196,-250,4,2,1,30,0,0
78348,-62.5,4,2,1,30,0,0
78499,-100,4,2,1,30,0,0
87893,-250,4,2,1,30,0,0
88045,-62.5,4,2,1,30,0,0
88196,-100,4,2,1,30,0,0
109711,-100,4,2,1,30,0,1
112136,-100,4,2,1,30,0,0

[HitObjects]
182,192,621,5,0,0:0:0:70:BassD.wav
36,192,621,1,0,0:0:0:70:CrashL.wav
475,192,621,128,0,772:0:0:0:0:
329,192,772,128,0,924:0:0:0:0:
475,192,924,128,0,1075:0:0:0:0:
329,192,1075,1,0,0:0:0:0:
36,192,1075,1,0,0:0:0:30:CrashS.wav
182,192,1075,1,0,0:0:0:70:SnareA.wav
109,192,1075,1,0,0:0:0:0:
402,192,1378,1,0,0:0:0:0:
256,192,1378,1,0,0:0:0:0:
329,192,1530,1,0,0:0:0:0:
182,192,1530,1,0,0:0:0:0:
256,192,1681,1,0,0:0:0:0:
109,192,1681,1,0,0:0:0:0:
182,192,1833,1,0,0:0:0:0:
36,192,1833,1,0,0:0:0:0:
256,192,1908,1,0,0:0:0:0:
329,192,1984,1,0,0:0:0:0:
402,192,2060,1,0,0:0:0:0:
475,192,2136,1,0,0:0:0:0:
329,192,2211,1,0,0:0:0:0:
182,192,2287,1,0,0:0:0:0:
36,192,2363,1,0,0:0:0:0:
256,192,2439,1,0,0:0:0:0:
109,192,2514,1,0,0:0:0:0:
329,192,2590,1,0,0:0:0:0:
475,192,2590,128,0,2742:0:0:0:70:SnareA.wav
182,192,2666,1,0,0:0:0:0:
36,192,2742,1,0,0:0:0:0:
109,192,2817,1,0,0:0:0:0:
182,192,2893,1,0,0:0:0:0:
475,192,2893,128,0,3045:0:0:0:70:SnareA.wav
256,192,2969,1,0,0:0:0:0:
329,192,3045,1,0,0:0:0:70:BassD.wav
402,192,3045,1,0,0:0:0:70:CrashL.wav
36,192,3045,128,0,3196:0:0:0:0:
182,192,3196,128,0,3348:0:0:0:0:
36,192,3348,128,0,3499:0:0:0:0:
182,192,3499,1,0,0:0:0:0:
329,192,3499,1,0,0:0:0:70:SnareA.wav
402,192,3499,1,0,0:0:0:0:
475,192,3499,1,0,0:0:0:30:CrashS.wav
36,192,3802,1,0,0:0:0:0:
475,192,3802,1,0,0:0:0:0:
109,192,3954,1,0,0:0:0:0:
402,192,3954,1,0,0:0:0:0:
182,192,4105,1,0,0:0:0:0:
329,192,4105,1,0,0:0:0:0:
256,192,4257,1,0,0:0:0:0:
36,192,4257,1,0,0:0:0:0:
109,192,4333,1,0,0:0:0:0:
182,192,4408,1,0,0:0:0:0:
475,192,4408,128,0,4560:0:0:0:70:SnareA.wav
256,192,4484,1,0,0:0:0:0:
329,192,4560,1,0,0:0:0:0:
109,192,4636,1,0,0:0:0:0:
182,192,4711,1,0,0:0:0:0:
475,192,4711,128,0,4863:0:0:0:70:SnareA.wav
256,192,4787,1,0,0:0:0:0:
329,192,4863,1,0,0:0:0:0:
256,192,4939,1,0,0:0:0:0:
36,192,5014,1,0,0:0:0:0:
182,192,5014,1,0,0:0:0:70:BassS.wav
329,192,5090,1,0,0:0:0:70:BassS.wav
475,192,5090,1,0,0:0:0:0:
36,192,5166,1,0,0:0:0:0:
182,192,5166,1,0,0:0:0:70:BassS.wav
256,192,5317,1,0,0:0:0:70:SnareA.wav
109,192,5317,1,0,0:0:0:0:
475,192,5469,1,0,0:0:0:0:
329,192,5469,128,0,5620:0:0:0:70:BassD.wav
182,192,5469,128,0,5772:0:0:0:70:CrashL.wav
402,192,5620,128,0,5772:0:0:0:0:
475,192,5772,128,0,5924:0:0:0:0:
36,192,5772,1,0,0:0:0:70:BassD.wav
36,192,5924,1,0,0:0:0:30:CrashS.wav
402,192,5924,1,0,0:0:0:0:
329,192,5924,1,0,0:0:0:0:
182,192,5924,1,0,0:0:0:70:SnareA.wav
256,192,6227,1,0,0:0:0:0:
475,192,6227,1,0,0:0:0:70:BassS.wav
182,192,6378,1,0,0:0:0:0:
402,192,6378,1,0,0:0:0:70:BassS.wav
109,192,6530,1,0,0:0:0:0:
329,192,6530,1,0,0:0:0:70:BassS.wav
402,192,6605,1,0,0:0:0:70:BassS.wav
475,192,6681,1,0,0:0:0:70:BassD.wav
36,192,6681,1,0,0:0:0:0:
182,192,6757,1,0,0:0:0:0:
329,192,6833,1,0,0:0:0:0:
256,192,6908,1,0,0:0:0:0:
182,192,6984,1,0,0:0:0:0:
475,192,6984,1,0,0:0:0:70:BassD.wav
109,192,7060,1,0,0:0:0:0:
256,192,7136,1,0,0:0:0:0:
182,192,7211,1,0,0:0:0:0:
329,192,7287,1,0,0:0:0:0:
475,192,7287,1,0,0:0:0:70:BassD.wav
256,192,7363,1,0,0:0:0:0:
182,192,7439,1,0,0:0:0:0:
36,192,7439,128,0,7590:0:0:0:70:SnareA.wav
329,192,7514,1,0,0:0:0:0:
475,192,7590,1,0,0:0:0:0:
402,192,7666,1,0,0:0:0:0:
329,192,7742,1,0,0:0:0:0:
36,192,7742,128,0,7893:0:0:0:70:SnareA.wav
256,192,7817,1,0,0:0:0:0:
109,192,7893,1,0,0:0:0:0:
475,192,7893,128,0,8045:0:0:0:70:BassD.wav
182,192,7893,128,0,8196:0:0:0:70:CrashL.wav
402,192,8045,128,0,8196:0:0:0:0:
329,192,8196,128,0,8348:0:0:0:0:
36,192,8196,1,0,0:0:0:70:BassD.wav
402,192,8348,1,0,0:0:0:0:
475,192,8348,1,0,0:0:0:30:CrashS.wav
182,192,8348,1,0,0:0:0:0:
36,192,8348,1,0,0:0:0:70:SnareA.wav
36,192,8651,1,0,0:0:0:0:
256,192,8651,1,0,0:0:0:70:BassS.wav
109,192,8802,1,0,0:0:0:0:
329,192,8802,1,0,0:0:0:70:BassS.wav
182,192,8954,1,0,0:0:0:0:
402,192,8954,1,0,0:0:0:70:BassS.wav
329,192,9030,1,0,0:0:0:70:BassS.wav
256,192,9105,1,0,0:0:0:70:BassD.wav
475,192,9105,1,0,0:0:0:0:
182,192,9181,1,0,0:0:0:0:
402,192,9257,1,0,0:0:0:0:
36,192,9257,1,0,0:0:0:0:
109,192,9257,1,0,0:0:0:70:SnareA.wav
329,192,9333,1,0,0:0:0:0:
256,192,9408,1,0,0:0:0:70:BassD.wav
182,192,9484,1,0,0:0:0:0:
475,192,9560,1,0,0:0:0:0:
36,192,9560,1,0,0:0:0:0:
109,192,9560,1,0,0:0:0:70:SnareA.wav
402,192,9636,1,0,0:0:0:0:
329,192,9711,1,0,0:0:0:70:BassS.wav
256,192,9787,1,0,0:0:0:70:BassS.wav
182,192,9863,1,0,0:0:0:70:BassS.wav
402,192,9863,1,0,0:0:0:0:
475,192,9863,1,0,0:0:0:70:SnareA.wav
109,192,9939,1,0,0:0:0:70:BassS.wav
36,192,10014,1,0,0:0:0:70:BassS.wav
109,192,10090,1,0,0:0:0:70:BassS.wav
182,192,10166,1,0,0:0:0:70:BassS.wav
402,192,10166,1,0,0:0:0:0:
475,192,10166,1,0,0:0:0:70:SnareA.wav
256,192,10242,1,0,0:0:0:70:BassS.wav
475,192,10317,1,0,0:0:0:50:CrashL.wav
36,192,10317,1,0,0:0:0:0:
329,192,10317,1,0,0:0:0:70:BassD.wav
329,192,10469,1,0,0:0:0:70:BassS.wav
109,192,10469,1,0,0:0:0:0:
182,192,10621,1,0,0:0:0:0:
329,192,10621,1,0,0:0:0:70:BassS.wav
36,192,10772,1,0,0:0:0:0:
109,192,10772,1,0,0:0:0:50:CrashL.wav
402,192,10772,1,0,0:0:0:70:BassD.wav
182,192,10924,1,0,0:0:0:0:
402,192,10924,1,0,0:0:0:70:BassS.wav
256,192,11075,1,0,0:0:0:0:
402,192,11075,1,0,0:0:0:70:BassS.wav
36,192,11227,1,0,0:0:0:0:
475,192,11227,1,0,0:0:0:70:BassD.wav
182,192,11227,1,0,0:0:0:50:CrashL.wav
256,192,11378,1,0,0:0:0:0:
475,192,11378,1,0,0:0:0:70:BassS.wav
329,192,11530,1,0,0:0:0:0:
475,192,11530,1,0,0:0:0:70:BassS.wav
182,192,11681,128,0,11984:0:0:0:70:BassD.wav
109,192,11681,128,0,11984:0:0:0:50:CrashL.wav
36,192,11681,128,0,11984:0:0:0:0:
402,192,11833,1,0,0:0:0:70:BassS.wav
402,192,11984,1,0,0:0:0:70:BassS.wav
256,192,12136,1,0,0:0:0:0:
36,192,12136,128,0,12439:0:0:0:30:CrashS.wav
109,192,12136,128,0,12439:0:0:0:70:BassD.wav
475,192,12287,128,0,12439:0:0:0:0:
402,192,12287,128,0,12439:0:0:0:0:
256,192,12439,1,0,0:0:0:70:BassS.wav
109,192,12590,1,0,0:0:0:0:
402,192,12590,1,0,0:0:0:70:BassS.wav
182,192,12666,1,0,0:0:0:0:
329,192,12666,1,0,0:0:0:70:BassS.wav
36,192,12742,1,0,0:0:0:0:
256,192,12742,1,0,0:0:0:70:BassD.wav
475,192,12742,128,0,13045:0:0:0:70:CrashL.wav
36,192,13045,1,0,0:0:0:70:SnareA.wav
402,192,13045,1,0,0:0:0:70:BassS.wav
329,192,13121,1,0,0:0:0:70:BassS.wav
256,192,13196,1,0,0:0:0:70:BassS.wav
36,192,13196,1,0,0:0:0:0:
182,192,13272,1,0,0:0:0:70:BassS.wav
109,192,13348,1,0,0:0:0:0:
475,192,13348,1,0,0:0:0:70:BassS.wav
402,192,13424,1,0,0:0:0:70:BassS.wav
109,192,13499,1,0,0:0:0:0:
329,192,13499,1,0,0:0:0:70:BassS.wav
256,192,13575,1,0,0:0:0:70:BassS.wav
475,192,13651,1,0,0:0:0:70:BassS.wav
182,192,13651,1,0,0:0:0:0:
402,192,13727,1,0,0:0:0:70:BassS.wav
182,192,13802,1,0,0:0:0:0:
329,192,13802,1,0,0:0:0:70:BassS.wav
402,192,13878,1,0,0:0:0:70:BassS.wav
36,192,13954,1,0,0:0:0:70:BassS.wav
475,192,13954,1,0,0:0:0:0:
109,192,14030,1,0,0:0:0:70:BassS.wav
182,192,14105,1,0,0:0:0:70:BassS.wav
475,192,14105,1,0,0:0:0:0:
256,192,14181,1,0,0:0:0:70:BassS.wav
36,192,14257,1,0,0:0:0:70:BassS.wav
329,192,14257,1,0,0:0:0:0:
109,192,14333,1,0,0:0:0:70:BassS.wav
182,192,14408,1,0,0:0:0:0:
329,192,14408,1,0,0:0:0:70:BassS.wav
402,192,14484,1,0,0:0:0:70:BassS.wav
475,192,14560,1,0,0:0:0:70:BassS.wav
36,192,14560,1,0,0:0:0:0:
402,192,14636,1,0,0:0:0:70:BassS.wav
329,192,14711,1,0,0:0:0:70:BassS.wav
36,192,14711,1,0,0:0:0:0:
256,192,14787,1,0,0:0:0:70:BassS.wav
475,192,14863,1,0,0:0:0:0:
182,192,14863,1,0,0:0:0:70:BassS.wav
402,192,14939,1,0,0:0:0:70:BassS.wav
329,192,15014,1,0,0:0:0:70:BassS.wav
182,192,15014,1,0,0:0:0:70:BassS.wav
109,192,15090,1,0,0:0:0:70:BassS.wav
256,192,15166,1,0,0:0:0:0:
36,192,15166,1,0,0:0:0:70:CrashL.wav
475,192,15166,1,0,0:0:0:70:BassD.wav
182,192,15469,128,0,15621:0:0:0:0:
329,192,15469,128,0,15621:0:0:0:70:SnareA.wav
36,192,15469,128,0,15772:0:0:0:0:
329,192,15772,1,0,0:0:0:70:BassD.wav
182,192,15772,1,0,0:0:0:0:
36,192,15924,128,0,16075:0:0:0:0:
329,192,16075,1,0,0:0:0:70:SnareA.wav
109,192,16075,128,0,16227:0:0:0:0:
182,192,16227,128,0,16378:0:0:0:0:
402,192,16227,1,0,0:0:0:70:BassD.wav
475,192,16378,1,0,0:0:0:0:
36,192,16378,1,0,0:0:0:0:
402,192,16479,1,0,0:0:0:0:
329,192,16580,1,0,0:0:0:0:
256,192,16580,1,0,0:0:0:70:BassS.wav
109,192,16681,1,0,0:0:0:70:SnareA.wav
36,192,16681,1,0,0:0:0:0:
402,192,16782,1,0,0:0:0:0:
329,192,16782,1,0,0:0:0:70:BassS.wav
182,192,16883,1,0,0:0:0:70:BassS.wav
109,192,16883,1,0,0:0:0:0:
256,192,16984,1,0,0:0:0:0:
329,192,17085,1,0,0:0:0:0:
475,192,17186,1,0,0:0:0:0:
402,192,17186,1,0,0:0:0:70:BassS.wav
109,192,17287,1,0,0:0:0:70:SnareA.wav
36,192,17287,1,0,0:0:0:0:
402,192,17388,1,0,0:0:0:0:
329,192,17388,1,0,0:0:0:70:BassS.wav
182,192,17489,1,0,0:0:0:70:BassS.wav
109,192,17489,1,0,0:0:0:0:
475,192,17590,1,0,0:0:0:0:
256,192,17590,128,0,17893:0:0:0:70:CrashL.wav
402,192,17590,1,0,0:0:0:70:BassD.wav
109,192,17893,1,0,0:0:0:70:SnareA.wav
36,192,17893,1,0,0:0:0:0:
475,192,17893,128,0,18045:0:0:0:0:
329,192,18045,128,0,18196:0:0:0:0:
475,192,18196,1,0,0:0:0:70:BassD.wav
36,192,18196,128,0,18348:0:0:0:0:
182,192,18348,128,0,18499:0:0:0:0:
36,192,18499,1,0,0:0:0:70:SnareA.wav
329,192,18499,128,0,18651:0:0:0:0:
36,192,18651,1,0,0:0:0:70:BassD.wav
475,192,18651,128,0,18802:0:0:0:0:
36,192,18802,1,0,0:0:0:70:BassD.wav
109,192,18802,1,0,0:0:0:0:
256,192,18802,1,0,0:0:0:30:CrashS.wav
329,192,18903,1,0,0:0:0:0:
182,192,19004,1,0,0:0:0:0:
402,192,19004,1,0,0:0:0:70:BassS.wav
256,192,19105,1,0,0:0:0:30:CrashS.wav
109,192,19105,1,0,0:0:0:0:
36,192,19105,1,0,0:0:0:70:SnareA.wav
329,192,19206,1,0,0:0:0:0:
182,192,19307,1,0,0:0:0:0:
402,192,19307,1,0,0:0:0:70:BassS.wav
475,192,19408,1,0,0:0:0:70:BassS.wav
36,192,19408,1,0,0:0:0:0:
256,192,19408,1,0,0:0:0:30:CrashS.wav
402,192,19509,1,0,0:0:0:70:BassS.wav
109,192,19509,1,0,0:0:0:0:
329,192,19610,1,0,0:0:0:70:BassS.wav
182,192,19610,1,0,0:0:0:0:
475,192,19711,1,0,0:0:0:70:BassS.wav
256,192,19711,1,0,0:0:0:30:CrashS.wav
36,192,19711,1,0,0:0:0:0:
402,192,19812,1,0,0:0:0:70:BassS.wav
109,192,19812,1,0,0:0:0:0:
329,192,19913,1,0,0:0:0:70:BassS.wav
182,192,19913,1,0,0:0:0:0:
256,192,20014,128,0,20317:0:0:0:0:
109,192,20317,128,0,20621:0:0:0:70:CrashL.wav
475,192,20317,128,0,20469:0:0:0:0:
402,192,20317,128,0,20469:0:0:0:70:SnareA.wav
402,192,20621,1,0,0:0:0:70:BassD.wav
475,192,20621,1,0,0:0:0:0:
109,192,20772,128,0,20924:0:0:0:0:
329,192,20924,1,0,0:0:0:70:SnareA.wav
182,192,20924,128,0,21075:0:0:0:0:
402,192,21075,1,0,0:0:0:70:BassD.wav
256,192,21075,128,0,21227:0:0:0:0:
475,192,21227,1,0,0:0:0:0:
36,192,21227,1,0,0:0:0:0:
402,192,21328,1,0,0:0:0:0:
329,192,21429,1,0,0:0:0:0:
109,192,21429,1,0,0:0:0:70:BassS.wav
36,192,21530,1,0,0:0:0:70:SnareA.wav
256,192,21530,1,0,0:0:0:0:
402,192,21631,1,0,0:0:0:70:BassS.wav
182,192,21631,1,0,0:0:0:0:
329,192,21732,1,0,0:0:0:70:BassS.wav
109,192,21732,1,0,0:0:0:0:
36,192,21833,1,0,0:0:0:0:
109,192,21934,1,0,0:0:0:0:
402,192,22035,1,0,0:0:0:0:
182,192,22035,1,0,0:0:0:70:BassS.wav
256,192,22136,1,0,0:0:0:70:SnareA.wav
475,192,22136,1,0,0:0:0:0:
329,192,22237,1,0,0:0:0:70:BassS.wav
109,192,22237,1,0,0:0:0:0:
182,192,22338,1,0,0:0:0:0:
402,192,22338,1,0,0:0:0:70:BassS.wav
475,192,22439,1,0,0:0:0:70:BassD.wav
36,192,22439,1,0,0:0:0:70:CrashL.wav
256,192,22439,128,0,22742:0:0:0:0:
475,192,22742,1,0,0:0:0:70:SnareA.wav
36,192,22742,1,0,0:0:0:0:
109,192,22817,1,0,0:0:0:0:
182,192,22893,1,0,0:0:0:0:
256,192,22969,1,0,0:0:0:0:
329,192,23045,1,0,0:0:0:0:
36,192,23045,1,0,0:0:0:70:BassD.wav
475,192,23121,1,0,0:0:0:0:
402,192,23196,1,0,0:0:0:0:
329,192,23272,1,0,0:0:0:0:
256,192,23348,1,0,0:0:0:70:SnareA.wav
182,192,23348,1,0,0:0:0:0:
256,192,23499,1,0,0:0:0:70:BassS.wav
182,192,23499,1,0,0:0:0:0:
329,192,23575,1,0,0:0:0:70:BassS.wav
109,192,23575,1,0,0:0:0:0:
402,192,23651,1,0,0:0:0:70:BassD.wav
36,192,23651,1,0,0:0:0:30:CrashS.wav
109,192,23752,1,0,0:0:0:0:
329,192,23752,1,0,0:0:0:70:BassS.wav
182,192,23853,1,0,0:0:0:0:
256,192,23853,1,0,0:0:0:70:BassS.wav
109,192,23954,1,0,0:0:0:30:CrashS.wav
475,192,23954,1,0,0:0:0:70:BassD.wav
182,192,24055,1,0,0:0:0:0:
402,192,24055,1,0,0:0:0:70:BassS.wav
256,192,24156,1,0,0:0:0:0:
329,192,24156,1,0,0:0:0:70:BassS.wav
109,192,24257,1,0,0:0:0:70:BassD.wav
36,192,24257,1,0,0:0:0:30:CrashS.wav
182,192,24358,1,0,0:0:0:0:
256,192,24358,1,0,0:0:0:70:BassS.wav
402,192,24459,1,0,0:0:0:0:
329,192,24459,1,0,0:0:0:70:BassS.wav
109,192,24560,1,0,0:0:0:30:CrashS.wav
182,192,24560,1,0,0:0:0:70:BassD.wav
256,192,24661,1,0,0:0:0:0:
329,192,24661,1,0,0:0:0:70:BassS.wav
402,192,24762,1,0,0:0:0:70:BassS.wav
475,192,24762,1,0,0:0:0:0:
182,192,24863,1,0,0:0:0:0:
109,192,24863,1,0,0:0:0:0:
36,192,24863,1,0,0:0:0:70:BassD.wav
256,192,24863,1,0,0:0:0:70:CrashL.wav
36,192,25166,1,0,0:0:0:70:SnareA.wav
182,192,25166,1,0,0:0:0:0:
475,192,25317,128,0,25469:0:0:0:0:
109,192,25317,1,0,0:0:0:0:
402,192,25469,128,0,25621:0:0:0:0:
329,192,25621,128,0,25772:0:0:0:0:
109,192,25621,1,0,0:0:0:70:BassD.wav
475,192,25772,128,0,25924:0:0:0:0:
182,192,25772,1,0,0:0:0:70:SnareA.wav
36,192,25772,1,0,0:0:0:0:
329,192,25924,128,0,26075:0:0:0:0:
475,192,26075,128,0,26833:0:0:0:0:
109,192,26075,1,0,0:0:0:70:BassD.wav
109,192,26227,1,0,0:0:0:70:BassD.wav
182,192,26378,1,0,0:0:0:70:SnareA.wav
36,192,26378,1,0,0:0:0:0:
329,192,26530,128,0,26833:0:0:0:0:
182,192,26833,1,0,0:0:0:70:BassD.wav
329,192,26984,1,0,0:0:0:0:
182,192,26984,1,0,0:0:0:70:SnareA.wav
36,192,26984,1,0,0:0:0:0:
109,192,27136,1,0,0:0:0:0:
475,192,27287,128,0,28045:0:0:0:0:
182,192,27287,1,0,0:0:0:70:BassD.wav
329,192,27287,128,0,27590:0:0:0:0:
36,192,27590,1,0,0:0:0:0:
182,192,27590,1,0,0:0:0:70:SnareA.wav
329,192,27742,128,0,28045:0:0:0:0:
182,192,27742,1,0,0:0:0:0:
36,192,27742,128,0,28045:0:0:0:0:
182,192,28045,1,0,0:0:0:70:BassD.wav
36,192,28196,1,0,0:0:0:70:SnareA.wav
182,192,28196,128,0,28499:0:0:0:0:
256,192,28272,128,0,28499:0:0:0:0:
329,192,28348,128,0,28499:0:0:0:0:
402,192,28424,128,0,28499:0:0:0:0:
475,192,28499,1,0,0:0:0:0:
36,192,28499,1,0,0:0:0:70:BassD.wav
109,192,28575,1,0,0:0:0:0:
182,192,28651,1,0,0:0:0:0:
256,192,28727,1,0,0:0:0:0:
329,192,28802,1,0,0:0:0:0:
109,192,28802,1,0,0:0:0:70:BassD.wav
182,192,28878,1,0,0:0:0:0:
256,192,28954,1,0,0:0:0:0:
329,192,29030,1,0,0:0:0:0:
402,192,29105,1,0,0:0:0:0:
182,192,29105,1,0,0:0:0:70:BassD.wav
256,192,29181,1,0,0:0:0:0:
329,192,29257,1,0,0:0:0:0:
402,192,29333,1,0,0:0:0:0:
182,192,29408,1,0,0:0:0:70:BassD.wav
475,192,29408,1,0,0:0:0:0:
182,192,29560,1,0,0:0:0:70:BassS.wav
475,192,29560,1,0,0:0:0:0:
109,192,29636,1,0,0:0:0:70:BassS.wav
402,192,29636,1,0,0:0:0:0:
256,192,29711,128,0,30014:0:0:0:70:CrashL.wav
36,192,29711,1,0,0:0:0:70:BassD.wav
329,192,29711,1,0,0:0:0:0:
475,192,30014,1,0,0:0:0:70:SnareA.wav
36,192,30014,1,0,0:0:0:0:
475,192,30166,1,0,0:0:0:0:
182,192,30166,128,0,30317:0:0:0:0:
329,192,30317,128,0,30469:0:0:0:0:
36,192,30469,1,0,0:0:0:70:BassD.wav
475,192,30469,128,0,30620:0:0:0:0:
182,192,30620,1,0,0:0:0:70:SnareA.wav
36,192,30620,1,0,0:0:0:0:
402,192,30620,128,0,30772:0:0:0:0:
329,192,30772,128,0,30924:0:0:0:0:
36,192,30924,128,0,31681:0:0:0:0:
182,192,30924,1,0,0:0:0:70:BassD.wav
182,192,31075,1,0,0:0:0:70:BassD.wav
475,192,31227,1,0,0:0:0:0:
329,192,31227,1,0,0:0:0:70:SnareA.wav
182,192,31378,128,0,31681:0:0:0:0:
329,192,31681,1,0,0:0:0:70:BassD.wav
36,192,31833,1,0,0:0:0:0:
329,192,31833,1,0,0:0:0:70:SnareA.wav
182,192,31833,1,0,0:0:0:0:
402,192,31908,1,0,0:0:0:70:BassS.wav
109,192,31984,1,0,0:0:0:0:
475,192,31984,1,0,0:0:0:70:BassS.wav
182,192,32136,1,0,0:0:0:70:BassD.wav
475,192,32136,1,0,0:0:0:0:
256,192,32211,1,0,0:0:0:0:
329,192,32287,1,0,0:0:0:0:
109,192,32287,1,0,0:0:0:0:
402,192,32363,1,0,0:0:0:0:
36,192,32439,1,0,0:0:0:70:BassD.wav
475,192,32439,1,0,0:0:0:0:
109,192,32514,1,0,0:0:0:0:
182,192,32590,1,0,0:0:0:0:
402,192,32590,1,0,0:0:0:0:
256,192,32666,1,0,0:0:0:0:
109,192,32742,1,0,0:0:0:70:BassD.wav
329,192,32742,1,0,0:0:0:0:
182,192,32817,1,0,0:0:0:0:
256,192,32893,1,0,0:0:0:0:
475,192,32893,1,0,0:0:0:0:
329,192,32969,1,0,0:0:0:0:
402,192,33045,1,0,0:0:0:0:
182,192,33045,1,0,0:0:0:70:BassD.wav
256,192,33120,1,0,0:0:0:0:
329,192,33196,1,0,0:0:0:0:
109,192,33196,1,0,0:0:0:0:
402,192,33272,1,0,0:0:0:0:
475,192,33348,128,0,34560:0:0:0:30:CrashS.wav
256,192,33348,1,0,0:0:0:70:BassD.wav
36,192,33348,1,0,0:0:0:0:
109,192,33424,1,0,0:0:0:0:
182,192,33499,1,0,0:0:0:0:
256,192,33575,1,0,0:0:0:0:
329,192,33651,1,0,0:0:0:0:
402,192,33727,1,0,0:0:0:0:
329,192,33802,1,0,0:0:0:0:
256,192,33878,1,0,0:0:0:0:
36,192,33954,128,0,34560:0:0:0:0:
109,192,33954,1,0,0:0:0:0:
182,192,33954,1,0,0:0:0:30:BassS.wav
402,192,34030,1,0,0:0:0:0:
329,192,34030,1,0,0:0:0:30:BassS.wav
109,192,34105,1,0,0:0:0:0:
182,192,34105,1,0,0:0:0:30:BassS.wav
329,192,34181,1,0,0:0:0:30:BassS.wav
402,192,34181,1,0,0:0:0:0:
182,192,34257,1,0,0:0:0:30:BassS.wav
109,192,34257,1,0,0:0:0:0:
329,192,34333,1,0,0:0:0:30:BassS.wav
402,192,34333,1,0,0:0:0:0:
109,192,34408,1,0,0:0:0:0:
182,192,34408,1,0,0:0:0:30:BassS.wav
329,192,34484,1,0,0:0:0:30:BassS.wav
402,192,34484,1,0,0:0:0:0:
256,192,34560,1,0,0:0:0:70:CrashL.wav
182,192,34560,1,0,0:0:0:30:BassS.wav
109,192,34560,1,0,0:0:0:0:
182,192,34711,1,0,0:0:0:0:
256,192,34711,1,0,0:0:0:0:
402,192,34863,1,0,0:0:0:0:
36,192,34863,128,0,35014:0:0:0:50:KickS.wav
475,192,34863,1,0,0:0:0:0:
109,192,35014,1,0,0:0:0:0:
182,192,35090,1,0,0:0:0:0:
329,192,35166,1,0,0:0:0:70:BassD.wav
256,192,35166,1,0,0:0:0:0:
329,192,35317,1,0,0:0:0:0:
256,192,35317,1,0,0:0:0:0:
36,192,35469,1,0,0:0:0:0:
475,192,35469,128,0,35620:0:0:0:50:KickS.wav
109,192,35545,1,0,0:0:0:0:
182,192,35620,1,0,0:0:0:0:
256,192,35696,1,0,0:0:0:0:
402,192,35772,1,0,0:0:0:0:
329,192,35772,1,0,0:0:0:70:BassD.wav
329,192,35924,1,0,0:0:0:0:
402,192,35924,1,0,0:0:0:0:
36,192,36075,128,0,36227:0:0:0:50:KickS.wav
475,192,36075,1,0,0:0:0:0:
329,192,36151,1,0,0:0:0:0:
109,192,36227,1,0,0:0:0:0:
256,192,36302,1,0,0:0:0:0:
475,192,36378,1,0,0:0:0:0:
402,192,36378,1,0,0:0:0:70:BassD.wav
475,192,36530,1,0,0:0:0:0:
402,192,36530,1,0,0:0:0:0:
182,192,36681,1,0,0:0:0:70:SnareA.wav
36,192,36681,1,0,0:0:0:0:
36,192,36833,1,0,0:0:0:0:
256,192,36833,1,0,0:0:0:70:SnareA.wav
475,192,36984,1,0,0:0:0:70:CrashL.wav
36,192,36984,1,0,0:0:0:0:
329,192,36984,1,0,0:0:0:70:BassD.wav
475,192,37136,1,0,0:0:0:0:
329,192,37136,1,0,0:0:0:0:
36,192,37287,128,0,37439:0:0:0:50:KickS.wav
109,192,37287,1,0,0:0:0:0:
182,192,37287,1,0,0:0:0:0:
475,192,37439,1,0,0:0:0:0:
329,192,37514,1,0,0:0:0:0:
182,192,37590,1,0,0:0:0:70:BassD.wav
36,192,37590,1,0,0:0:0:0:
36,192,37742,1,0,0:0:0:0:
182,192,37742,1,0,0:0:0:0:
475,192,37893,128,0,38045:0:0:0:50:KickS.wav
402,192,37893,1,0,0:0:0:0:
329,192,37969,1,0,0:0:0:0:
256,192,38045,1,0,0:0:0:0:
182,192,38120,1,0,0:0:0:0:
109,192,38196,1,0,0:0:0:0:
402,192,38196,1,0,0:0:0:70:BassD.wav
109,192,38348,1,0,0:0:0:0:
402,192,38348,1,0,0:0:0:0:
36,192,38499,128,0,38651:0:0:0:50:KickS.wav
182,192,38499,1,0,0:0:0:0:
256,192,38575,1,0,0:0:0:0:
329,192,38651,1,0,0:0:0:70:BassS.wav
475,192,38651,1,0,0:0:0:0:
256,192,38727,1,0,0:0:0:0:
36,192,38802,1,0,0:0:0:0:
182,192,38802,1,0,0:0:0:70:Stick.wav
109,192,38802,1,0,0:0:0:0:
36,192,38954,128,0,39105:0:0:0:0:
109,192,38954,128,0,39105:0:0:0:0:
182,192,38954,128,0,39105:0:0:0:70:Stick.wav
402,192,39105,1,0,0:0:0:0:
329,192,39105,1,0,0:0:0:70:Stick.wav
475,192,39105,1,0,0:0:0:0:
329,192,39257,128,0,39408:0:0:0:70:Stick.wav
402,192,39257,128,0,39408:0:0:0:0:
475,192,39257,128,0,39408:0:0:0:0:
36,192,39408,1,0,0:0:0:0:
182,192,39408,1,0,0:0:0:70:BassD.wav
109,192,39408,1,0,0:0:0:70:CrashL.wav
256,192,39408,1,0,0:0:0:0:
182,192,39560,1,0,0:0:0:0:
256,192,39560,1,0,0:0:0:0:
402,192,39711,1,0,0:0:0:0:
475,192,39711,1,0,0:0:0:0:
36,192,39711,128,0,39863:0:0:0:50:KickS.wav
109,192,39863,1,0,0:0:0:0:
182,192,39939,1,0,0:0:0:0:
256,192,40014,1,0,0:0:0:70:BassD.wav
402,192,40014,1,0,0:0:0:0:
402,192,40166,1,0,0:0:0:0:
256,192,40166,1,0,0:0:0:0:
475,192,40317,128,0,40469:0:0:0:50:KickS.wav
329,192,40317,1,0,0:0:0:0:
182,192,40393,1,0,0:0:0:0:
36,192,40469,1,0,0:0:0:0:
109,192,40545,1,0,0:0:0:0:
182,192,40620,1,0,0:0:0:0:
402,192,40620,1,0,0:0:0:70:BassD.wav
182,192,40772,1,0,0:0:0:0:
402,192,40772,1,0,0:0:0:0:
36,192,40924,128,0,41075:0:0:0:50:KickS.wav
475,192,40924,1,0,0:0:0:0:
402,192,40999,1,0,0:0:0:0:
329,192,41075,1,0,0:0:0:0:
256,192,41151,1,0,0:0:0:0:
182,192,41227,1,0,0:0:0:70:BassD.wav
109,192,41227,1,0,0:0:0:0:
36,192,41227,1,0,0:0:0:0:
182,192,41378,128,0,41530:0:0:0:0:
109,192,41378,128,0,41530:0:0:0:0:
36,192,41378,128,0,41530:0:0:0:0:
329,192,41530,128,0,41681:0:0:0:70:SnareA.wav
402,192,41530,128,0,41681:0:0:0:0:
475,192,41530,128,0,41681:0:0:0:0:
182,192,41681,128,0,41833:0:0:0:70:SnareA.wav
109,192,41681,128,0,41833:0:0:0:0:
36,192,41681,128,0,41833:0:0:0:0:
329,192,41833,1,0,0:0:0:30:CrashS.wav
475,192,41833,1,0,0:0:0:0:
402,192,41833,1,0,0:0:0:70:BassD.wav
182,192,41934,1,0,0:0:0:0:
256,192,41934,1,0,0:0:0:70:BassS.wav
109,192,42035,1,0,0:0:0:70:BassS.wav
36,192,42035,1,0,0:0:0:0:
402,192,42136,1,0,0:0:0:30:CrashS.wav
475,192,42136,1,0,0:0:0:70:BassD.wav
329,192,42237,1,0,0:0:0:70:BassS.wav
256,192,42237,1,0,0:0:0:0:
182,192,42338,1,0,0:0:0:70:BassS.wav
109,192,42338,1,0,0:0:0:0:
256,192,42439,1,0,0:0:0:30:CrashS.wav
36,192,42439,1,0,0:0:0:70:BassD.wav
109,192,42540,1,0,0:0:0:0:
329,192,42540,1,0,0:0:0:70:BassS.wav
402,192,42641,1,0,0:0:0:70:BassS.wav
182,192,42641,1,0,0:0:0:0:
109,192,42742,1,0,0:0:0:70:BassD.wav
329,192,42742,1,0,0:0:0:30:CrashS.wav
402,192,42843,1,0,0:0:0:70:BassS.wav
182,192,42843,1,0,0:0:0:0:
475,192,42944,1,0,0:0:0:70:BassS.wav
256,192,42944,1,0,0:0:0:0:
329,192,43045,1,0,0:0:0:70:BassS.wav
109,192,43045,1,0,0:0:0:0:
109,192,43196,128,0,43348:0:0:0:0:
329,192,43196,128,0,43348:0:0:0:0:
182,192,43348,1,0,0:0:0:0:
402,192,43348,1,0,0:0:0:70:BassS.wav
182,192,43499,128,0,43651:0:0:0:0:
402,192,43499,128,0,43651:0:0:0:70:BassS.wav
256,192,43651,1,0,0:0:0:0:
475,192,43651,1,0,0:0:0:70:BassS.wav
256,192,43802,128,0,43954:0:0:0:0:
475,192,43802,128,0,43954:0:0:0:70:BassS.wav
109,192,43954,1,0,0:0:0:70:BassS.wav
36,192,43954,1,0,0:0:0:0:
109,192,44105,128,0,44257:0:0:0:70:BassS.wav
36,192,44105,128,0,44257:0:0:0:0:
256,192,44257,1,0,0:0:0:70:CrashL.wav
475,192,44257,1,0,0:0:0:0:
402,192,44257,1,0,0:0:0:0:
329,192,44257,1,0,0:0:0:70:BassD.wav
329,192,44408,128,0,44560:0:0:0:0:
402,192,44408,128,0,44560:0:0:0:0:
475,192,44408,128,0,44560:0:0:0:0:
182,192,44560,1,0,0:0:0:50:KickS.wav
36,192,44560,1,0,0:0:0:0:
109,192,44560,1,0,0:0:0:0:
256,192,44636,1,0,0:0:0:0:
329,192,44711,1,0,0:0:0:0:
402,192,44787,1,0,0:0:0:0:
475,192,44863,1,0,0:0:0:70:BassD.wav
182,192,44863,1,0,0:0:0:0:
329,192,44939,1,0,0:0:0:0:
256,192,45014,1,0,0:0:0:0:
182,192,45090,1,0,0:0:0:0:
329,192,45166,1,0,0:0:0:50:KickS.wav
475,192,45166,1,0,0:0:0:0:
109,192,45166,1,0,0:0:0:0:
36,192,45242,1,0,0:0:0:0:
182,192,45317,1,0,0:0:0:0:
329,192,45393,1,0,0:0:0:0:
475,192,45469,1,0,0:0:0:0:
36,192,45469,1,0,0:0:0:70:BassD.wav
402,192,45545,1,0,0:0:0:0:
329,192,45620,1,0,0:0:0:0:
256,192,45696,1,0,0:0:0:0:
475,192,45772,1,0,0:0:0:50:KickS.wav
402,192,45772,1,0,0:0:0:0:
182,192,45772,1,0,0:0:0:0:
109,192,45848,1,0,0:0:0:0:
256,192,45924,1,0,0:0:0:0:
182,192,45999,1,0,0:0:0:0:
475,192,46075,1,0,0:0:0:0:
329,192,46075,1,0,0:0:0:70:BassD.wav
256,192,46151,1,0,0:0:0:0:
182,192,46227,1,0,0:0:0:0:
109,192,46302,1,0,0:0:0:0:
36,192,46378,1,0,0:0:0:0:
402,192,46378,1,0,0:0:0:70:SnareA.wav
475,192,46378,1,0,0:0:0:50:KickS.wav
109,192,46530,1,0,0:0:0:0:
329,192,46530,1,0,0:0:0:70:BassD.wav
475,192,46681,1,0,0:0:0:70:BassD.wav
256,192,46681,1,0,0:0:0:70:CrashL.wav
182,192,46681,1,0,0:0:0:0:
182,192,46833,128,0,46984:0:0:0:0:
475,192,46833,128,0,46984:0:0:0:0:
256,192,46833,128,0,46984:0:0:0:0:
329,192,46984,1,0,0:0:0:0:
402,192,46984,1,0,0:0:0:0:
36,192,46984,1,0,0:0:0:50:KickS.wav
109,192,47060,1,0,0:0:0:0:
182,192,47136,1,0,0:0:0:0:
256,192,47211,1,0,0:0:0:0:
329,192,47287,1,0,0:0:0:70:BassD.wav
475,192,47287,1,0,0:0:0:0:
36,192,47363,1,0,0:0:0:0:
182,192,47439,1,0,0:0:0:0:
329,192,47514,1,0,0:0:0:0:
36,192,47590,1,0,0:0:0:0:
475,192,47590,1,0,0:0:0:50:KickS.wav
256,192,47590,1,0,0:0:0:0:
182,192,47666,1,0,0:0:0:0:
109,192,47742,1,0,0:0:0:0:
256,192,47817,1,0,0:0:0:0:
182,192,47893,1,0,0:0:0:0:
475,192,47893,1,0,0:0:0:70:BassD.wav
329,192,47969,1,0,0:0:0:0:
256,192,48045,1,0,0:0:0:0:
182,192,48120,1,0,0:0:0:0:
329,192,48196,1,0,0:0:0:50:KickS.wav
36,192,48196,1,0,0:0:0:0:
475,192,48196,1,0,0:0:0:0:
109,192,48272,1,0,0:0:0:0:
182,192,48348,1,0,0:0:0:0:
402,192,48348,1,0,0:0:0:70:BassS.wav
256,192,48424,1,0,0:0:0:0:
109,192,48499,1,0,0:0:0:70:BassS.wav
329,192,48499,1,0,0:0:0:70:Stick.wav
36,192,48499,1,0,0:0:0:0:
329,192,48651,1,0,0:0:0:70:Stick.wav
36,192,48651,1,0,0:0:0:0:
109,192,48651,1,0,0:0:0:70:BassS.wav
475,192,48802,1,0,0:0:0:0:
182,192,48802,1,0,0:0:0:70:BassS.wav
402,192,48802,1,0,0:0:0:70:Stick.wav
402,192,48954,1,0,0:0:0:70:Stick.wav
182,192,48954,1,0,0:0:0:70:BassS.wav
475,192,48954,1,0,0:0:0:0:
329,192,49030,1,0,0:0:0:70:BassS.wav
256,192,49105,1,0,0:0:0:70:BassD.wav
475,192,49105,1,0,0:0:0:70:CrashL.wav
109,192,49105,1,0,0:0:0:0:
36,192,49105,1,0,0:0:0:0:
256,192,49257,128,0,49408:0:0:0:0:
109,192,49257,128,0,49408:0:0:0:0:
36,192,49257,128,0,49408:0:0:0:0:
182,192,49408,1,0,0:0:0:0:
329,192,49408,1,0,0:0:0:0:
475,192,49408,1,0,0:0:0:50:KickS.wav
402,192,49484,1,0,0:0:0:0:
256,192,49560,1,0,0:0:0:0:
329,192,49636,1,0,0:0:0:0:
182,192,49711,1,0,0:0:0:70:BassD.wav
36,192,49711,1,0,0:0:0:0:
256,192,49787,1,0,0:0:0:0:
329,192,49863,1,0,0:0:0:0:
402,192,49939,1,0,0:0:0:0:
36,192,50014,1,0,0:0:0:0:
109,192,50014,1,0,0:0:0:0:
475,192,50014,1,0,0:0:0:50:KickS.wav
329,192,50090,1,0,0:0:0:0:
182,192,50166,1,0,0:0:0:0:
36,192,50242,1,0,0:0:0:0:
109,192,50317,1,0,0:0:0:0:
402,192,50317,1,0,0:0:0:70:BassD.wav
182,192,50393,1,0,0:0:0:0:
256,192,50469,1,0,0:0:0:0:
329,192,50545,1,0,0:0:0:0:
182,192,50620,1,0,0:0:0:50:KickS.wav
36,192,50620,1,0,0:0:0:0:
475,192,50620,1,0,0:0:0:0:
256,192,50696,1,0,0:0:0:0:
329,192,50772,1,0,0:0:0:0:
402,192,50848,1,0,0:0:0:0:
36,192,50924,1,0,0:0:0:0:
475,192,50924,1,0,0:0:0:70:BassD.wav
109,192,50999,1,0,0:0:0:0:
329,192,50999,1,0,0:0:0:0:
182,192,51075,1,0,0:0:0:0:
402,192,51075,1,0,0:0:0:0:
256,192,51151,1,0,0:0:0:0:
475,192,51151,1,0,0:0:0:0:
109,192,51227,1,0,0:0:0:0:
329,192,51227,1,0,0:0:0:50:KickS.wav
36,192,51227,1,0,0:0:0:70:SnareA.wav
402,192,51378,1,0,0:0:0:0:
36,192,51378,1,0,0:0:0:70:BassD.wav
475,192,51530,1,0,0:0:0:0:
36,192,51530,1,0,0:0:0:70:BassD.wav
256,192,51530,1,0,0:0:0:30:CrashS.wav
109,192,51631,1,0,0:0:0:0:
402,192,51631,1,0,0:0:0:70:BassS.wav
182,192,51732,1,0,0:0:0:0:
329,192,51732,1,0,0:0:0:70:BassS.wav
475,192,51833,1,0,0:0:0:0:
256,192,51833,1,0,0:0:0:30:CrashS.wav
36,192,51833,1,0,0:0:0:70:BassD.wav
109,192,51934,1,0,0:0:0:0:
329,192,51934,1,0,0:0:0:70:BassS.wav
402,192,52035,1,0,0:0:0:70:BassS.wav
182,192,52035,1,0,0:0:0:0:
256,192,52136,1,0,0:0:0:30:CrashS.wav
36,192,52136,1,0,0:0:0:70:BassD.wav
475,192,52136,1,0,0:0:0:0:
182,192,52237,1,0,0:0:0:0:
329,192,52237,1,0,0:0:0:70:BassS.wav
402,192,52338,1,0,0:0:0:70:BassS.wav
109,192,52338,1,0,0:0:0:0:
36,192,52439,1,0,0:0:0:70:BassD.wav
256,192,52439,1,0,0:0:0:30:CrashS.wav
475,192,52439,1,0,0:0:0:0:
182,192,52540,1,0,0:0:0:0:
402,192,52540,1,0,0:0:0:70:BassS.wav
109,192,52641,1,0,0:0:0:0:
329,192,52641,1,0,0:0:0:70:BassS.wav
475,192,52742,1,0,0:0:0:50:KickS.wav
36,192,52742,1,0,0:0:0:0:
256,192,52742,1,0,0:0:0:70:BassS.wav
109,192,52893,1,0,0:0:0:0:
475,192,52893,1,0,0:0:0:0:
329,192,52893,1,0,0:0:0:70:BassS.wav
402,192,53045,1,0,0:0:0:0:
36,192,53045,1,0,0:0:0:50:KickS.wav
182,192,53045,1,0,0:0:0:70:BassS.wav
329,192,53196,1,0,0:0:0:0:
109,192,53196,1,0,0:0:0:0:
182,192,53196,1,0,0:0:0:70:BassS.wav
36,192,53348,1,0,0:0:0:0:
256,192,53348,1,0,0:0:0:70:BassS.wav
475,192,53348,1,0,0:0:0:50:KickS.wav
36,192,53499,1,0,0:0:0:0:
182,192,53499,1,0,0:0:0:70:BassS.wav
402,192,53499,1,0,0:0:0:0:
109,192,53651,1,0,0:0:0:50:KickS.wav
329,192,53651,1,0,0:0:0:70:BassS.wav
475,192,53651,1,0,0:0:0:0:
182,192,53802,1,0,0:0:0:0:
329,192,53802,1,0,0:0:0:70:BassS.wav
402,192,53802,1,0,0:0:0:0:
256,192,53954,1,0,0:0:0:0:
109,192,53954,1,0,0:0:0:0:
36,192,53954,1,0,0:0:0:70:CrashL.wav
475,192,53954,1,0,0:0:0:0:
402,192,56075,128,0,56227:0:0:0:0:
109,192,56378,128,0,56530:0:0:0:0:
329,192,56984,128,0,57136:0:0:0:0:
475,192,57590,128,0,57742:0:0:0:0:
475,192,58045,1,0,0:0:0:0:
329,192,58120,1,0,0:0:0:0:
182,192,58196,128,0,58651:0:0:0:0:
36,192,58196,1,0,0:0:0:0:
402,192,58348,1,0,0:0:0:0:
329,192,58348,1,0,0:0:0:70:BassD.wav
402,192,58499,1,0,0:0:0:0:
329,192,58499,1,0,0:0:0:70:BassD.wav
402,192,58651,1,0,0:0:0:0:
329,192,58651,1,0,0:0:0:70:BassD.wav
182,192,58802,1,0,0:0:0:0:
475,192,58802,128,0,59105:0:0:0:70:CrashL.wav
36,192,58802,128,0,59105:0:0:0:0:
329,192,58802,1,0,0:0:0:70:BassD.wav
256,192,58802,1,0,0:0:0:0:
182,192,59105,1,0,0:0:0:0:
256,192,59181,1,0,0:0:0:0:
329,192,59257,1,0,0:0:0:0:
402,192,59333,1,0,0:0:0:0:
256,192,59408,1,0,0:0:0:0:
475,192,59408,1,0,0:0:0:70:SnareA.wav
36,192,59408,1,0,0:0:0:0:
182,192,59484,1,0,0:0:0:0:
109,192,59560,1,0,0:0:0:0:
256,192,59636,1,0,0:0:0:0:
182,192,59711,1,0,0:0:0:0:
329,192,59787,1,0,0:0:0:0:
256,192,59863,1,0,0:0:0:0:
475,192,59863,1,0,0:0:0:70:BassD.wav
36,192,59863,1,0,0:0:0:0:
182,192,59939,1,0,0:0:0:0:
402,192,60014,128,0,60317:0:0:0:0:
109,192,60014,128,0,60317:0:0:0:0:
182,192,60317,1,0,0:0:0:70:BassD.wav
329,192,60317,1,0,0:0:0:0:
36,192,60317,1,0,0:0:0:0:
256,192,60393,1,0,0:0:0:0:
402,192,60469,1,0,0:0:0:0:
329,192,60545,1,0,0:0:0:0:
182,192,60620,1,0,0:0:0:70:SnareA.wav
36,192,60620,1,0,0:0:0:0:
475,192,60620,1,0,0:0:0:0:
256,192,60696,1,0,0:0:0:0:
329,192,60772,1,0,0:0:0:70:BassD.wav
36,192,60772,1,0,0:0:0:0:
475,192,60772,1,0,0:0:0:0:
109,192,60848,1,0,0:0:0:0:
182,192,60924,1,0,0:0:0:0:
256,192,60999,1,0,0:0:0:0:
329,192,61075,1,0,0:0:0:0:
109,192,61075,1,0,0:0:0:70:BassS.wav
402,192,61151,1,0,0:0:0:0:
182,192,61151,1,0,0:0:0:70:BassS.wav
36,192,61227,1,0,0:0:0:70:CrashL.wav
256,192,61227,1,0,0:0:0:70:BassD.wav
475,192,61227,1,0,0:0:0:0:
109,192,61378,1,0,0:0:0:70:BassS.wav
329,192,61378,1,0,0:0:0:0:
182,192,61530,1,0,0:0:0:70:SnareA.wav
402,192,61530,1,0,0:0:0:0:
475,192,61530,1,0,0:0:0:0:
109,192,61681,1,0,0:0:0:70:BassD.wav
256,192,61681,1,0,0:0:0:0:
182,192,61833,1,0,0:0:0:70:BassS.wav
329,192,61833,1,0,0:0:0:0:
256,192,61984,1,0,0:0:0:70:SnareA.wav
402,192,61984,1,0,0:0:0:0:
475,192,61984,1,0,0:0:0:0:
182,192,62136,1,0,0:0:0:70:BassD.wav
36,192,62136,1,0,0:0:0:0:
182,192,62287,1,0,0:0:0:70:BassS.wav
329,192,62287,1,0,0:0:0:0:
109,192,62363,1,0,0:0:0:70:BassS.wav
402,192,62363,1,0,0:0:0:0:
36,192,62439,1,0,0:0:0:0:
256,192,62439,1,0,0:0:0:70:SnareA.wav
475,192,62439,1,0,0:0:0:0:
109,192,62590,1,0,0:0:0:70:BassD.wav
402,192,62590,1,0,0:0:0:0:
182,192,62742,1,0,0:0:0:70:BassS.wav
329,192,62742,1,0,0:0:0:0:
36,192,62893,1,0,0:0:0:0:
256,192,62893,1,0,0:0:0:70:SnareA.wav
475,192,62893,1,0,0:0:0:0:
402,192,63045,128,0,63348:0:0:0:0:
109,192,63045,128,0,63348:0:0:0:0:
182,192,63196,128,0,63348:0:0:0:0:
329,192,63196,128,0,63348:0:0:0:0:
36,192,63348,128,0,63651:0:0:0:0:
475,192,63348,128,0,63651:0:0:0:0:
329,192,63499,128,0,63651:0:0:0:0:
182,192,63499,128,0,63651:0:0:0:0:
109,192,63651,1,0,0:0:0:0:
256,192,63651,1,0,0:0:0:70:CrashL.wav
402,192,63651,1,0,0:0:0:70:BassD.wav
402,192,63954,1,0,0:0:0:0:
109,192,63954,1,0,0:0:0:70:SnareA.wav
329,192,64030,1,0,0:0:0:0:
256,192,64105,1,0,0:0:0:0:
182,192,64181,1,0,0:0:0:0:
109,192,64257,1,0,0:0:0:0:
475,192,64257,1,0,0:0:0:70:BassD.wav
256,192,64333,1,0,0:0:0:0:
402,192,64408,1,0,0:0:0:0:
329,192,64484,1,0,0:0:0:0:
475,192,64560,1,0,0:0:0:0:
256,192,64560,1,0,0:0:0:0:
36,192,64560,128,0,64863:0:0:0:70:SnareA.wav
182,192,64711,1,0,0:0:0:0:
329,192,64711,128,0,64863:0:0:0:0:
109,192,64863,1,0,0:0:0:70:BassD.wav
402,192,64863,1,0,0:0:0:0:
182,192,64939,1,0,0:0:0:0:
256,192,65014,1,0,0:0:0:0:
329,192,65090,1,0,0:0:0:0:
109,192,65166,1,0,0:0:0:0:
402,192,65166,1,0,0:0:0:70:SnareA.wav
182,192,65242,1,0,0:0:0:0:
256,192,65317,1,0,0:0:0:0:
329,192,65393,1,0,0:0:0:0:
402,192,65469,1,0,0:0:0:0:
109,192,65469,1,0,0:0:0:70:BassD.wav
256,192,65545,1,0,0:0:0:0:
182,192,65620,1,0,0:0:0:0:
329,192,65696,1,0,0:0:0:0:
256,192,65772,1,0,0:0:0:70:SnareA.wav
475,192,65772,1,0,0:0:0:0:
402,192,65848,1,0,0:0:0:0:
182,192,65924,1,0,0:0:0:0:
329,192,65924,1,0,0:0:0:70:BassS.wav
475,192,65999,1,0,0:0:0:70:BassS.wav
36,192,65999,1,0,0:0:0:0:
329,192,66075,1,0,0:0:0:70:BassD.wav
182,192,66075,1,0,0:0:0:0:
256,192,66075,128,0,66378:0:0:0:70:CrashL.wav
36,192,66378,1,0,0:0:0:0:
475,192,66378,1,0,0:0:0:70:SnareA.wav
182,192,66454,1,0,0:0:0:0:
329,192,66530,1,0,0:0:0:0:
109,192,66605,1,0,0:0:0:0:
256,192,66681,1,0,0:0:0:0:
475,192,66681,1,0,0:0:0:70:BassD.wav
182,192,66757,1,0,0:0:0:0:
329,192,66833,1,0,0:0:0:0:
256,192,66908,1,0,0:0:0:0:
182,192,66984,1,0,0:0:0:0:
475,192,66984,1,0,0:0:0:0:
109,192,66984,128,0,67287:0:0:0:70:SnareA.wav
256,192,67136,1,0,0:0:0:0:
402,192,67136,128,0,67287:0:0:0:0:
329,192,67287,1,0,0:0:0:70:BassD.wav
36,192,67287,1,0,0:0:0:0:
256,192,67363,1,0,0:0:0:0:
182,192,67439,1,0,0:0:0:0:
329,192,67514,1,0,0:0:0:0:
256,192,67590,1,0,0:0:0:70:SnareA.wav
475,192,67590,1,0,0:0:0:0:
36,192,67590,1,0,0:0:0:0:
402,192,67666,1,0,0:0:0:0:
329,192,67742,1,0,0:0:0:0:
109,192,67742,1,0,0:0:0:0:
256,192,67817,1,0,0:0:0:0:
182,192,67893,1,0,0:0:0:0:
475,192,67893,128,0,68045:0:0:0:70:BassD.wav
109,192,67969,1,0,0:0:0:0:
36,192,68045,1,0,0:0:0:0:
329,192,68045,128,0,68196:0:0:0:70:SnareA.wav
109,192,68120,1,0,0:0:0:0:
182,192,68196,1,0,0:0:0:0:
475,192,68196,128,0,68348:0:0:0:70:BassD.wav
256,192,68272,1,0,0:0:0:0:
109,192,68348,1,0,0:0:0:0:
329,192,68348,128,0,68499:0:0:0:70:SnareA.wav
182,192,68424,1,0,0:0:0:0:
256,192,68499,1,0,0:0:0:0:
36,192,68499,1,0,0:0:0:70:CrashL.wav
402,192,68499,1,0,0:0:0:0:
475,192,68499,1,0,0:0:0:70:BassD.wav
329,192,68651,1,0,0:0:0:0:
109,192,68651,1,0,0:0:0:70:BassS.wav
182,192,68802,128,0,69105:0:0:0:70:SnareA.wav
475,192,68802,1,0,0:0:0:0:
329,192,68802,128,0,69105:0:0:0:0:
475,192,69105,1,0,0:0:0:70:BassD.wav
36,192,69105,1,0,0:0:0:0:
402,192,69257,1,0,0:0:0:0:
182,192,69257,1,0,0:0:0:70:BassS.wav
329,192,69333,1,0,0:0:0:0:
109,192,69333,1,0,0:0:0:70:BassS.wav
475,192,69408,1,0,0:0:0:0:
36,192,69408,1,0,0:0:0:70:SnareA.wav
256,192,69408,1,0,0:0:0:0:
109,192,69560,1,0,0:0:0:70:BassS.wav
329,192,69560,1,0,0:0:0:0:
475,192,69711,1,0,0:0:0:0:
182,192,69711,1,0,0:0:0:70:BassD.wav
36,192,69863,1,0,0:0:0:0:
402,192,69863,1,0,0:0:0:70:BassS.wav
182,192,70014,1,0,0:0:0:0:
329,192,70014,128,0,70317:0:0:0:70:SnareA.wav
36,192,70014,128,0,70317:0:0:0:0:
475,192,70317,1,0,0:0:0:0:
182,192,70317,1,0,0:0:0:70:BassD.wav
36,192,70469,1,0,0:0:0:70:BassS.wav
475,192,70469,1,0,0:0:0:0:
402,192,70545,1,0,0:0:0:0:
109,192,70545,1,0,0:0:0:70:BassS.wav
182,192,70620,1,0,0:0:0:70:SnareA.wav
329,192,70620,1,0,0:0:0:0:
402,192,70772,1,0,0:0:0:70:BassS.wav
109,192,70772,1,0,0:0:0:0:
256,192,70772,1,0,0:0:0:0:
182,192,70924,1,0,0:0:0:70:CrashL.wav
36,192,70924,1,0,0:0:0:0:
475,192,70924,1,0,0:0:0:0:
329,192,70924,1,0,0:0:0:70:BassD.wav
402,192,71075,1,0,0:0:0:70:BassS.wav
109,192,71075,1,0,0:0:0:0:
182,192,71227,128,0,71530:0:0:0:0:
402,192,71227,128,0,71530:0:0:0:70:SnareA.wav
36,192,71227,1,0,0:0:0:0:
329,192,71530,1,0,0:0:0:70:BassD.wav
256,192,71530,1,0,0:0:0:0:
329,192,71681,1,0,0:0:0:70:BassS.wav
256,192,71681,1,0,0:0:0:0:
402,192,71757,1,0,0:0:0:70:BassS.wav
182,192,71757,1,0,0:0:0:0:
36,192,71833,1,0,0:0:0:0:
475,192,71833,1,0,0:0:0:70:SnareA.wav
109,192,71833,1,0,0:0:0:0:
402,192,71984,1,0,0:0:0:70:BassS.wav
182,192,71984,1,0,0:0:0:0:
256,192,72136,1,0,0:0:0:0:
329,192,72136,1,0,0:0:0:70:BassD.wav
36,192,72136,1,0,0:0:0:0:
475,192,72136,1,0,0:0:0:30:CrashS.wav
182,192,72287,1,0,0:0:0:0:
402,192,72287,1,0,0:0:0:70:BassS.wav
182,192,72439,128,0,72590:0:0:0:0:
36,192,72439,128,0,72742:0:0:0:0:
329,192,72439,1,0,0:0:0:70:SnareA.wav
256,192,72590,1,0,0:0:0:0:
475,192,72742,1,0,0:0:0:70:BassD.wav
402,192,72742,1,0,0:0:0:0:
182,192,72742,1,0,0:0:0:0:
109,192,72742,1,0,0:0:0:30:CrashS.wav
402,192,72893,1,0,0:0:0:70:BassS.wav
109,192,72893,1,0,0:0:0:0:
475,192,73045,1,0,0:0:0:0:
329,192,73045,1,0,0:0:0:70:SnareA.wav
109,192,73045,1,0,0:0:0:0:
109,192,73196,1,0,0:0:0:70:BassS.wav
329,192,73196,1,0,0:0:0:0:
182,192,73272,1,0,0:0:0:70:BassS.wav
256,192,73348,128,0,73651:0:0:0:70:BassD.wav
109,192,73348,128,0,73802:0:0:0:0:
36,192,73348,128,0,73802:0:0:0:0:
475,192,73348,128,0,73802:0:0:0:70:CrashL.wav
402,192,73348,128,0,73802:0:0:0:0:
256,192,73802,1,0,0:0:0:70:BassS.wav
182,192,73853,1,0,0:0:0:0:
109,192,73903,1,0,0:0:0:0:
329,192,73954,1,0,0:0:0:0:
256,192,74004,1,0,0:0:0:0:
182,192,74055,1,0,0:0:0:0:
402,192,74105,1,0,0:0:0:0:
329,192,74156,1,0,0:0:0:0:
256,192,74206,1,0,0:0:0:0:
36,192,74257,1,0,0:0:0:70:BassS.wav
109,192,74307,1,0,0:0:0:0:
182,192,74358,1,0,0:0:0:0:
256,192,74408,1,0,0:0:0:0:
329,192,74459,1,0,0:0:0:0:
402,192,74509,1,0,0:0:0:0:
475,192,74560,1,0,0:0:0:0:
256,192,74610,1,0,0:0:0:0:
329,192,74661,1,0,0:0:0:0:
402,192,74711,1,0,0:0:0:70:BassS.wav
182,192,74762,1,0,0:0:0:0:
256,192,74812,1,0,0:0:0:0:
329,192,74863,1,0,0:0:0:0:
109,192,74913,1,0,0:0:0:0:
182,192,74964,1,0,0:0:0:0:
256,192,75014,1,0,0:0:0:0:
36,192,75065,1,0,0:0:0:0:
109,192,75115,1,0,0:0:0:0:
182,192,75166,1,0,0:0:0:70:BassS.wav
256,192,75216,1,0,0:0:0:0:
329,192,75267,1,0,0:0:0:0:
402,192,75317,1,0,0:0:0:0:
475,192,75368,1,0,0:0:0:0:
329,192,75418,1,0,0:0:0:0:
182,192,75469,1,0,0:0:0:70:BassS.wav
36,192,75519,1,0,0:0:0:0:
109,192,75570,1,0,0:0:0:0:
182,192,75620,1,0,0:0:0:70:BassS.wav
256,192,75671,1,0,0:0:0:0:
329,192,75722,1,0,0:0:0:0:
182,192,75772,1,0,0:0:0:70:BassS.wav
402,192,75772,1,0,0:0:0:0:
475,192,75772,128,0,75924:0:0:0:30:CrashS.wav
109,192,75848,1,0,0:0:0:0:
36,192,75924,1,0,0:0:0:0:
329,192,75924,1,0,0:0:0:70:BassS.wav
256,192,75999,1,0,0:0:0:0:
182,192,76075,1,0,0:0:0:70:BassS.wav
402,192,76075,1,0,0:0:0:0:
109,192,76151,1,0,0:0:0:0:
329,192,76227,1,0,0:0:0:70:BassS.wav
36,192,76227,1,0,0:0:0:0:
256,192,76302,1,0,0:0:0:0:
182,192,76378,1,0,0:0:0:70:BassS.wav
402,192,76378,1,0,0:0:0:0:
475,192,76378,128,0,76530:0:0:0:30:CrashS.wav
109,192,76454,1,0,0:0:0:0:
36,192,76530,1,0,0:0:0:0:
256,192,76530,1,0,0:0:0:70:BassS.wav
182,192,76605,1,0,0:0:0:0:
109,192,76681,1,0,0:0:0:0:
329,192,76681,1,0,0:0:0:70:BassS.wav
475,192,76681,128,0,76833:0:0:0:30:CrashS.wav
256,192,76757,1,0,0:0:0:0:
402,192,76833,1,0,0:0:0:0:
182,192,76833,1,0,0:0:0:70:BassS.wav
329,192,76908,1,0,0:0:0:70:BassS.wav
36,192,76984,1,0,0:0:0:0:
109,192,76984,1,0,0:0:0:0:
256,192,76984,1,0,0:0:0:70:BassS.wav
475,192,77060,1,0,0:0:0:0:
402,192,77060,1,0,0:0:0:70:BassS.wav
109,192,77136,1,0,0:0:0:0:
182,192,77136,1,0,0:0:0:70:BassS.wav
329,192,77211,1,0,0:0:0:70:BassS.wav
402,192,77211,1,0,0:0:0:0:
256,192,77287,1,0,0:0:0:0:
182,192,77287,1,0,0:0:0:70:BassS.wav
475,192,77363,1,0,0:0:0:0:
402,192,77363,1,0,0:0:0:70:BassS.wav
109,192,77439,1,0,0:0:0:0:
182,192,77439,1,0,0:0:0:70:BassS.wav
329,192,77514,1,0,0:0:0:70:BassS.wav
402,192,77514,1,0,0:0:0:0:
36,192,77590,1,0,0:0:0:0:
109,192,77590,1,0,0:0:0:70:BassS.wav
402,192,77666,1,0,0:0:0:70:BassS.wav
475,192,77666,1,0,0:0:0:0:
109,192,77742,1,0,0:0:0:0:
182,192,77742,1,0,0:0:0:70:BassS.wav
329,192,77817,1,0,0:0:0:70:BassS.wav
402,192,77817,1,0,0:0:0:0:
182,192,77893,1,0,0:0:0:0:
256,192,77893,1,0,0:0:0:70:BassS.wav
475,192,77969,1,0,0:0:0:0:
402,192,77969,1,0,0:0:0:70:BassS.wav
182,192,78045,1,0,0:0:0:70:BassS.wav
109,192,78045,1,0,0:0:0:0:
329,192,78120,1,0,0:0:0:70:BassS.wav
402,192,78120,1,0,0:0:0:0:
36,192,78196,1,0,0:0:0:30:CrashS.wav
109,192,78196,1,0,0:0:0:0:
36,192,78499,128,0,78802:0:0:0:0:
182,192,78499,128,0,78651:0:0:0:0:
329,192,78499,1,0,0:0:0:0:
475,192,78651,1,0,0:0:0:0:
402,192,78727,1,0,0:0:0:0:
329,192,78802,1,0,0:0:0:70:SnareA.wav
109,192,78802,1,0,0:0:0:0:
182,192,78802,1,0,0:0:0:0:
475,192,78878,1,0,0:0:0:0:
182,192,78954,1,0,0:0:0:70:HihaT.wav
109,192,79030,1,0,0:0:0:70:HihaT.wav
256,192,79105,1,0,0:0:0:0:
329,192,79105,1,0,0:0:0:0:
36,192,79105,1,0,0:0:0:70:HihaT.wav
402,192,79257,1,0,0:0:0:0:
329,192,79257,1,0,0:0:0:0:
109,192,79257,1,0,0:0:0:70:BassD.wav
182,192,79408,1,0,0:0:0:70:BassD.wav
402,192,79408,1,0,0:0:0:0:
475,192,79408,128,0,79711:0:0:0:0:
36,192,79560,128,0,79711:0:0:0:0:
182,192,79560,128,0,79711:0:0:0:0:
402,192,79711,1,0,0:0:0:70:BassS.wav
256,192,79863,128,0,80014:0:0:0:0:
402,192,79863,1,0,0:0:0:70:HihaT.wav
109,192,79863,128,0,80014:0:0:0:0:
475,192,80014,1,0,0:0:0:0:
402,192,80014,1,0,0:0:0:70:SnareA.wav
329,192,80166,128,0,80317:0:0:0:0:
36,192,80166,1,0,0:0:0:70:HihaT.wav
182,192,80166,128,0,80317:0:0:0:0:
109,192,80317,1,0,0:0:0:70:SnareA.wav
475,192,80317,1,0,0:0:0:0:
182,192,80469,1,0,0:0:0:70:BassS.wav
256,192,80469,128,0,80620:0:0:0:0:
402,192,80469,128,0,80620:0:0:0:0:
109,192,80545,1,0,0:0:0:70:BassS.wav
475,192,80620,1,0,0:0:0:0:
329,192,80620,1,0,0:0:0:70:BassD.wav
36,192,80620,128,0,80924:0:0:0:30:CrashS.wav
475,192,80924,128,0,81530:0:0:0:0:
402,192,80924,128,0,81227:0:0:0:0:
36,192,81075,128,0,81530:0:0:0:0:
109,192,81075,128,0,81227:0:0:0:0:
329,192,81227,1,0,0:0:0:0:
182,192,81227,1,0,0:0:0:0:
256,192,81227,1,0,0:0:0:70:SnareA.wav
109,192,81378,1,0,0:0:0:70:HihaT.wav
402,192,81378,1,0,0:0:0:0:
256,192,81454,1,0,0:0:0:70:HihaT.wav
109,192,81530,1,0,0:0:0:70:HihaT.wav
402,192,81530,1,0,0:0:0:0:
182,192,81681,1,0,0:0:0:70:HihaT.wav
329,192,81681,1,0,0:0:0:0:
36,192,81833,1,0,0:0:0:0:
256,192,81833,1,0,0:0:0:70:BassD.wav
475,192,81833,1,0,0:0:0:0:
329,192,82060,1,0,0:0:0:0:
109,192,82060,1,0,0:0:0:0:
36,192,82060,1,0,0:0:0:0:
475,192,82136,1,0,0:0:0:0:
182,192,82136,1,0,0:0:0:0:
402,192,82136,1,0,0:0:0:0:
182,192,82363,1,0,0:0:0:0:
109,192,82363,1,0,0:0:0:0:
475,192,82363,1,0,0:0:0:0:
329,192,82439,1,0,0:0:0:0:
402,192,82439,1,0,0:0:0:70:SnareA.wav
36,192,82439,1,0,0:0:0:0:
36,192,82666,1,0,0:0:0:0:
256,192,82666,1,0,0:0:0:0:
402,192,82666,1,0,0:0:0:70:SnareA.wav
182,192,82893,1,0,0:0:0:0:
402,192,82893,1,0,0:0:0:70:SnareA.wav
36,192,82893,1,0,0:0:0:0:
402,192,83045,1,0,0:0:0:70:BassD.wav
109,192,83045,1,0,0:0:0:0:
36,192,83045,1,0,0:0:0:0:
329,192,83045,1,0,0:0:0:70:CrashL.wav
256,192,83196,1,0,0:0:0:0:
182,192,83348,1,0,0:0:0:0:
475,192,83348,1,0,0:0:0:0:
402,192,83424,1,0,0:0:0:0:
329,192,83499,1,0,0:0:0:0:
109,192,83499,128,0,83954:0:0:0:0:
256,192,83575,1,0,0:0:0:0:
475,192,83651,1,0,0:0:0:0:
402,192,83651,1,0,0:0:0:70:SnareA.wav
182,192,83651,1,0,0:0:0:0:
329,192,83727,1,0,0:0:0:0:
256,192,83802,1,0,0:0:0:70:HihaT.wav
182,192,83878,1,0,0:0:0:70:HihaT.wav
329,192,83954,1,0,0:0:0:70:HihaT.wav
36,192,83954,1,0,0:0:0:0:
402,192,83954,128,0,84257:0:0:0:0:
256,192,84105,1,0,0:0:0:70:BassD.wav
36,192,84105,1,0,0:0:0:0:
182,192,84257,1,0,0:0:0:70:BassD.wav
36,192,84257,128,0,84560:0:0:0:0:
475,192,84257,128,0,84560:0:0:0:0:
329,192,84560,1,0,0:0:0:70:BassS.wav
182,192,84560,128,0,84863:0:0:0:0:
36,192,84711,128,0,85014:0:0:0:0:
402,192,84711,1,0,0:0:0:70:HihaT.wav
475,192,84863,1,0,0:0:0:70:SnareA.wav
329,192,84863,1,0,0:0:0:0:
402,192,85014,1,0,0:0:0:70:HihaT.wav
182,192,85014,128,0,85166:0:0:0:0:
329,192,85166,1,0,0:0:0:0:
475,192,85166,1,0,0:0:0:70:SnareA.wav
36,192,85166,1,0,0:0:0:0:
402,192,85317,1,0,0:0:0:70:BassS.wav
109,192,85317,1,0,0:0:0:0:
329,192,85393,1,0,0:0:0:70:BassS.wav
182,192,85393,1,0,0:0:0:0:
475,192,85469,1,0,0:0:0:30:CrashS.wav
36,192,85469,1,0,0:0:0:0:
256,192,85469,1,0,0:0:0:70:BassD.wav
109,192,85545,1,0,0:0:0:0:
182,192,85620,1,0,0:0:0:0:
256,192,85696,1,0,0:0:0:0:
329,192,85772,1,0,0:0:0:0:
475,192,85772,1,0,0:0:0:0:
182,192,85848,1,0,0:0:0:0:
256,192,85924,1,0,0:0:0:0:
329,192,85999,1,0,0:0:0:0:
109,192,86075,1,0,0:0:0:0:
36,192,86075,1,0,0:0:0:0:
402,192,86075,1,0,0:0:0:70:SnareA.wav
329,192,86151,1,0,0:0:0:0:
475,192,86227,1,0,0:0:0:70:HihaT.wav
256,192,86227,1,0,0:0:0:0:
182,192,86302,1,0,0:0:0:0:
402,192,86302,1,0,0:0:0:70:HihaT.wav
329,192,86378,1,0,0:0:0:70:HihaT.wav
109,192,86378,1,0,0:0:0:0:
256,192,86454,1,0,0:0:0:0:
402,192,86530,1,0,0:0:0:70:HihaT.wav
182,192,86530,1,0,0:0:0:0:
329,192,86605,1,0,0:0:0:0:
109,192,86681,1,0,0:0:0:0:
256,192,86681,1,0,0:0:0:0:
475,192,86681,1,0,0:0:0:70:BassD.wav
109,192,86833,1,0,0:0:0:0:
475,192,86833,1,0,0:0:0:70:BassD.wav
182,192,86908,1,0,0:0:0:0:
402,192,86908,1,0,0:0:0:70:BassS.wav
256,192,86984,1,0,0:0:0:0:
329,192,86984,1,0,0:0:0:70:SnareA.wav
36,192,87136,1,0,0:0:0:0:
182,192,87136,1,0,0:0:0:0:
402,192,87136,1,0,0:0:0:70:BassD.wav
36,192,87287,1,0,0:0:0:0:
402,192,87287,1,0,0:0:0:70:BassD.wav
329,192,87363,1,0,0:0:0:70:BassS.wav
109,192,87363,1,0,0:0:0:0:
256,192,87439,1,0,0:0:0:70:SnareA.wav
182,192,87439,1,0,0:0:0:0:
109,192,87590,1,0,0:0:0:0:
329,192,87590,1,0,0:0:0:30:CrashS.wav
36,192,87590,1,0,0:0:0:0:
475,192,87590,1,0,0:0:0:70:BassD.wav
256,192,87893,128,0,88196:0:0:0:0:
109,192,88196,1,0,0:0:0:0:
36,192,88196,1,0,0:0:0:0:
402,192,88196,1,0,0:0:0:70:CrashL.wav
475,192,88196,1,0,0:0:0:70:SnareA.wav
256,192,88348,1,0,0:0:0:0:
329,192,88424,1,0,0:0:0:0:
182,192,88424,1,0,0:0:0:0:
402,192,88499,1,0,0:0:0:0:
109,192,88499,1,0,0:0:0:0:
109,192,88651,1,0,0:0:0:0:
329,192,88651,1,0,0:0:0:70:BassD.wav
402,192,88651,1,0,0:0:0:0:
475,192,88802,1,0,0:0:0:0:
182,192,88802,1,0,0:0:0:0:
256,192,88802,1,0,0:0:0:70:SnareA.wav
36,192,88878,1,0,0:0:0:0:
329,192,88878,1,0,0:0:0:0:
475,192,88954,128,0,89105:0:0:0:0:
182,192,88954,128,0,89105:0:0:0:0:
36,192,89105,128,0,89408:0:0:0:0:
329,192,89105,1,0,0:0:0:70:BassD.wav
109,192,89408,1,0,0:0:0:70:SnareA.wav
329,192,89408,1,0,0:0:0:0:
402,192,89484,1,0,0:0:0:0:
182,192,89484,1,0,0:0:0:0:
256,192,89560,128,0,89863:0:0:0:0:
475,192,89560,128,0,89863:0:0:0:0:
36,192,89560,1,0,0:0:0:0:
182,192,89863,1,0,0:0:0:70:BassD.wav
109,192,89939,1,0,0:0:0:0:
256,192,90014,1,0,0:0:0:0:
36,192,90014,1,0,0:0:0:70:SnareA.wav
475,192,90014,1,0,0:0:0:0:
329,192,90090,1,0,0:0:0:0:
182,192,90166,1,0,0:0:0:70:BassS.wav
256,192,90242,1,0,0:0:0:70:BassS.wav
475,192,90317,1,0,0:0:0:30:CrashS.wav
329,192,90317,1,0,0:0:0:70:BassD.wav
402,192,90317,1,0,0:0:0:0:
109,192,90317,1,0,0:0:0:0:
182,192,90393,1,0,0:0:0:0:
256,192,90469,1,0,0:0:0:0:
329,192,90545,1,0,0:0:0:0:
182,192,90620,1,0,0:0:0:70:SnareA.wav
36,192,90620,1,0,0:0:0:0:
402,192,90620,128,0,90924:0:0:0:0:
256,192,90772,1,0,0:0:0:0:
475,192,90924,1,0,0:0:0:0:
329,192,90924,1,0,0:0:0:70:BassD.wav
256,192,90999,1,0,0:0:0:0:
182,192,91075,1,0,0:0:0:70:BassS.wav
402,192,91075,1,0,0:0:0:0:
109,192,91151,1,0,0:0:0:0:
329,192,91227,1,0,0:0:0:70:SnareA.wav
36,192,91227,128,0,91530:0:0:0:0:
475,192,91227,1,0,0:0:0:0:
256,192,91378,1,0,0:0:0:0:
402,192,91530,5,0,0:0:0:0:
475,192,91530,5,0,0:0:0:0:
182,192,91530,1,0,0:0:0:70:BassD.wav
256,192,91605,5,0,0:0:0:0:
329,192,91681,1,0,0:0:0:0:
402,192,91757,1,0,0:0:0:0:
475,192,91833,1,0,0:0:0:70:SnareA.wav
109,192,91833,1,0,0:0:0:0:
36,192,91833,1,0,0:0:0:0:
402,192,91908,1,0,0:0:0:0:
329,192,91984,1,0,0:0:0:0:
256,192,92060,1,0,0:0:0:0:
475,192,92136,1,0,0:0:0:0:
402,192,92136,1,0,0:0:0:70:BassS.wav
182,192,92136,1,0,0:0:0:0:
329,192,92287,1,0,0:0:0:70:BassD.wav
36,192,92287,1,0,0:0:0:0:
109,192,92287,1,0,0:0:0:0:
182,192,92439,1,0,0:0:0:0:
475,192,92439,1,0,0:0:0:0:
402,192,92439,1,0,0:0:0:70:BassS.wav
36,192,92590,1,0,0:0:0:0:
329,192,92590,1,0,0:0:0:70:BassD.wav
109,192,92590,1,0,0:0:0:0:
182,192,92742,5,0,0:0:0:70:BassS.wav
475,192,92742,1,0,0:0:0:0:
402,192,92742,1,0,0:0:0:70:CrashL.wav
109,192,92792,1,0,0:0:0:0:
36,192,92843,1,0,0:0:0:0:
256,192,92893,1,0,0:0:0:0:
182,192,92944,1,0,0:0:0:0:
109,192,92994,1,0,0:0:0:0:
329,192,93045,1,0,0:0:0:0:
475,192,93045,1,0,0:0:0:70:SnareA.wav
256,192,93095,1,0,0:0:0:0:
182,192,93146,1,0,0:0:0:0:
402,192,93196,1,0,0:0:0:0:
329,192,93247,1,0,0:0:0:0:
256,192,93297,1,0,0:0:0:0:
475,192,93348,1,0,0:0:0:0:
402,192,93398,1,0,0:0:0:0:
329,192,93449,1,0,0:0:0:0:
182,192,93499,1,0,0:0:0:70:BassD.wav
36,192,93499,1,0,0:0:0:0:
256,192,93550,1,0,0:0:0:0:
329,192,93600,1,0,0:0:0:0:
402,192,93651,1,0,0:0:0:70:SnareA.wav
109,192,93651,1,0,0:0:0:0:
182,192,93701,1,0,0:0:0:0:
256,192,93752,1,0,0:0:0:0:
329,192,93802,1,0,0:0:0:0:
402,192,93853,1,0,0:0:0:0:
475,192,93903,1,0,0:0:0:0:
182,192,93954,1,0,0:0:0:70:BassD.wav
36,192,93954,1,0,0:0:0:0:
109,192,93954,1,0,0:0:0:0:
256,192,94105,1,0,0:0:0:0:
36,192,94257,1,0,0:0:0:0:
475,192,94257,1,0,0:0:0:70:SnareA.wav
329,192,94257,128,0,94560:0:0:0:0:
109,192,94358,1,0,0:0:0:0:
182,192,94459,1,0,0:0:0:0:
256,192,94560,1,0,0:0:0:0:
329,192,94661,1,0,0:0:0:0:
36,192,94711,1,0,0:0:0:70:BassD.wav
402,192,94762,1,0,0:0:0:0:
182,192,94863,1,0,0:0:0:70:SnareA.wav
475,192,94863,1,0,0:0:0:0:
402,192,94964,1,0,0:0:0:0:
36,192,95014,1,0,0:0:0:70:BassS.wav
329,192,95065,1,0,0:0:0:0:
109,192,95090,1,0,0:0:0:70:BassS.wav
182,192,95166,1,0,0:0:0:70:BassD.wav
256,192,95166,1,0,0:0:0:0:
402,192,95166,128,0,95393:0:0:0:30:CrashS.wav
475,192,95166,128,0,95393:0:0:0:0:
256,192,95469,1,0,0:0:0:0:
402,192,95469,1,0,0:0:0:70:SnareA.wav
475,192,95469,1,0,0:0:0:0:
182,192,95545,1,0,0:0:0:0:
109,192,95620,1,0,0:0:0:0:
36,192,95696,1,0,0:0:0:0:
256,192,95772,1,0,0:0:0:0:
182,192,95848,1,0,0:0:0:0:
402,192,95924,1,0,0:0:0:70:BassD.wav
475,192,95924,1,0,0:0:0:0:
329,192,95999,1,0,0:0:0:0:
256,192,96075,1,0,0:0:0:70:SnareA.wav
36,192,96075,1,0,0:0:0:0:
109,192,96075,1,0,0:0:0:0:
109,192,96227,1,0,0:0:0:0:
329,192,96227,1,0,0:0:0:0:
182,192,96227,1,0,0:0:0:0:
402,192,96378,1,0,0:0:0:30:CrashS.wav
182,192,96378,1,0,0:0:0:0:
256,192,96378,1,0,0:0:0:0:
475,192,96378,1,0,0:0:0:70:BassD.wav
36,192,96530,1,0,0:0:0:0:
402,192,96530,1,0,0:0:0:70:BassS.wav
329,192,96605,1,0,0:0:0:70:BassS.wav
109,192,96605,1,0,0:0:0:0:
256,192,96681,1,0,0:0:0:70:SnareA.wav
182,192,96681,1,0,0:0:0:70:BassS.wav
36,192,96833,1,0,0:0:0:0:
329,192,96833,1,0,0:0:0:30:CrashS.wav
182,192,96833,1,0,0:0:0:70:BassS.wav
475,192,96833,1,0,0:0:0:0:
475,192,96984,1,0,0:0:0:70:BassS.wav
109,192,96984,1,0,0:0:0:0:
182,192,97060,1,0,0:0:0:0:
402,192,97060,1,0,0:0:0:70:BassS.wav
329,192,97136,1,0,0:0:0:70:SnareA.wav
256,192,97136,1,0,0:0:0:70:BassS.wav
182,192,97287,1,0,0:0:0:70:BassS.wav
36,192,97287,1,0,0:0:0:0:
329,192,97287,1,0,0:0:0:30:CrashS.wav
109,192,97439,1,0,0:0:0:0:
402,192,97439,1,0,0:0:0:0:
256,192,97439,1,0,0:0:0:0:
329,192,97590,1,0,0:0:0:70:BassD.wav
36,192,97590,1,0,0:0:0:0:
475,192,97590,128,0,98045:0:0:0:70:CrashL.wav
182,192,97590,128,0,98045:0:0:0:0:
36,192,98045,1,0,0:0:0:0:
109,192,98045,1,0,0:0:0:0:
329,192,98045,1,0,0:0:0:70:SnareA.wav
402,192,98045,1,0,0:0:0:30:CrashS.wav
256,192,98348,1,0,0:0:0:0:
475,192,98348,1,0,0:0:0:0:
402,192,98499,1,0,0:0:0:0:
182,192,98499,1,0,0:0:0:0:
109,192,98651,1,0,0:0:0:0:
329,192,98651,1,0,0:0:0:0:
36,192,98802,1,0,0:0:0:0:
256,192,98802,1,0,0:0:0:0:
329,192,98878,1,0,0:0:0:0:
402,192,98954,1,0,0:0:0:0:
475,192,99030,1,0,0:0:0:0:
256,192,99105,1,0,0:0:0:0:
182,192,99181,1,0,0:0:0:0:
109,192,99257,1,0,0:0:0:0:
36,192,99333,1,0,0:0:0:0:
182,192,99408,1,0,0:0:0:0:
109,192,99484,1,0,0:0:0:0:
256,192,99560,1,0,0:0:0:0:
475,192,99560,128,0,99711:0:0:0:70:SnareA.wav
182,192,99636,1,0,0:0:0:0:
329,192,99711,1,0,0:0:0:0:
256,192,99787,1,0,0:0:0:0:
475,192,99863,128,0,100014:0:0:0:70:SnareA.wav
182,192,99863,1,0,0:0:0:0:
109,192,99939,1,0,0:0:0:0:
402,192,100014,1,0,0:0:0:70:BassD.wav
256,192,100014,1,0,0:0:0:70:CrashL.wav
36,192,100014,128,0,100166:0:0:0:0:
109,192,100166,128,0,100317:0:0:0:0:
402,192,100166,1,0,0:0:0:70:BassS.wav
182,192,100317,128,0,100469:0:0:0:0:
109,192,100469,1,0,0:0:0:0:
329,192,100469,1,0,0:0:0:70:BassD.wav
36,192,100469,1,0,0:0:0:30:CrashS.wav
475,192,100469,1,0,0:0:0:0:
402,192,100620,1,0,0:0:0:70:BassS.wav
256,192,100772,1,0,0:0:0:0:
182,192,100772,1,0,0:0:0:0:
402,192,100924,1,0,0:0:0:70:BassD.wav
182,192,100924,1,0,0:0:0:0:
109,192,100924,1,0,0:0:0:0:
402,192,101075,1,0,0:0:0:70:BassD.wav
109,192,101075,1,0,0:0:0:0:
36,192,101075,1,0,0:0:0:0:
256,192,101227,1,0,0:0:0:0:
36,192,101227,1,0,0:0:0:0:
329,192,101302,1,0,0:0:0:0:
475,192,101378,1,0,0:0:0:70:SnareA.wav
182,192,101378,1,0,0:0:0:0:
256,192,101454,1,0,0:0:0:0:
402,192,101454,1,0,0:0:0:70:BassS.wav
329,192,101530,1,0,0:0:0:70:BassS.wav
109,192,101530,1,0,0:0:0:0:
182,192,101605,1,0,0:0:0:0:
36,192,101681,1,0,0:0:0:70:SnareA.wav
256,192,101681,1,0,0:0:0:0:
109,192,101757,1,0,0:0:0:0:
182,192,101833,1,0,0:0:0:0:
329,192,101833,1,0,0:0:0:70:BassS.wav
256,192,101908,1,0,0:0:0:0:
402,192,101984,1,0,0:0:0:70:SnareA.wav
109,192,101984,1,0,0:0:0:0:
329,192,102060,1,0,0:0:0:70:BassS.wav
182,192,102060,1,0,0:0:0:0:
475,192,102136,1,0,0:0:0:70:BassS.wav
256,192,102136,1,0,0:0:0:0:
402,192,102211,1,0,0:0:0:0:
329,192,102287,1,0,0:0:0:70:SnareA.wav
182,192,102287,1,0,0:0:0:0:
402,192,102363,1,0,0:0:0:0:
36,192,102439,128,0,102742:0:0:0:0:
256,192,102439,1,0,0:0:0:70:BassD.wav
475,192,102439,128,0,102590:0:0:0:70:CrashL.wav
402,192,102590,128,0,102742:0:0:0:0:
329,192,102742,128,0,102893:0:0:0:0:
182,192,102742,1,0,0:0:0:70:SnareA.wav
475,192,102893,1,0,0:0:0:30:CrashS.wav
36,192,102893,1,0,0:0:0:0:
182,192,102893,1,0,0:0:0:0:
36,192,103045,1,0,0:0:0:70:BassD.wav
475,192,103196,1,0,0:0:0:0:
329,192,103196,1,0,0:0:0:0:
256,192,103348,1,0,0:0:0:0:
402,192,103348,1,0,0:0:0:0:
36,192,103348,1,0,0:0:0:70:SnareA.wav
182,192,103499,1,0,0:0:0:0:
329,192,103499,1,0,0:0:0:70:BassS.wav
402,192,103575,1,0,0:0:0:70:BassS.wav
109,192,103651,1,0,0:0:0:0:
475,192,103651,1,0,0:0:0:70:SnareA.wav
36,192,103651,1,0,0:0:0:0:
182,192,103727,1,0,0:0:0:0:
256,192,103802,1,0,0:0:0:0:
402,192,103878,1,0,0:0:0:0:
329,192,103878,1,0,0:0:0:0:
475,192,103878,1,0,0:0:0:70:SnareA.wav
256,192,103954,1,0,0:0:0:0:
182,192,104030,1,0,0:0:0:0:
109,192,104105,1,0,0:0:0:0:
36,192,104105,1,0,0:0:0:0:
402,192,104105,1,0,0:0:0:70:SnareA.wav
329,192,104181,1,0,0:0:0:0:
256,192,104257,1,0,0:0:0:0:
182,192,104333,1,0,0:0:0:70:SnareA.wav
109,192,104333,1,0,0:0:0:0:
475,192,104333,1,0,0:0:0:0:
402,192,104408,1,0,0:0:0:0:
329,192,104484,1,0,0:0:0:0:
475,192,104560,1,0,0:0:0:0:
256,192,104560,1,0,0:0:0:70:SnareA.wav
182,192,104560,1,0,0:0:0:0:
329,192,104636,1,0,0:0:0:0:
109,192,104711,1,0,0:0:0:70:SnareA.wav
402,192,104711,1,0,0:0:0:0:
182,192,104787,1,0,0:0:0:0:
475,192,104863,128,0,105166:0:0:0:70:CrashL.wav
36,192,104863,128,0,105014:0:0:0:0:
256,192,104863,1,0,0:0:0:70:BassD.wav
109,192,105014,128,0,105166:0:0:0:0:
182,192,105166,128,0,105317:0:0:0:0:
329,192,105166,1,0,0:0:0:70:SnareA.wav
109,192,105317,1,0,0:0:0:0:
36,192,105317,1,0,0:0:0:30:CrashS.wav
402,192,105317,1,0,0:0:0:0:
475,192,105469,1,0,0:0:0:70:BassD.wav
329,192,105620,1,0,0:0:0:0:
182,192,105620,1,0,0:0:0:0:
256,192,105772,1,0,0:0:0:0:
402,192,105772,1,0,0:0:0:70:SnareA.wav
36,192,105772,1,0,0:0:0:0:
329,192,105924,1,0,0:0:0:0:
475,192,105924,1,0,0:0:0:0:
36,192,105924,1,0,0:0:0:70:BassS.wav
109,192,105999,1,0,0:0:0:70:BassS.wav
182,192,106075,1,0,0:0:0:70:SnareA.wav
475,192,106075,1,0,0:0:0:0:
402,192,106075,1,0,0:0:0:0:
329,192,106151,1,0,0:0:0:0:
256,192,106227,1,0,0:0:0:0:
109,192,106302,1,0,0:0:0:0:
402,192,106302,1,0,0:0:0:0:
182,192,106302,1,0,0:0:0:70:SnareA.wav
329,192,106378,1,0,0:0:0:0:
256,192,106454,1,0,0:0:0:0:
475,192,106530,1,0,0:0:0:0:
402,192,106530,1,0,0:0:0:70:SnareA.wav
182,192,106530,1,0,0:0:0:0:
109,192,106605,1,0,0:0:0:0:
36,192,106681,1,0,0:0:0:0:
109,192,106757,1,0,0:0:0:0:
329,192,106757,1,0,0:0:0:70:SnareA.wav
402,192,106757,1,0,0:0:0:0:
182,192,106833,1,0,0:0:0:0:
256,192,106908,1,0,0:0:0:0:
475,192,106984,1,0,0:0:0:0:
329,192,106984,1,0,0:0:0:70:SnareA.wav
109,192,106984,1,0,0:0:0:0:
182,192,107060,1,0,0:0:0:0:
402,192,107136,1,0,0:0:0:70:SnareA.wav
36,192,107136,1,0,0:0:0:0:
109,192,107211,1,0,0:0:0:0:
329,192,107287,1,0,0:0:0:50:CrashL.wav
475,192,107287,1,0,0:0:0:70:BassD.wav
182,192,107287,1,0,0:0:0:0:
475,192,107439,1,0,0:0:0:70:BassS.wav
256,192,107439,1,0,0:0:0:0:
182,192,107590,1,0,0:0:0:0:
475,192,107590,1,0,0:0:0:70:BassS.wav
402,192,107742,1,0,0:0:0:70:BassD.wav
256,192,107742,1,0,0:0:0:0:
109,192,107742,1,0,0:0:0:50:CrashL.wav
402,192,107893,1,0,0:0:0:70:BassS.wav
182,192,107893,1,0,0:0:0:0:
402,192,108045,1,0,0:0:0:70:BassS.wav
109,192,108045,1,0,0:0:0:0:
329,192,108196,1,0,0:0:0:70:BassD.wav
36,192,108196,1,0,0:0:0:50:CrashL.wav
182,192,108196,1,0,0:0:0:0:
329,192,108348,1,0,0:0:0:70:BassS.wav
109,192,108348,1,0,0:0:0:0:
329,192,108499,1,0,0:0:0:70:BassS.wav
36,192,108499,1,0,0:0:0:0:
475,192,108651,128,0,108954:0:0:0:50:CrashL.wav
109,192,108651,128,0,108954:0:0:0:0:
182,192,108651,128,0,108954:0:0:0:70:BassD.wav
329,192,108802,1,0,0:0:0:70:BassS.wav
329,192,108954,1,0,0:0:0:70:BassS.wav
109,192,109105,128,0,109408:0:0:0:70:BassD.wav
329,192,109105,128,0,109408:0:0:0:30:CrashS.wav
182,192,109257,128,0,109408:0:0:0:0:
402,192,109257,128,0,109408:0:0:0:0:
256,192,109408,1,0,0:0:0:70:BassS.wav
475,192,109408,1,0,0:0:0:0:
36,192,109408,1,0,0:0:0:0:
329,192,109484,1,0,0:0:0:0:
182,192,109560,1,0,0:0:0:70:BassS.wav
402,192,109560,1,0,0:0:0:0:
475,192,109636,1,0,0:0:0:0:
256,192,109636,1,0,0:0:0:70:BassS.wav
36,192,109711,1,0,0:0:0:70:CrashL.wav
109,192,109711,1,0,0:0:0:0:
329,192,109711,128,0,110014:0:0:0:70:BassD.wav
475,192,110014,1,0,0:0:0:70:SnareA.wav
109,192,110014,1,0,0:0:0:70:BassS.wav
182,192,110090,1,0,0:0:0:70:BassS.wav
256,192,110166,1,0,0:0:0:70:BassS.wav
475,192,110166,1,0,0:0:0:0:
329,192,110242,1,0,0:0:0:70:BassS.wav
402,192,110317,1,0,0:0:0:70:BassS.wav
109,192,110317,1,0,0:0:0:0:
329,192,110393,1,0,0:0:0:70:BassS.wav
256,192,110469,1,0,0:0:0:70:BassS.wav
109,192,110469,1,0,0:0:0:0:
402,192,110545,1,0,0:0:0:70:BassS.wav
36,192,110620,1,0,0:0:0:0:
329,192,110620,1,0,0:0:0:70:BassS.wav
109,192,110696,1,0,0:0:0:70:BassS.wav
182,192,110772,1,0,0:0:0:70:BassS.wav
329,192,110772,1,0,0:0:0:0:
109,192,110848,1,0,0:0:0:70:BassS.wav
402,192,110924,1,0,0:0:0:70:BassS.wav
36,192,110924,1,0,0:0:0:0:
329,192,110999,1,0,0:0:0:70:BassS.wav
256,192,111075,1,0,0:0:0:70:BassS.wav
36,192,111075,1,0,0:0:0:0:
182,192,111151,1,0,0:0:0:70:BassS.wav
475,192,111227,1,0,0:0:0:70:BassS.wav
109,192,111227,1,0,0:0:0:0:
402,192,111302,1,0,0:0:0:70:BassS.wav
329,192,111378,1,0,0:0:0:70:BassS.wav
109,192,111378,1,0,0:0:0:0:
256,192,111454,1,0,0:0:0:70:BassS.wav
182,192,111530,1,0,0:0:0:70:BassS.wav
475,192,111530,1,0,0:0:0:0:
329,192,111605,1,0,0:0:0:70:BassS.wav
402,192,111681,1,0,0:0:0:0:
182,192,111681,1,0,0:0:0:70:BassS.wav
256,192,111757,1,0,0:0:0:70:BassS.wav
36,192,111833,1,0,0:0:0:70:BassS.wav
329,192,111833,1,0,0:0:0:0:
109,192,111908,1,0,0:0:0:70:BassS.wav
329,192,111984,1,0,0:0:0:0:
182,192,111984,1,0,0:0:0:70:BassS.wav
402,192,112060,1,0,0:0:0:70:BassS.wav
36,192,112136,1,0,0:0:0:0:
475,192,112136,1,0,0:0:0:70:CrashL.wav
109,192,112136,1,0,0:0:0:0:
256,192,112136,1,0,0:0:0:70:BassD.wav
36,192,112439,1,0,0:0:0:0:
109,192,112514,1,0,0:0:0:0:
182,192,112590,1,0,0:0:0:0:
256,192,112666,1,0,0:0:0:0:
329,192,112742,1,0,0:0:0:0:
402,192,112817,1,0,0:0:0:0:
329,192,112893,1,0,0:0:0:0:
256,192,112969,1,0,0:0:0:0:
182,192,113045,1,0,0:0:0:0:
402,192,113120,1,0,0:0:0:0:
329,192,113196,1,0,0:0:0:0:
256,192,113272,1,0,0:0:0:0:
475,192,113348,1,0,0:0:0:0:
402,192,113424,1,0,0:0:0:0:
329,192,113499,1,0,0:0:0:0:
256,192,113575,1,0,0:0:0:0:
36,192,113651,1,0,0:0:0:0:
182,192,113727,1,0,0:0:0:0:
329,192,113802,1,0,0:0:0:0:
109,192,113878,1,0,0:0:0:0:
182,192,113954,1,0,0:0:0:0:
256,192,114030,1,0,0:0:0:0:
402,192,114105,1,0,0:0:0:0:
329,192,114181,1,0,0:0:0:0:
256,192,114257,1,0,0:0:0:0:
109,192,114333,1,0,0:0:0:0:
182,192,114408,1,0,0:0:0:0:
256,192,114484,1,0,0:0:0:0:
109,192,114560,1,0,0:0:0:0:
36,192,114560,1,0,0:0:0:0:
329,192,114560,1,0,0:0:0:0:
475,192,114560,1,0,0:0:0:0:
