osu file format v14

[General]
AudioFilename: audio.mp3
AudioLeadIn: 0
PreviewTime: 34560
Countdown: 0
SampleSet: Soft
StackLeniency: 0.7
Mode: 3
LetterboxInBreaks: 0
SpecialStyle: 0
WidescreenStoryboard: 0

[Editor]
Bookmarks: 621,12742,15166,20014,24863,34560,44257,51530,53954,58802,63651,68499,73348,78196,78499,87893,88196,97590,107287,109711,112136,114560
DistanceSpacing: 1
BeatDivisor: 4
GridSize: 8
TimelineZoom: 0.7

[Metadata]
Title:Enigma
TitleUnicode:Enigma
Artist:Toromaru
ArtistUnicode:とろまる
Creator:Kawawa
Version:BASIC
Source:SOUND VOLTEX III GRAVITY WARS
Tags:Piano The 5th KACオリジナル楽曲コンテスト Original Song Contest KONAMI BEMANI
BeatmapID:949608
BeatmapSetID:440024

[Difficulty]
HPDrainRate:7
CircleSize:7
OverallDifficulty:7
ApproachRate:5
SliderMultiplier:1.4
SliderTickRate:1

[Events]
//Background and Video events
0,0,"Background loli.jpg",0,0
//Break Periods
//Storyboard Layer 0 (Background)
//Storyboard Layer 1 (Fail)
//Storyboard Layer 2 (Pass)
//Storyboard Layer 3 (Foreground)
//Storyboard Sound Samples

[TimingPoints]
621,303.030303030303,4,2,1,30,1,0
12742,-100,4,2,1,30,0,1
15166,-100,4,2,1,30,0,0
51530,-100,4,2,1,30,0,1
53954,-100,4,2,1,30,0,0
109711,-100,4,2,1,30,0,1
112136,-100,4,2,1,30,0,0

[HitObjects]
109,192,621,128,0,1075:0:0:0:70:CrashL.wav
402,192,1075,1,0,0:0:0:30:CrashS.wav
256,192,1833,128,0,2136:0:0:0:0:
256,192,2439,128,0,2742:0:0:0:0:
402,192,3045,128,0,3499:0:0:0:70:CrashL.wav
109,192,3499,1,0,0:0:0:30:CrashS.wav
182,192,4257,128,0,5469:0:0:0:0:
329,192,5469,128,0,5924:0:0:0:70:CrashL.wav
109,192,5924,1,0,0:0:0:30:CrashS.wav
256,192,6681,128,0,6984:0:0:0:0:
256,192,7287,128,0,7590:0:0:0:0:
182,192,7893,128,0,8348:0:0:0:70:CrashL.wav
402,192,8348,1,0,0:0:0:30:CrashS.wav
329,192,9105,128,0,10317:0:0:0:0:
36,192,10317,1,0,0:0:0:50:CrashL.wav
256,192,10772,1,0,0:0:0:50:CrashL.wav
475,192,11227,1,0,0:0:0:50:CrashL.wav
256,192,11681,1,0,0:0:0:50:CrashL.wav
36,192,12136,1,0,0:0:0:30:CrashS.wav
329,192,12439,128,0,12742:0:0:0:70:BassS.wav
182,192,12742,1,0,0:0:0:70:CrashL.wav
475,192,13045,1,0,0:0:0:70:BassS.wav
329,192,13348,1,0,0:0:0:70:BassS.wav
182,192,13651,1,0,0:0:0:70:BassS.wav
36,192,13954,1,0,0:0:0:70:BassS.wav
109,192,14257,1,0,0:0:0:70:BassS.wav
182,192,14560,1,0,0:0:0:70:BassS.wav
256,192,14863,1,0,0:0:0:70:BassS.wav
329,192,15166,1,0,0:0:0:70:CrashL.wav
182,192,15469,1,0,0:0:0:70:SnareA.wav
402,192,15924,128,0,16378:0:0:0:0:
109,192,16378,1,0,0:0:0:0:
475,192,16681,1,0,0:0:0:70:SnareA.wav
329,192,16984,1,0,0:0:0:0:
182,192,17287,1,0,0:0:0:70:SnareA.wav
36,192,17590,1,0,0:0:0:70:CrashL.wav
402,192,17893,128,0,18802:0:0:0:70:SnareA.wav
109,192,18802,1,0,0:0:0:30:CrashS.wav
256,192,19105,1,0,0:0:0:30:CrashS.wav
402,192,19408,128,0,19711:0:0:0:30:CrashS.wav
182,192,19711,128,0,20014:0:0:0:30:CrashS.wav
402,192,20014,1,0,0:0:0:0:
182,192,20317,1,0,0:0:0:70:CrashL.wav
329,192,20772,128,0,21227:0:0:0:0:
36,192,21227,1,0,0:0:0:0:
182,192,21530,1,0,0:0:0:70:SnareA.wav
329,192,21833,1,0,0:0:0:0:
182,192,22136,1,0,0:0:0:70:SnareA.wav
36,192,22439,1,0,0:0:0:70:CrashL.wav
402,192,22742,128,0,23651:0:0:0:70:SnareA.wav
182,192,23651,1,0,0:0:0:30:CrashS.wav
256,192,23954,1,0,0:0:0:30:CrashS.wav
329,192,24257,1,0,0:0:0:30:CrashS.wav
402,192,24560,1,0,0:0:0:30:CrashS.wav
475,192,24863,1,0,0:0:0:70:CrashL.wav
329,192,25317,1,0,0:0:0:0:
182,192,25772,128,0,26075:0:0:0:70:SnareA.wav
402,192,26075,1,0,0:0:0:70:BassD.wav
256,192,26530,1,0,0:0:0:0:
109,192,26984,128,0,27287:0:0:0:70:SnareA.wav
329,192,27287,1,0,0:0:0:70:BassD.wav
182,192,27742,1,0,0:0:0:0:
36,192,28196,128,0,28499:0:0:0:70:SnareA.wav
256,192,28499,1,0,0:0:0:70:BassD.wav
475,192,28802,1,0,0:0:0:70:SnareA.wav
329,192,29105,1,0,0:0:0:70:BassD.wav
182,192,29408,1,0,0:0:0:70:SnareA.wav
36,192,29711,1,0,0:0:0:70:CrashL.wav
182,192,30166,1,0,0:0:0:0:
329,192,30620,128,0,30924:0:0:0:70:SnareA.wav
109,192,30924,1,0,0:0:0:70:BassD.wav
256,192,31378,1,0,0:0:0:0:
402,192,31833,128,0,32136:0:0:0:70:SnareA.wav
36,192,32136,1,0,0:0:0:70:BassD.wav
109,192,32439,1,0,0:0:0:70:BassD.wav
182,192,32742,1,0,0:0:0:70:BassD.wav
256,192,33045,1,0,0:0:0:70:BassD.wav
329,192,33348,128,0,33954:0:0:0:30:CrashS.wav
182,192,33954,128,0,34560:0:0:0:0:
329,192,34560,1,0,0:0:0:70:CrashL.wav
36,192,34863,1,0,0:0:0:50:KickS.wav
329,192,35469,1,0,0:0:0:50:KickS.wav
109,192,36075,1,0,0:0:0:50:KickS.wav
329,192,36681,1,0,0:0:0:70:SnareA.wav
182,192,36833,1,0,0:0:0:70:SnareA.wav
36,192,36984,1,0,0:0:0:70:CrashL.wav
475,192,37287,1,0,0:0:0:50:KickS.wav
36,192,37893,1,0,0:0:0:50:KickS.wav
402,192,38499,1,0,0:0:0:50:KickS.wav
36,192,38802,128,0,39408:0:0:0:70:BassD.wav
329,192,39408,1,0,0:0:0:70:CrashL.wav
182,192,39711,1,0,0:0:0:50:KickS.wav
402,192,40317,1,0,0:0:0:50:KickS.wav
109,192,40924,1,0,0:0:0:50:KickS.wav
475,192,41227,128,0,41530:0:0:0:70:BassD.wav
256,192,41530,128,0,41833:0:0:0:70:SnareA.wav
36,192,41833,1,0,0:0:0:30:CrashS.wav
182,192,42136,1,0,0:0:0:30:CrashS.wav
329,192,42439,1,0,0:0:0:30:CrashS.wav
475,192,42742,1,0,0:0:0:30:CrashS.wav
109,192,43045,1,0,0:0:0:70:BassS.wav
182,192,43348,1,0,0:0:0:70:BassS.wav
256,192,43651,1,0,0:0:0:70:BassS.wav
329,192,43954,1,0,0:0:0:70:BassS.wav
402,192,44257,1,0,0:0:0:70:CrashL.wav
182,192,44560,1,0,0:0:0:50:KickS.wav
36,192,44560,128,0,46378:0:0:0:0:
329,192,45166,1,0,0:0:0:50:KickS.wav
475,192,45772,1,0,0:0:0:50:KickS.wav
329,192,46378,1,0,0:0:0:70:SnareA.wav
182,192,46530,1,0,0:0:0:70:BassD.wav
329,192,46681,1,0,0:0:0:70:CrashL.wav
36,192,46984,1,0,0:0:0:50:KickS.wav
475,192,46984,128,0,48499:0:0:0:0:
109,192,47590,1,0,0:0:0:50:KickS.wav
182,192,48196,1,0,0:0:0:50:KickS.wav
329,192,48499,128,0,48802:0:0:0:0:
182,192,48802,128,0,49105:0:0:0:0:
329,192,49105,1,0,0:0:0:70:CrashL.wav
36,192,49408,128,0,51227:0:0:0:0:
475,192,49408,1,0,0:0:0:50:KickS.wav
402,192,50014,1,0,0:0:0:50:KickS.wav
329,192,50620,1,0,0:0:0:50:KickS.wav
256,192,51227,1,0,0:0:0:50:KickS.wav
475,192,51530,1,0,0:0:0:30:CrashS.wav
182,192,51833,1,0,0:0:0:30:CrashS.wav
402,192,52136,1,0,0:0:0:30:CrashS.wav
109,192,52439,1,0,0:0:0:30:CrashS.wav
329,192,52742,1,0,0:0:0:50:KickS.wav
36,192,53045,1,0,0:0:0:50:KickS.wav
182,192,53348,1,0,0:0:0:50:KickS.wav
329,192,53651,1,0,0:0:0:50:KickS.wav
475,192,53954,1,0,0:0:0:70:CrashL.wav
475,192,58196,128,0,58802:0:0:0:0:
329,192,58802,1,0,0:0:0:70:CrashL.wav
36,192,59105,128,0,60014:0:0:0:0:
402,192,60014,1,0,0:0:0:0:
36,192,60317,128,0,61227:0:0:0:0:
182,192,61227,128,0,61681:0:0:0:70:BassD.wav
475,192,61227,1,0,0:0:0:70:CrashL.wav
329,192,61681,128,0,62136:0:0:0:70:BassD.wav
109,192,62136,128,0,62590:0:0:0:70:BassD.wav
402,192,62590,128,0,63045:0:0:0:70:BassD.wav
36,192,63045,128,0,63348:0:0:0:0:
475,192,63348,128,0,63651:0:0:0:0:
36,192,63651,1,0,0:0:0:70:CrashL.wav
182,192,63954,1,0,0:0:0:70:SnareA.wav
36,192,64257,1,0,0:0:0:70:BassD.wav
182,192,64560,1,0,0:0:0:70:SnareA.wav
475,192,64863,1,0,0:0:0:70:BassD.wav
329,192,65166,1,0,0:0:0:70:SnareA.wav
475,192,65469,1,0,0:0:0:70:BassD.wav
329,192,65772,1,0,0:0:0:70:SnareA.wav
182,192,65924,1,0,0:0:0:70:BassS.wav
36,192,66075,1,0,0:0:0:70:CrashL.wav
475,192,66378,1,0,0:0:0:70:SnareA.wav
36,192,66681,1,0,0:0:0:70:BassD.wav
475,192,66984,1,0,0:0:0:70:SnareA.wav
109,192,67287,1,0,0:0:0:70:BassD.wav
402,192,67590,1,0,0:0:0:70:SnareA.wav
109,192,67893,1,0,0:0:0:70:BassD.wav
402,192,68045,1,0,0:0:0:70:SnareA.wav
402,192,68348,1,0,0:0:0:70:SnareA.wav
109,192,68499,128,0,68802:0:0:0:70:CrashL.wav
182,192,68802,1,0,0:0:0:70:SnareA.wav
402,192,69105,128,0,69408:0:0:0:70:BassD.wav
109,192,69711,128,0,70014:0:0:0:70:BassD.wav
182,192,70014,1,0,0:0:0:70:SnareA.wav
329,192,70317,128,0,70620:0:0:0:70:BassD.wav
475,192,70620,128,0,70924:0:0:0:70:SnareA.wav
109,192,70924,128,0,71227:0:0:0:70:CrashL.wav
182,192,71227,1,0,0:0:0:70:SnareA.wav
402,192,71530,128,0,71833:0:0:0:70:BassD.wav
109,192,72136,128,0,72439:0:0:0:30:CrashS.wav
402,192,72439,1,0,0:0:0:70:SnareA.wav
36,192,72742,128,0,73045:0:0:0:30:CrashS.wav
182,192,73045,128,0,73348:0:0:0:70:BassS.wav
475,192,73348,1,0,0:0:0:70:CrashL.wav
329,192,73348,128,0,76984:0:0:0:70:BassD.wav
182,192,75772,128,0,76984:0:0:0:0:
402,192,76984,128,0,77287:0:0:0:70:BassS.wav
109,192,77287,128,0,77590:0:0:0:70:BassS.wav
402,192,77590,128,0,77893:0:0:0:70:BassS.wav
109,192,77893,128,0,78196:0:0:0:70:BassS.wav
402,192,78196,5,0,0:0:0:30:CrashS.wav
256,192,78499,128,0,79105:0:0:0:0:
36,192,79105,1,0,0:0:0:0:
182,192,79257,1,0,0:0:0:0:
475,192,79408,1,0,0:0:0:0:
329,192,79560,1,0,0:0:0:0:
109,192,79863,1,0,0:0:0:0:
256,192,80166,1,0,0:0:0:0:
402,192,80469,1,0,0:0:0:0:
109,192,80620,128,0,80924:0:0:0:30:CrashS.wav
256,192,80924,1,0,0:0:0:0:
402,192,81075,128,0,81530:0:0:0:0:
329,192,81833,1,0,0:0:0:0:
256,192,82136,1,0,0:0:0:0:
182,192,82439,1,0,0:0:0:0:
109,192,82742,1,0,0:0:0:0:
36,192,83045,1,0,0:0:0:70:CrashL.wav
182,192,83196,1,0,0:0:0:0:
329,192,83348,1,0,0:0:0:0:
475,192,83499,128,0,83954:0:0:0:0:
402,192,83954,1,0,0:0:0:0:
256,192,84257,1,0,0:0:0:0:
109,192,84560,1,0,0:0:0:0:
329,192,84711,1,0,0:0:0:0:
182,192,85014,1,0,0:0:0:0:
402,192,85166,1,0,0:0:0:0:
256,192,85469,128,0,86681:0:0:0:30:CrashS.wav
36,192,86681,128,0,86984:0:0:0:70:BassD.wav
256,192,87136,128,0,87439:0:0:0:70:BassD.wav
475,192,87590,128,0,87893:0:0:0:30:CrashS.wav
256,192,87893,1,0,0:0:0:0:
402,192,88196,1,0,0:0:0:70:SnareA.wav
109,192,88196,1,0,0:0:0:70:CrashL.wav
329,192,88802,1,0,0:0:0:0:
182,192,88954,1,0,0:0:0:0:
36,192,89105,1,0,0:0:0:0:
402,192,89408,1,0,0:0:0:0:
109,192,89560,128,0,89863:0:0:0:0:
475,192,89863,1,0,0:0:0:0:
329,192,90014,1,0,0:0:0:0:
182,192,90166,1,0,0:0:0:0:
36,192,90317,1,0,0:0:0:30:CrashS.wav
109,192,90620,1,0,0:0:0:70:SnareA.wav
182,192,90924,1,0,0:0:0:70:BassD.wav
256,192,91227,1,0,0:0:0:70:SnareA.wav
329,192,91530,128,0,91833:0:0:0:70:BassD.wav
182,192,91833,128,0,92136:0:0:0:70:SnareA.wav
402,192,92136,128,0,92439:0:0:0:70:BassS.wav
109,192,92439,128,0,92742:0:0:0:70:BassS.wav
256,192,92742,128,0,95166:0:0:0:70:CrashL.wav
402,192,93954,128,0,95166:0:0:0:0:
109,192,95166,1,0,0:0:0:30:CrashS.wav
329,192,95469,128,0,96075:0:0:0:70:SnareA.wav
182,192,96075,1,0,0:0:0:70:SnareA.wav
36,192,96378,1,0,0:0:0:70:BassS.wav
475,192,96378,1,0,0:0:0:30:CrashS.wav
402,192,96833,1,0,0:0:0:30:CrashS.wav
109,192,96833,1,0,0:0:0:70:BassS.wav
329,192,97287,1,0,0:0:0:30:CrashS.wav
182,192,97287,1,0,0:0:0:70:BassS.wav
475,192,97590,128,0,98045:0:0:0:70:CrashL.wav
36,192,97590,1,0,0:0:0:35:BassD.wav
256,192,98045,1,0,0:0:0:30:CrashS.wav
36,192,98802,128,0,99105:0:0:0:0:
36,192,99408,128,0,99711:0:0:0:0:
475,192,100014,128,0,100469:0:0:0:70:CrashL.wav
256,192,100469,1,0,0:0:0:30:CrashS.wav
36,192,101227,128,0,102439:0:0:0:0:
475,192,102439,128,0,102893:0:0:0:70:CrashL.wav
329,192,102893,1,0,0:0:0:30:CrashS.wav
109,192,103651,128,0,104863:0:0:0:0:
475,192,104863,128,0,105317:0:0:0:70:CrashL.wav
329,192,105317,5,0,0:0:0:30:CrashS.wav
182,192,106075,128,0,107287:0:0:0:0:
475,192,107287,128,0,107742:0:0:0:50:CrashL.wav
329,192,107742,128,0,108196:0:0:0:50:CrashL.wav
182,192,108196,128,0,108651:0:0:0:50:CrashL.wav
36,192,108651,128,0,109105:0:0:0:50:CrashL.wav
256,192,109105,1,0,0:0:0:30:CrashS.wav
475,192,109408,128,0,109711:0:0:0:70:BassS.wav
329,192,109711,5,0,0:0:0:70:CrashL.wav
182,192,110014,1,0,0:0:0:70:BassS.wav
36,192,110317,1,0,0:0:0:70:BassS.wav
109,192,110620,1,0,0:0:0:70:BassS.wav
182,192,110924,1,0,0:0:0:70:BassS.wav
256,192,111227,1,0,0:0:0:70:BassS.wav
329,192,111530,1,0,0:0:0:70:BassS.wav
402,192,111833,1,0,0:0:0:70:BassS.wav
475,192,112136,1,0,0:0:0:70:BassD.wav
182,192,112136,1,0,0:0:0:70:CrashL.wav
36,192,112439,128,0,114560:0:0:0:0:
475,192,114560,1,0,0:0:0:30:
