osu file format v14

[General]
AudioFilename: audio.mp3
AudioLeadIn: 0
PreviewTime: -1
Countdown: 0
SampleSet: Soft
StackLeniency: 0.7
Mode: 0
LetterboxInBreaks: 0
WidescreenStoryboard: 1

[Editor]
DistanceSpacing: 1.3
BeatDivisor: 4
GridSize: 8
TimelineZoom: 2.2

[Metadata]
Title:Enigma
TitleUnicode:Enigma
Artist:Toromaru
ArtistUnicode:とろまる
Creator:Egotrip
Version:Hard
Source:SOUND VOLTEX III GRAVITY WARS
Tags:piano the 5th kacオリジナル楽曲コンテスト original song contest konami bemani
BeatmapID:2208508
BeatmapSetID:1056135

[Difficulty]
HPDrainRate:4.5
CircleSize:3.5
OverallDifficulty:7
ApproachRate:8.5
SliderMultiplier:1.35
SliderTickRate:1

[Events]
//Background and Video events
0,0,"Enigma.jpg",0,0
//Break Periods
//Storyboard Layer 0 (Background)
//Storyboard Layer 1 (Fail)
//Storyboard Layer 2 (Pass)
//Storyboard Layer 3 (Foreground)
//Storyboard Layer 4 (Overlay)
//Storyboard Sound Samples

[TimingPoints]
599,303.030303030303,4,2,1,60,1,0
13402,-100,4,2,1,30,0,0
13629,-100,4,2,1,60,0,0
13705,-100,4,2,1,30,0,0
13932,-100,4,2,1,60,0,0
21407,-100,4,2,2,60,0,0
21508,-100,4,2,1,60,0,0
21710,-100,4,2,2,60,0,0
21811,-100,4,2,1,60,0,0
22013,-100,4,2,2,60,0,0
22114,-100,4,2,1,60,0,0
22316,-100,4,2,2,60,0,0
23629,-100,4,2,1,60,0,0
34538,-100,4,2,1,70,0,0
50977,-100,4,2,0,50,0,0
51205,-100,4,2,1,70,0,0
58023,-100,4,2,1,50,0,0
58780,-100,4,2,1,60,0,0
73932,-100,4,2,1,60,0,0
74033,-100,4,2,2,60,0,0
74386,-100,4,2,1,60,0,0
74487,-100,4,2,2,60,0,0
74841,-100,4,2,1,60,0,0
74942,-100,4,2,2,60,0,0
75295,-100,4,2,1,60,0,0
75396,-100,4,2,2,60,0,0
75598,-100,4,2,1,60,0,0
75700,-100,4,2,2,60,0,0
75750,-100,4,2,1,60,0,0
78174,-100,4,2,1,70,0,1
82417,-100,4,2,1,70,0,1
83023,-100,4,2,1,70,0,1
87568,-100,4,2,1,70,0,0
88098,-100,4,2,1,5,0,0
88174,-100,4,2,1,85,0,1
88477,-100,4,2,1,85,0,1
95068,-100,4,2,1,65,0,1
95144,-100,4,2,1,85,0,1
95977,-100,4,2,1,65,0,1
96053,-100,4,2,1,85,0,1
97568,-100,4,2,1,60,0,0
110295,-100,4,2,1,40,0,0
110902,-100,4,2,1,60,0,0
112114,-100,4,2,1,60,0,0
112417,-100,4,2,1,50,0,0
114538,-100,4,2,1,50,0,0

[Colours]
Combo1 : 30,205,236
Combo2 : 16,82,163
Combo3 : 204,217,225
Combo4 : 78,115,243

[HitObjects]
379,265,599,6,0,B|278:248|278:248|304:290,1,135
342,349,1053,1,0,0:0:0:0:
362,351,1356,1,0,0:0:0:0:
454,308,1508,2,0,P|467:269|459:226,1,67.5
448,158,1811,5,0,0:0:0:0:
431,155,1886,1,0,0:0:0:0:
414,152,1962,1,0,0:0:0:0:
397,149,2038,1,0,0:0:0:0:
380,146,2114,2,0,P|376:131|385:104,4,33.75
298,177,2568,6,0,L|163:195,1,135
85,156,3023,6,0,B|-16:139|-16:139|10:181,1,135
57,233,3477,1,0,0:0:0:0:
83,238,3780,5,0,0:0:0:0:
164,194,3932,2,0,B|178:166|178:166|161:106,1,67.5
118,58,4235,1,0,0:0:0:0:
118,58,4311,1,0,0:0:0:0:
118,58,4386,6,0,L|61:41,2,33.75
201,30,4689,2,0,L|172:-22,2,33.75
285,54,4992,2,0,L|302:-3,2,33.75
244,132,5295,1,0,0:0:0:0:
316,185,5447,6,0,P|373:150|449:188,1,135
442,257,5902,2,0,P|386:291|324:272,1,135
245,233,6356,1,0,0:0:0:0:
187,299,6508,1,0,0:0:0:0:
187,299,6583,1,0,0:0:0:0:
187,299,6659,6,0,L|96:311,1,67.5
67,237,6962,2,0,L|-24:249,1,67.5
34,164,7265,1,0,0:0:0:0:
108,116,7417,2,0,L|257:138,1,135
310,82,7871,6,0,P|367:47|443:85,1,135
492,145,8326,2,0,P|435:110|359:148,1,135
314,193,8780,1,0,0:0:0:0:
400,245,8932,1,0,0:0:0:0:
400,245,9008,1,0,0:0:0:0:
400,245,9083,6,0,L|464:231,2,33.75
356,321,9386,2,0,L|411:356,2,33.75
272,348,9689,2,0,L|286:411,2,33.75
186,325,9992,2,0,L|150:380,2,33.75
173,237,10295,6,0,L|77:261,2,67.5
250,194,10750,2,0,L|346:218,2,67.5
164,215,11205,6,0,L|68:239,2,67.5
241,172,11660,2,0,L|337:196,2,67.5
180,109,12114,2,0,L|125:121,2,33.75
257,61,12417,5,0,0:0:0:0:
274,64,12492,1,0,0:0:0:0:
291,67,12568,1,0,0:0:0:0:
308,70,12644,1,0,0:0:0:0:
322,73,12720,6,0,P|329:46|318:16,2,33.75
392,125,13023,2,0,P|416:110|429:81,2,33.75
398,212,13326,2,0,P|425:218|455:207,2,33.75
356,289,13629,2,0,P|370:313|399:326,2,33.75
268,298,13932,2,0,P|261:324|272:354,2,33.75
227,219,14235,6,0,L|140:234,1,67.5
76,203,14538,2,0,L|-11:218,1,67.5
0,132,14841,2,0,L|66:120,1,67.5
130,62,15144,6,0,L|265:39,1,135
348,22,15598,1,0,0:0:0:0:
363,32,15902,2,0,B|376:56|376:56|367:107,1,67.5
315,164,16205,1,0,0:0:0:0:
389,209,16356,6,0,L|434:197,2,45
299,250,16659,2,0,L|254:238,2,45
382,316,16962,2,0,L|425:327,2,45
287,343,17265,2,0,L|243:354,2,45
367,297,17568,6,0,L|515:330,1,135
491,238,18023,1,0,0:0:0:0:
477,214,18326,1,0,0:0:0:0:
393,189,18477,2,0,P|386:156|399:119,1,67.5
471,79,18780,6,0,L|520:68,2,45
391,37,19083,2,0,L|417:-5,2,45
297,53,19386,2,0,L|286:4,2,45
219,106,19689,2,0,L|176:79,2,45
264,188,19992,6,0,L|399:162,1,135
352,238,20447,1,0,0:0:0:0:
340,258,20750,1,0,0:0:0:0:
265,287,20902,2,0,L|185:272,1,67.5
109,234,21205,6,0,L|65:222,2,45
199,275,21508,2,0,L|242:263,2,45
116,341,21811,2,0,L|73:352,2,45
211,368,22114,2,0,L|255:379,2,45
131,322,22417,6,0,L|0:351,1,135
20,281,22871,2,0,L|77:298,2,33.75
107,231,23174,1,0,0:0:0:0:
69,151,23326,2,0,L|3:161,1,67.5
61,70,23629,6,0,P|90:68|116:81,2,45
161,0,23932,2,0,P|182:19|192:46,2,45
278,13,24235,2,0,P|280:42|267:68,2,45
355,101,24538,2,0,P|335:122|308:132,2,45
365,208,24841,6,0,P|291:167|237:200,1,135
187,245,25295,1,0,0:0:0:0:
117,299,25447,6,0,P|84:308|37:278,1,67.5
48,209,25750,2,0,P|79:198|111:207,1,67.5
187,245,26053,2,0,B|208:215|208:215|186:96,1,135
205,31,26508,2,0,P|265:5|332:38,1,135
283,107,26962,1,0,0:0:0:0:
364,140,27114,1,0,0:0:0:0:
324,217,27265,6,0,P|263:242|203:216,1,135
126,173,27720,2,0,P|165:226|142:297,1,135
64,338,28174,2,0,L|15:331,2,33.75
148,289,28477,6,0,L|152:322,2,33.75
65,257,28780,2,0,L|69:223,2,33.75
153,207,29083,2,0,L|202:200,2,33.75
57,138,29386,2,0,L|8:131,2,33.75
141,85,29689,6,0,L|281:68,1,135
356,101,30144,1,0,0:0:0:0:
428,149,30295,2,0,P|457:157|500:141,1,67.5
492,58,30599,2,0,P|460:48|427:55,1,67.5
356,101,30902,2,0,P|386:138|355:224,1,135
299,274,31356,6,0,P|358:255|439:299,1,135
358,341,31811,1,0,0:0:0:0:
288,287,31962,1,0,0:0:0:0:
213,326,32114,6,0,L|206:380,2,33.75
163,253,32417,2,0,L|158:219,2,33.75
127,333,32720,2,0,L|93:337,2,33.75
243,242,33023,2,0,L|276:246,2,33.75
97,164,33326,6,0,L|34:154,4,33.75
162,106,33780,1,0,0:0:0:0:
227,49,33932,6,0,L|243:-12,4,33.75
273,122,34386,1,0,0:0:0:0:
273,122,34538,6,0,P|309:109|345:122,1,67.5
423,125,34841,2,0,B|441:169|419:209,1,67.5
421,207,35068,1,0,0:0:0:0:
412,221,35144,2,0,L|493:232,1,67.5
360,304,35447,1,0,0:0:0:0:
343,300,35523,1,0,0:0:0:0:
326,296,35598,1,0,0:0:0:0:
309,290,35674,1,0,0:0:0:0:
292,284,35750,6,0,L|211:295,1,67.5
152,343,36053,2,0,L|71:354,1,67.5
107,267,36356,1,0,0:0:0:0:
41,208,36508,1,0,0:0:0:0:
122,176,36659,2,0,L|203:187,1,67.5
272,157,36962,6,0,B|284:133|284:133|261:68,1,67.5
267,11,37265,2,0,L|352:29,1,67.5
349,28,37492,1,0,0:0:0:0:
365,28,37568,2,0,L|431:14,1,67.5
486,73,37871,5,0,0:0:0:0:
483,89,37947,1,0,0:0:0:0:
480,105,38023,1,0,0:0:0:0:
477,121,38098,1,0,0:0:0:0:
472,137,38174,2,0,L|487:225,1,67.5
417,261,38477,1,0,0:0:0:0:
473,328,38629,1,0,0:0:0:0:
388,351,38780,2,0,P|353:363|306:337,1,67.5
253,303,39083,1,0,0:0:0:0:
174,359,39235,1,0,0:0:0:0:
174,359,39311,1,0,0:0:0:0:
174,359,39386,6,0,P|159:323|165:272,1,67.5
163,207,39689,2,0,L|79:218,1,67.5
78,216,39917,1,0,0:0:0:0:
61,217,39992,2,0,B|50:191|50:191|59:124,1,67.5
114,87,40295,5,0,0:0:0:0:
130,89,40371,1,0,0:0:0:0:
146,91,40447,1,0,0:0:0:0:
162,93,40523,1,0,0:0:0:0:
178,94,40598,2,0,L|262:83,1,67.5
329,110,40902,2,0,L|413:99,1,67.5
474,141,41205,1,0,0:0:0:0:
409,200,41356,1,0,0:0:0:0:
490,234,41508,2,0,P|500:263|481:315,1,67.5
428,357,41811,6,0,P|409:331|405:304,2,45
315,353,42114,6,0,P|319:321|336:299,2,45
221,290,42417,6,0,P|247:271|274:267,2,45
196,180,42720,6,0,P|227:184|249:201,2,45
125,236,43023,6,0,P|157:181|121:110,1,135
63,65,43477,1,0,0:0:0:0:
141,25,43629,2,0,P|168:15|228:32,1,67.5
273,74,43932,2,0,P|300:84|360:67,1,67.5
412,33,44235,6,0,P|428:69|420:107,1,67.5
343,155,44538,1,0,0:0:0:0:
339,171,44614,5,0,0:0:0:0:
335,187,44689,1,0,0:0:0:0:
332,203,44765,1,0,0:0:0:0:
329,219,44841,2,0,P|326:252|341:282,1,67.5
417,326,45144,1,0,0:0:0:0:
337,370,45295,2,0,L|203:349,1,135
117,366,45750,1,0,0:0:0:0:
138,286,45902,1,0,0:0:0:0:
60,246,46053,6,0,P|47:212|65:170,1,67.5
107,112,46356,2,0,L|199:125,1,67.5
257,93,46659,2,0,L|349:106,1,67.5
410,84,46962,2,0,L|402:37,2,33.75
463,157,47265,2,0,L|496:162,2,33.75
378,171,47568,2,0,L|345:176,2,33.75
441,240,47871,2,0,L|474:245,2,33.75
364,283,48174,2,0,L|268:297,1,67.5
211,273,48477,5,0,0:0:0:0:
150,336,48629,1,0,0:0:0:0:
71,297,48780,1,0,0:0:0:0:
82,209,48932,1,0,0:0:0:0:
131,136,49083,6,0,P|145:89|127:54,1,67.5
54,92,49386,2,0,L|7:84,2,33.75
135,61,49689,2,0,L|228:74,1,67.5
250,143,49992,1,0,0:0:0:0:
323,95,50144,2,0,P|390:78|452:122,1,135
499,177,50598,2,0,B|509:206|509:206|496:257,1,67.5
472,326,50902,2,0,L|381:314,1,67.5
317,312,51205,2,0,L|250:320,1,67.5
162,330,51508,6,0,L|173:268,2,45
71,326,51811,6,0,L|60:264,2,45
148,315,52114,6,0,L|159:253,2,45
57,311,52417,6,0,L|46:249,2,45
111,202,52720,6,0,P|128:156|86:81,1,135
36,152,53174,1,0,0:0:0:0:
107,101,53326,2,0,P|168:97|196:85,1,67.5
247,46,53629,2,0,P|308:50|336:62,1,67.5
384,103,53932,1,4,0:0:0:0:
256,192,54008,12,0,57568,0:0:0:0:
30,190,58780,6,0,B|102:173|87:230|166:205,1,135
243,174,59235,1,0,0:0:0:0:
316,221,59386,6,0,P|325:269|332:317,2,67.5
251,160,59841,1,0,0:0:0:0:
304,90,59992,2,0,P|354:54|433:93,1,135
472,144,60447,1,0,0:0:0:0:
426,218,60598,6,0,P|417:266|410:314,2,67.5
483,151,61053,1,0,0:0:0:0:
428,81,61205,2,0,P|366:60|312:96,1,135
260,167,61659,2,0,P|206:203|144:182,1,135
65,142,62114,2,0,B|96:168|96:168|116:288,1,135
36,306,62568,2,0,B|108:289|93:346|172:321,1,135
243,282,63023,2,0,L|323:292,1,67.5
397,295,63326,2,0,L|405:228,1,67.5
439,147,63629,6,0,L|490:160,2,33.75
387,75,63932,2,0,B|360:62|360:62|294:77,1,67.5
303,83,64159,1,0,0:0:0:0:
282,94,64235,2,0,L|197:72,1,67.5
131,56,64538,2,0,P|112:97|123:138,1,67.5
174,181,64841,2,0,L|231:198,2,33.75
115,246,65144,2,0,L|58:263,2,33.75
174,310,65447,6,0,L|239:326,1,67.5
323,302,65750,1,0,0:0:0:0:
402,340,65902,1,0,0:0:0:0:
402,340,65977,1,0,0:0:0:0:
402,340,66053,2,0,B|414:304|414:304|399:248,1,67.5
417,188,66356,6,0,L|470:202,2,33.75
329,181,66659,6,0,L|276:195,2,33.75
374,105,66962,6,0,L|382:72,2,33.75
318,173,67265,6,0,L|265:187,2,33.75
403,194,67568,6,0,L|456:208,2,33.75
366,113,67871,6,0,L|374:80,2,33.75
297,167,68174,2,0,L|216:152,1,67.5
143,140,68477,5,0,0:0:0:0:
143,140,68629,1,0,0:0:0:0:
70,91,68780,2,0,B|95:135|95:135|75:236,1,135
25,288,69235,1,0,0:0:0:0:
96,338,69386,2,0,P|144:327|187:340,1,67.5
246,353,69689,5,0,0:0:0:0:
246,353,69841,1,0,0:0:0:0:
321,309,69992,2,0,P|327:270|307:230,1,67.5
247,190,70295,2,0,L|205:183,2,33.75
327,153,70598,2,0,L|369:146,2,33.75
253,103,70902,5,0,0:0:0:0:
253,103,71053,1,0,0:0:0:0:
324,51,71205,2,0,P|391:30|454:63,1,135
414,137,71659,1,0,0:0:0:0:
483,190,71811,2,0,B|499:209|499:209|486:278,1,67.5
475,337,72114,5,0,0:0:0:0:
475,337,72265,1,0,0:0:0:0:
401,288,72417,6,0,B|329:271|344:328|265:303,1,135
196,348,72871,1,0,0:0:0:0:
117,307,73023,2,0,P|96:275|126:186,1,135
198,146,73477,6,0,B|136:162|136:162|43:129,1,135
77,50,73932,2,0,B|139:34|139:34|231:66,1,135
283,146,74386,2,0,P|350:172|430:132,1,135
412,65,74841,2,0,P|345:39|265:79,1,135
284,148,75295,1,0,0:0:0:0:
343,212,75447,2,0,B|353:251|353:251|340:301,1,67.5
323,362,75750,6,0,L|261:349,3,33.75
267,339,76053,2,0,L|205:326,3,33.75
218,309,76356,2,0,L|156:296,3,33.75
162,286,76659,2,0,L|100:273,3,33.75
102,273,76962,6,0,P|90:235|120:193,1,67.5
163,150,77265,1,0,0:0:0:0:
114,76,77417,1,0,0:0:0:0:
179,17,77568,6,0,P|211:7|263:29,1,67.5
294,85,77871,1,0,0:0:0:0:
370,41,78023,1,0,0:0:0:0:
447,82,78174,6,0,P|480:129|453:203,1,135
384,246,78629,1,0,0:0:0:0:
457,293,78780,2,0,P|414:276|342:319,1,135
281,381,79235,1,0,0:0:0:0:
208,331,79386,6,0,P|196:302|211:260,1,67.5
272,212,79689,1,0,0:0:0:0:
206,153,79841,2,0,L|119:170,1,67.5
87,94,80144,2,0,P|133:56|224:69,1,135
285,92,80598,6,0,P|350:96|403:55,1,135
473,2,81053,1,0,0:0:0:0:
473,2,81205,2,0,B|435:49|435:49|459:140,1,135
506,190,81659,1,0,0:0:0:0:
428,232,81811,2,0,P|380:222|343:247,1,67.5
285,268,82114,2,0,P|252:275|221:263,1,67.5
142,224,82417,2,0,B|166:256|166:256|151:336,2,101.25
59,196,83023,6,0,P|46:160|65:116,1,67.5
105,62,83326,1,0,0:0:0:0:
105,62,83477,1,0,0:0:0:0:
186,29,83629,2,0,B|250:53|250:53|276:84|276:84|323:103,1,135
382,63,84083,1,0,0:0:0:0:
461,11,84235,6,0,P|491:67|463:138,1,135
391,167,84689,2,0,L|342:157,2,33.75
460,221,84992,1,0,0:0:0:0:
394,279,85144,2,0,L|299:261,1,67.5
240,254,85447,2,0,L|247:314,2,45
284,183,85750,2,0,L|277:123,2,45
201,181,86053,2,0,L|156:186,2,45
327,266,86356,2,0,L|371:271,2,45
183,349,86659,6,0,L|107:358,1,67.5
96,362,86886,1,0,0:0:0:0:
75,364,86962,2,0,B|59:340|59:340|70:275,1,67.5
131,243,87265,6,0,L|182:236,2,33.75
85,167,87568,2,0,L|-7:188,1,67.5
238,35,88174,6,0,B|314:40|278:81|363:88,1,135
442,66,88629,1,0,0:0:0:0:
495,135,88780,2,0,P|477:178|484:217,1,67.5
510,279,89083,2,0,P|462:252|390:283,1,135
327,339,89538,2,0,B|294:291|294:291|323:211,1,135
301,133,89992,1,0,0:0:0:0:
221,171,90144,1,0,0:0:0:0:
148,122,90295,6,0,L|133:71,2,33.75
60,119,90598,6,0,L|75:68,2,33.75
146,139,90902,6,0,L|131:88,2,33.75
58,136,91205,6,0,L|73:85,2,33.75
138,154,91508,6,0,L|123:103,2,33.75
50,151,91811,6,0,L|65:100,2,33.75
136,171,92114,6,0,L|121:120,2,33.75
48,168,92417,6,0,L|63:117,2,33.75
77,250,92720,2,0,L|161:268,1,67.5
206,325,93023,1,0,0:0:0:0:
285,288,93174,2,0,P|264:236|312:164,1,135
387,155,93629,2,0,L|462:164,1,67.5
431,248,93932,1,0,0:0:0:0:
344,238,94083,1,0,0:0:0:0:
298,162,94235,6,0,L|289:104,2,45
201,192,94538,2,0,L|210:134,2,45
119,218,94841,2,0,L|110:160,2,45
54,274,95144,6,0,P|139:260|196:341,1,135
252,327,95598,2,0,P|310:357|373:338,1,135
434,274,96053,1,0,0:0:0:0:
410,189,96205,1,0,0:0:0:0:
323,202,96356,6,0,L|255:209,1,67.5
236,215,96583,1,0,0:0:0:0:
214,217,96659,2,0,P|195:190|204:141,1,67.5
267,93,96962,6,0,B|284:98|284:98|300:88,2,33.75
198,38,97265,2,0,B|166:31|166:31|106:59,1,67.5
49,22,97568,6,0,B|85:51|85:51|95:157,1,135
46,213,98023,1,0,0:0:0:0:
61,228,98326,1,0,0:0:0:0:
126,285,98477,2,0,P|160:272|211:289,1,67.5
266,320,98780,1,0,0:0:0:0:
269,303,98856,1,0,0:0:0:0:
273,286,98932,1,0,0:0:0:0:
277,269,99008,1,0,0:0:0:0:
281,252,99083,6,0,P|285:237|276:210,4,33.75
356,297,99538,2,0,L|503:280,1,135
490,194,99992,1,0,0:0:0:0:
490,194,100144,2,0,L|355:178,1,135
276,141,100598,2,0,B|262:117|262:117|281:62,1,67.5
361,97,100902,1,0,0:0:0:0:
361,97,101053,1,0,0:0:0:0:
206,179,101356,6,0,L|151:166,2,33.75
199,266,101659,2,0,L|150:295,2,33.75
277,305,101962,2,0,L|264:360,2,33.75
347,252,102265,1,0,0:0:0:0:
426,290,102417,2,0,P|459:242|422:162,1,135
401,93,102871,2,0,B|364:66|364:66|265:77,1,135
199,120,103326,1,0,0:0:0:0:
129,66,103477,1,0,0:0:0:0:
54,112,103629,6,0,L|58:194,1,67.5
47,193,103856,2,0,L|51:275,1,67.5
43,276,104083,2,0,P|85:262|127:290,1,67.5
119,278,104311,2,0,P|161:292|203:264,1,67.5
196,276,104538,2,0,L|198:368,1,67.5
280,313,104841,6,0,B|297:264|297:264|261:171,1,135
181,167,105295,2,0,P|214:113|306:110,1,135
347,149,105750,1,0,0:0:0:0:
414,99,105902,1,0,0:0:0:0:
485,141,106053,6,0,L|481:223,1,67.5
492,222,106280,2,0,L|488:304,1,67.5
496,305,106507,2,0,P|454:291|412:319,1,67.5
420,307,106735,2,0,P|378:321|336:293,1,67.5
343,305,106962,2,0,L|341:397,1,67.5
268,324,107265,6,0,L|172:348,2,67.5
345,281,107720,2,0,L|441:305,2,67.5
259,302,108175,6,0,L|163:326,2,67.5
336,259,108630,2,0,L|432:283,2,67.5
275,196,109084,2,0,L|220:208,2,33.75
339,102,109386,5,0,0:0:0:0:
356,105,109461,1,0,0:0:0:0:
373,108,109537,1,0,0:0:0:0:
390,111,109613,1,0,0:0:0:0:
404,114,109689,6,0,B|409:97|409:97|400:57,2,33.75
474,166,109992,2,0,B|490:158|490:158|511:122,2,33.75
480,253,110295,2,0,B|497:259|497:259|537:248,2,33.75
438,330,110598,2,0,B|445:348|445:348|481:367,2,33.75
350,339,110901,2,0,B|346:355|346:355|354:395,2,33.75
306,262,111205,6,0,L|211:282,1,67.5
164,325,111508,2,0,L|89:344,1,67.5
19,302,111811,2,0,B|9:278|9:278|29:210,1,67.5
60,166,112114,5,0,0:0:0:0:
256,192,112189,12,0,114538,0:0:0:0:
