osu file format v14

[General]
AudioFilename: pianodesuka.mp3
AudioLeadIn: 0
PreviewTime: 15144
Countdown: 0
SampleSet: Soft
StackLeniency: 0.2
Mode: 0
LetterboxInBreaks: 0
WidescreenStoryboard: 0

[Editor]
Bookmarks: 10295,15144,24841,34538,44235,53932,58780,68477,78174,87871,97568,107265,112114
DistanceSpacing: 0.5
BeatDivisor: 4
GridSize: 4
TimelineZoom: 1.2

[Metadata]
Title:Enigma
TitleUnicode:Enigma
Artist:Toromaru
ArtistUnicode:とろまる
Creator:Avena
Version:ULTRA
Source:SOUND VOLTEX III GRAVITY WARS
Tags:SDVX Piano The 5th KACオリジナル楽曲コンテスト Original Song Contest Konami Bemani Priti Frey Marianna toybot vikala Electronic Instrumental
BeatmapID:986939
BeatmapSetID:460380

[Difficulty]
HPDrainRate:5.7
CircleSize:5
OverallDifficulty:9
ApproachRate:9.6
SliderMultiplier:1.8
SliderTickRate:1

[Events]
//Background and Video events
0,0,"Enigma.jpg",0,0
//Break Periods
2,54132,57514
//Storyboard Layer 0 (Background)
//Storyboard Layer 1 (Fail)
//Storyboard Layer 2 (Pass)
//Storyboard Layer 3 (Foreground)
//Storyboard Layer 4 (Overlay)
//Storyboard Sound Samples

[TimingPoints]
599,303.030303030303,4,2,1,70,1,0
13402,-100,4,2,1,40,0,0
13629,-100,4,2,1,70,0,0
13705,-100,4,2,1,40,0,0
13932,-100,4,2,1,70,0,0
21407,-100,4,2,2,70,0,0
21508,-100,4,2,1,70,0,0
21710,-100,4,2,2,70,0,0
21811,-100,4,2,1,70,0,0
22013,-100,4,2,2,70,0,0
22114,-100,4,2,1,70,0,0
22316,-100,4,2,2,70,0,0
23629,-100,4,2,1,70,0,0
34538,-83.3333333333333,4,2,1,75,0,0
50977,-83.3333333333333,4,2,0,60,0,0
51205,-83.3333333333333,4,2,1,75,0,0
58023,-133.333333333333,4,2,1,60,0,0
58780,-100,4,2,1,70,0,0
73932,-83.3333333333333,4,2,1,70,0,0
74033,-83.3333333333333,4,2,2,70,0,0
74386,-83.3333333333333,4,2,1,70,0,0
74487,-83.3333333333333,4,2,2,70,0,0
74841,-83.3333333333333,4,2,1,70,0,0
74942,-83.3333333333333,4,2,2,70,0,0
75295,-83.3333333333333,4,2,1,70,0,0
75396,-83.3333333333333,4,2,2,70,0,0
75598,-83.3333333333333,4,2,1,70,0,0
75700,-83.3333333333333,4,2,2,70,0,0
75750,-83.3333333333333,4,2,1,70,0,0
78174,-100,4,2,1,75,0,1
82417,-66.6666666666667,4,2,1,75,0,0
83023,-100,4,2,1,75,0,1
87568,-133.333333333333,4,2,1,75,0,0
88098,-133.333333333333,4,2,1,5,0,0
88174,-66.6666666666667,4,2,1,85,0,1
88477,-80,4,2,1,85,0,1
95068,-80,4,2,1,75,0,1
95144,-80,4,2,1,85,0,1
95977,-80,4,2,1,75,0,1
96053,-80,4,2,1,85,0,1
97568,-100,4,2,1,70,0,0
110295,-100,4,2,1,50,0,0
110902,-100,4,2,1,70,0,0
112114,-133.333333333333,4,2,1,70,0,1
112265,-133.333333333333,4,2,1,70,0,0
112417,-83.3333333333333,4,2,0,60,0,1
114538,-83.3333333333333,4,2,1,60,0,0

[Colours]
Combo1 : 30,205,236
Combo2 : 16,82,163
Combo3 : 204,217,225
Combo4 : 78,115,243

[HitObjects]
132,234,599,6,0,L|315:226,1,180,6|0,1:0|0:0,0:0:0:0:
337,140,1053,2,0,L|247:143,1,90,6|0,1:2|0:0,0:0:0:0:
220,57,1356,1,0,0:0:0:0:
243,57,1431,1,0,0:0:0:0:
265,55,1507,1,0,0:0:0:0:
352,52,1660,1,0,0:0:0:0:
420,110,1811,5,0,0:0:0:0:
424,126,1886,1,0,0:0:0:0:
426,142,1962,1,0,0:0:0:0:
426,159,2038,1,0,0:0:0:0:
425,176,2114,1,0,0:0:0:0:
421,192,2189,1,0,0:0:0:0:
415,208,2265,1,0,0:0:0:0:
407,223,2341,1,0,0:0:0:0:
397,237,2417,1,0,0:0:0:0:
380,236,2492,1,0,0:0:0:0:
363,235,2568,1,2,1:0:0:0:
346,235,2644,1,0,0:0:0:0:
329,234,2720,1,0,0:0:0:0:
313,233,2795,1,0,0:0:0:0:
296,232,2871,1,2,1:0:0:0:
279,232,2947,1,0,0:0:0:0:
262,231,3024,6,0,L|63:243,1,180,6|0,1:0|0:0,0:0:0:0:
59,155,3477,2,0,L|148:149,1,90,6|0,1:2|0:0,0:0:0:0:
220,94,3780,1,0,0:0:0:0:
242,95,3855,1,0,0:0:0:0:
265,97,3931,1,0,0:0:0:0:
355,103,4083,1,0,0:0:0:0:
304,177,4236,5,0,0:0:0:0:
296,192,4311,1,0,0:0:0:0:
292,208,4387,1,6,1:2:0:0:
290,225,4463,1,0,0:0:0:0:
292,242,4539,1,0,0:0:0:0:
296,258,4614,1,0,0:0:0:0:
302,273,4690,1,6,1:2:0:0:
312,287,4766,1,0,0:0:0:0:
323,300,4842,1,0,0:0:0:0:
337,310,4917,1,0,0:0:0:0:
352,318,4993,1,2,1:0:0:0:
368,323,5069,1,2,1:0:0:0:
384,325,5144,1,2,1:0:0:0:
401,324,5220,1,0,0:0:0:0:
418,321,5296,1,6,1:2:0:0:
433,315,5372,1,0,0:0:0:0:
448,306,5448,6,0,L|443:208,1,90,14|0,1:0|0:0,0:0:0:0:
438,126,5750,1,2,1:0:0:0:
285,222,5902,2,0,L|290:124,1,90,14|0,1:2|0:0,0:0:0:0:
295,42,6204,1,2,1:0:0:0:
408,13,6356,1,2,1:0:0:0:
470,111,6507,1,2,0:0:0:0:
448,140,6583,1,2,0:0:0:0:
426,170,6660,5,2,1:0:0:0:
411,161,6734,1,0,0:0:0:0:
395,155,6810,1,0,0:0:0:0:
378,153,6886,1,0,0:0:0:0:
362,153,6962,1,2,1:0:0:0:
345,155,7037,1,0,0:0:0:0:
329,161,7113,1,0,0:0:0:0:
314,169,7189,1,0,0:0:0:0:
301,180,7265,1,2,1:0:0:0:
286,188,7342,1,0,0:0:0:0:
270,194,7417,1,10,1:0:0:0:
253,196,7493,1,0,0:0:0:0:
237,196,7569,1,0,0:0:0:0:
220,194,7645,1,0,0:0:0:0:
204,188,7720,1,10,1:0:0:0:
189,180,7796,1,0,0:0:0:0:
176,169,7872,6,0,L|69:175,1,90,14|0,1:0|0:0,0:0:0:0:
17,231,8174,1,2,1:0:0:0:
136,296,8326,2,0,L|243:302,1,90,14|0,1:2|0:0,0:0:0:0:
295,358,8628,1,2,1:0:0:0:
377,250,8780,2,0,L|371:160,1,90,2|2,1:0|1:0,0:0:0:0:
355,143,9008,1,2,1:0:0:0:
339,127,9083,5,2,1:0:0:0:
299,148,9158,1,0,0:0:0:0:
255,147,9234,1,10,1:0:0:0:
216,125,9310,1,0,0:0:0:0:
194,87,9386,1,2,1:0:0:0:
154,65,9463,1,0,0:0:0:0:
110,66,9539,1,10,1:0:0:0:
71,88,9614,1,0,0:0:0:0:
49,126,9690,5,2,1:0:0:0:
52,170,9765,1,2,1:0:0:0:
56,215,9841,1,10,1:0:0:0:
60,260,9917,1,2,1:0:0:0:
63,305,9993,1,2,1:0:0:0:
108,308,10069,1,2,1:0:0:0:
153,312,10145,1,10,1:0:0:0:
198,316,10220,1,2,1:0:0:0:
243,320,10296,6,0,P|256:261|246:222,1,90,6|0,1:0|0:0,0:0:0:0:
205,154,10598,1,2,1:0:0:0:
327,211,10750,6,0,L|426:205,1,90,6|0,1:2|0:0,0:0:0:0:
506,201,11053,1,2,1:0:0:0:
434,316,11205,6,0,L|334:310,1,90,6|0,1:2|0:0,0:0:0:0:
257,307,11508,1,2,1:0:0:0:
141,237,11659,6,0,P|128:178|138:139,1,90,6|0,1:2|0:0,0:0:0:0:
179,71,11961,1,2,1:0:0:0:
304,125,12114,6,0,L|295:232,1,90,6|0,1:2|0:0,0:0:0:0:
216,327,12417,1,2,1:0:0:0:
257,307,12492,1,0,0:0:0:0:
301,306,12568,1,2,0:0:0:0:
342,326,12644,1,2,0:0:0:0:
371,360,12720,6,0,L|490:353,1,90,6|0,1:0|0:0,0:0:0:0:
504,226,13023,2,0,L|414:220,1,90,6|0,1:2|0:0,0:0:0:0:
274,256,13326,6,0,P|263:224|266:199,3,45,2|2|2|2,1:0|0:0|0:0|0:0,0:0:0:0:
298,155,13629,2,0,P|309:123|306:98,3,45,2|2|2|2,1:0|0:0|0:0|0:0,0:0:0:0:
278,51,13932,5,2,0:0:0:0:
266,52,14007,1,2,0:0:0:0:
255,53,14083,1,2,0:0:0:0:
244,54,14159,1,2,0:0:0:0:
233,55,14235,5,2,0:0:0:0:
211,59,14310,1,2,0:0:0:0:
188,56,14386,1,2,0:0:0:0:
168,47,14462,1,2,0:0:0:0:
150,33,14538,5,2,0:0:0:0:
118,23,14613,1,2,0:0:0:0:
85,27,14689,1,2,0:0:0:0:
56,45,14765,1,2,0:0:0:0:
37,72,14841,5,2,0:0:0:0:
30,116,14917,1,2,0:0:0:0:
46,157,14993,1,2,0:0:0:0:
81,184,15069,1,2,0:0:0:0:
125,190,15145,6,0,L|264:182,1,135,4|0,1:0|0:0,0:0:0:0:
326,179,15448,5,2,1:0:0:0:
306,311,15598,1,0,0:0:0:0:
431,263,15750,1,0,1:0:0:0:
489,26,15902,5,0,0:0:0:0:
509,158,16052,1,2,1:0:0:0:
384,110,16204,1,2,0:0:0:0:
431,263,16356,6,0,L|364:268,2,60,0|0|2,1:0|0:0|0:0,0:0:0:0:
456,349,16659,5,2,1:0:0:0:
396,344,16760,1,2,0:0:0:0:
336,339,16861,1,2,0:0:0:0:
295,258,16962,5,0,1:0:0:0:
255,262,17063,1,0,0:0:0:0:
216,265,17164,1,2,0:0:0:0:
147,323,17265,5,2,1:0:0:0:
127,321,17366,1,2,0:0:0:0:
107,319,17467,1,2,0:0:0:0:
27,276,17568,6,0,L|18:120,1,135,4|0,1:0|0:0,0:0:0:0:
16,74,17871,5,2,1:0:0:0:
114,166,18023,1,0,0:0:0:0:
147,36,18174,1,0,1:0:0:0:
244,199,18327,5,0,0:0:0:0:
150,295,18477,1,2,1:0:0:0:
114,166,18629,1,2,0:0:0:0:
277,69,18780,6,0,B|302:53|302:53|339:57,1,60,2|0,1:0|0:0,0:0:0:0:
420,72,18982,1,2,0:0:0:0:
329,199,19083,6,0,B|313:174|313:174|317:137,1,60,6|0,1:0|0:0,0:0:0:0:
332,56,19285,1,2,0:0:0:0:
472,202,19386,6,0,B|447:218|447:218|410:214,1,60,2|2,1:0|1:0,0:0:0:0:
329,199,19588,1,2,1:0:0:0:
420,72,19689,6,0,B|436:97|436:97|432:134,1,60,6|2,1:2|1:0,0:0:0:0:
417,215,19891,1,2,1:0:0:0:
277,69,19992,6,2,L|416:60,1,135,2|0,3:0|0:0,0:0:0:0:
501,72,20295,6,0,L|488:161,1,90,6|0,1:0|0:0,0:0:0:0:
468,294,20599,1,0,1:0:0:0:
193,229,20750,6,0,L|282:224,1,90,0|2,0:0|1:0,0:0:0:0:
417,215,21054,1,2,1:0:0:0:
341,103,21205,5,0,1:0:0:0:
335,120,21306,1,0,0:0:0:0:
329,137,21407,1,10,0:0:0:0:
226,81,21508,5,2,1:0:0:0:
233,117,21609,1,2,0:0:0:0:
240,153,21710,1,10,0:0:0:0:
285,13,21811,5,0,1:0:0:0:
338,19,21912,1,0,0:0:0:0:
391,25,22013,1,10,0:0:0:0:
307,110,22114,5,2,1:0:0:0:
379,100,22215,1,2,0:0:0:0:
451,91,22316,1,10,0:0:0:0:
343,192,22417,6,2,L|486:197,1,135,4|0,1:0|0:1,0:0:0:0:
507,294,22720,5,8,1:2:0:0:
464,280,22795,1,2,0:2:0:0:
419,281,22871,1,2,0:2:0:0:
377,297,22947,1,2,0:2:0:0:
343,325,23023,1,0,1:2:0:0:
300,338,23098,1,2,0:2:0:0:
255,337,23174,1,2,0:2:0:0:
213,321,23250,1,2,0:2:0:0:
179,293,23326,1,8,1:2:0:0:
155,255,23401,1,2,0:2:0:0:
146,211,23477,1,8,0:2:0:0:
151,166,23553,1,8,0:2:0:0:
171,126,23629,6,0,L|165:46,2,60,2|0|2,1:0|0:0|0:0,0:0:0:0:
284,116,23932,6,0,L|280:176,2,60,6|0|2,1:2|0:0|0:0,0:0:0:0:
366,77,24235,5,6,1:2:0:0:
395,74,24336,1,2,0:0:0:0:
425,70,24437,1,2,0:0:0:0:
280,176,24538,5,6,1:2:0:0:
339,182,24639,1,2,0:0:0:0:
398,190,24740,1,2,0:0:0:0:
480,296,24841,6,0,L|345:302,1,135,6|0,1:0|0:0,0:0:0:0:
281,278,25144,1,8,0:0:0:0:
152,318,25295,1,0,0:0:0:0:
112,189,25448,1,0,0:0:0:0:
241,149,25599,1,2,0:0:0:0:
152,318,25750,2,0,L|55:313,1,90,8|0,0:0|0:0,0:0:0:0:
67,191,26053,6,0,L|111:188,1,45,2|0,0:0|0:0,0:0:0:0:
241,149,26205,2,0,L|285:151,1,45,2|0,0:0|0:0,0:0:0:0:
404,215,26357,2,0,P|463:215|498:187,1,90,8|0,0:0|0:0,0:0:0:0:
435,36,26660,2,0,L|430:126,1,90,0|2,0:0|0:0,0:0:0:0:
251,239,26961,1,8,0:0:0:0:
241,149,27114,1,0,0:0:0:0:
404,215,27265,6,0,B|423:305|387:255|402:347,1,135,2|0,0:0|0:0,0:0:0:0:
315,371,27568,1,8,0:0:0:0:
128,270,27719,2,0,P|197:273|251:240,1,135,2|0,0:0|0:0,0:0:0:0:
241,149,28023,1,2,0:0:0:0:
97,41,28174,1,8,0:0:0:0:
95,63,28249,1,0,0:0:0:0:
93,85,28325,1,0,0:0:0:0:
91,108,28401,1,0,0:0:0:0:
90,130,28477,5,2,0:0:0:0:
119,163,28552,1,0,0:0:0:0:
160,179,28628,1,0,0:0:0:0:
205,173,28704,1,0,0:0:0:0:
241,149,28780,1,8,0:0:0:0:
270,114,28855,1,0,0:0:0:0:
311,98,28931,1,0,0:0:0:0:
356,103,29007,1,0,0:0:0:0:
393,128,29083,1,2,0:0:0:0:
414,167,29158,1,0,0:0:0:0:
414,212,29234,1,0,0:0:0:0:
394,252,29310,1,0,0:0:0:0:
357,277,29386,1,8,0:0:0:0:
334,314,29461,1,0,0:0:0:0:
343,357,29537,1,2,0:0:0:0:
380,381,29613,1,2,0:0:0:0:
395,370,29689,6,0,L|253:375,1,135,6|0,1:0|0:0,0:0:0:0:
192,377,29992,1,8,0:0:0:0:
87,229,30144,1,0,0:0:0:0:
172,124,30295,1,0,0:0:0:0:
220,250,30446,1,2,0:0:0:0:
39,103,30599,1,8,0:0:0:0:
87,229,30750,1,0,0:0:0:0:
172,124,30902,6,0,L|164:61,1,45,2|0,0:0|0:0,0:0:0:0:
291,23,31053,2,0,L|285:67,1,45,2|0,0:0|0:0,0:0:0:0:
372,175,31205,2,0,L|488:170,1,90,8|0,0:0|0:0,0:0:0:0:
509,44,31508,2,0,L|393:39,1,90,0|2,0:0|0:0,0:0:0:0:
285,67,31811,1,8,0:0:0:0:
287,89,31886,1,2,0:0:0:0:
290,111,31962,1,2,0:0:0:0:
211,221,32114,5,2,0:0:0:0:
174,195,32189,1,0,0:0:0:0:
130,191,32265,1,8,0:0:0:0:
90,210,32341,1,0,0:0:0:0:
66,247,32417,1,2,0:0:0:0:
64,292,32492,1,0,0:0:0:0:
85,331,32568,1,8,0:0:0:0:
123,353,32644,1,0,0:0:0:0:
168,353,32720,1,2,0:0:0:0:
204,327,32796,1,0,0:0:0:0:
246,312,32872,1,8,0:0:0:0:
291,310,32948,1,0,0:0:0:0:
335,320,33023,1,2,0:0:0:0:
371,346,33099,1,0,0:0:0:0:
413,361,33175,1,8,0:0:0:0:
458,363,33251,1,0,0:0:0:0:
501,353,33327,5,2,0:0:0:0:
499,330,33402,1,0,3:0:0:0:
497,308,33478,1,2,0:0:0:0:
496,285,33553,1,0,3:0:0:0:
494,263,33630,1,2,0:0:0:0:
492,240,33705,1,0,3:0:0:0:
491,218,33781,1,2,0:0:0:0:
489,195,33857,1,0,3:0:0:0:
487,173,33932,5,10,0:0:0:0:
439,200,34007,1,2,0:0:0:0:
383,198,34083,1,2,0:0:0:0:
337,167,34159,1,2,0:0:0:0:
312,118,34236,1,2,0:0:0:0:
287,68,34312,1,2,0:0:0:0:
241,38,34386,1,2,0:0:0:0:
185,36,34462,1,2,0:0:0:0:
136,63,34539,6,0,L|146:129,1,53.9999983520508,6|0,1:0|0:0,0:0:0:0:
200,173,34689,2,0,L|190:239,1,53.9999983520508,0|0,1:0|0:0,0:0:0:0:
133,284,34841,1,8,0:0:0:0:
34,180,34992,1,0,0:0:0:0:
34,180,35068,1,0,0:0:0:0:
34,180,35144,6,0,L|100:170,1,53.9999983520508,2|0,1:0|0:0,0:0:0:0:
144,116,35295,2,0,L|210:126,1,53.9999983520508,0|0,1:0|0:0,0:0:0:0:
255,183,35446,1,8,0:0:0:0:
400,112,35598,1,0,0:0:0:0:
400,112,35674,1,0,0:0:0:0:
400,112,35750,6,0,P|407:75|405:49,1,53.9999983520508,2|0,1:0|0:0,0:0:0:0:
482,26,35902,2,0,P|482:52|488:79,1,53.9999983520508,0|0,1:0|0:0,0:0:0:0:
507,158,36053,1,8,0:0:0:0:
503,184,36128,1,0,0:0:0:0:
500,211,36204,1,0,0:0:0:0:
496,238,36280,1,0,0:0:0:0:
493,265,36356,6,0,L|431:270,1,53.9999983520508,2|0,1:0|0:0,0:0:0:0:
369,311,36508,2,0,L|306:306,1,53.9999983520508,0|0,1:0|0:0,0:0:0:0:
244,265,36659,1,8,0:0:0:0:
297,33,36811,1,8,0:0:0:0:
400,112,36962,6,0,L|326:118,1,53.9999983520508,6|0,1:0|0:0,0:0:0:0:
308,189,37114,2,0,L|361:193,1,53.9999983520508,0|0,1:0|0:0,0:0:0:0:
441,204,37264,1,8,0:0:0:0:
348,339,37417,1,0,0:0:0:0:
348,339,37492,1,0,0:0:0:0:
348,339,37568,6,0,P|306:349|284:347,1,53.9999983520508,2|0,1:0|0:0,0:0:0:0:
226,303,37720,2,0,P|184:293|162:295,1,53.9999983520508,0|0,1:0|0:0,0:0:0:0:
99,327,37871,1,8,0:0:0:0:
73,333,37946,1,0,0:0:0:0:
48,326,38022,1,0,0:0:0:0:
28,308,38098,1,0,0:0:0:0:
19,283,38174,6,0,L|26:214,1,53.9999983520508,2|0,1:0|0:0,0:0:0:0:
32,146,38326,2,0,L|39:77,1,53.9999983520508,0|0,1:0|0:0,0:0:0:0:
45,11,38477,1,8,0:0:0:0:
66,26,38552,1,0,0:0:0:0:
92,36,38628,1,2,0:0:0:0:
118,38,38704,1,0,0:0:0:0:
145,33,38780,5,2,1:0:0:0:
175,193,38932,1,0,1:0:0:0:
311,106,39083,1,8,0:0:0:0:
281,266,39235,1,2,0:0:0:0:
281,266,39311,1,2,0:0:0:0:
281,266,39386,6,0,L|346:261,1,53.9999983520508,6|0,1:0|0:0,0:0:0:0:
411,292,39538,2,0,L|476:297,1,53.9999983520508,0|0,1:0|0:0,0:0:0:0:
502,223,39689,1,8,0:0:0:0:
508,196,39764,1,0,0:0:0:0:
508,170,39840,1,0,0:0:0:0:
500,144,39916,1,0,0:0:0:0:
486,121,39993,6,0,P|441:131|417:130,1,53.9999983520508,2|0,1:0|0:0,0:0:0:0:
372,77,40144,2,0,P|326:67|302:68,1,53.9999983520508,0|0,1:0|0:0,0:0:0:0:
245,101,40295,1,8,0:0:0:0:
218,103,40370,1,0,0:0:0:0:
191,105,40448,1,0,0:0:0:0:
164,107,40522,1,0,0:0:0:0:
137,109,40598,6,0,L|130:171,1,53.9999983520508,2|0,1:0|0:0,0:0:0:0:
188,220,40750,2,0,L|195:282,1,53.9999983520508,0|0,1:0|0:0,0:0:0:0:
169,352,40902,1,8,0:0:0:0:
195,346,40977,1,0,0:0:0:0:
222,348,41053,1,0,0:0:0:0:
247,357,41129,1,0,0:0:0:0:
269,373,41205,6,0,P|318:366|331:358,1,53.9999983520508,2|0,1:0|0:0,0:0:0:0:
369,298,41356,2,0,P|418:305|431:313,1,53.9999983520508,0|0,1:0|0:0,0:0:0:0:
490,350,41508,1,8,0:0:0:0:
452,97,41659,1,8,0:0:0:0:
361,156,41811,6,0,P|314:150|285:128,2,71.9999978027344,6|2|2,0:0|0:0|0:0,0:0:0:0:
436,279,42114,6,0,P|389:285|360:307,1,71.9999978027344,6|2,0:0|0:0,0:0:0:0:
330,358,42316,1,2,0:0:0:0:
227,323,42417,6,0,L|234:239,1,71.9999978027344,6|2,0:0|0:0,0:0:0:0:
243,180,42619,1,2,0:0:0:0:
104,140,42720,5,6,0:0:0:0:
112,186,42821,1,2,0:0:0:0:
120,232,42922,1,2,0:0:0:0:
70,329,43023,6,0,P|148:308|227:323,1,161.999995056153,2|0,0:0|0:0,0:0:0:0:
293,368,43326,5,0,1:0:0:0:
319,208,43477,1,2,0:0:0:0:
480,229,43629,5,0,1:0:0:0:
328,286,43780,1,2,0:0:0:0:
266,136,43932,5,0,1:0:0:0:
391,239,44083,1,2,0:0:0:0:
395,243,44159,1,2,0:0:0:0:
399,247,44235,6,0,L|406:189,1,53.9999983520508,4|0,1:0|0:0,0:0:0:0:
455,127,44386,2,0,L|448:69,1,53.9999983520508,0|0,1:0|0:0,0:0:0:0:
374,37,44538,5,8,0:0:0:0:
332,71,44613,1,0,0:0:0:0:
281,88,44689,1,0,0:0:0:0:
228,85,44765,1,0,0:0:0:0:
179,63,44841,1,2,0:0:0:0:
134,33,44916,1,0,0:0:0:0:
81,29,44992,1,0,0:0:0:0:
33,51,45068,1,0,0:0:0:0:
3,96,45144,1,8,0:0:0:0:
43,129,45219,1,0,0:0:0:0:
95,144,45295,1,0,0:0:0:0:
148,136,45371,1,0,0:0:0:0:
192,107,45447,1,2,0:0:0:0:
242,88,45522,1,0,0:0:0:0:
291,107,45598,1,0,0:0:0:0:
316,154,45674,1,0,0:0:0:0:
304,205,45751,1,8,0:0:0:0:
288,255,45827,1,0,0:0:0:0:
314,303,45902,1,2,0:0:0:0:
365,319,45978,1,0,0:0:0:0:
412,293,46054,1,2,0:0:0:0:
428,241,46130,1,0,0:0:0:0:
402,194,46205,1,0,0:0:0:0:
350,178,46281,1,0,0:0:0:0:
304,205,46356,5,10,0:0:0:0:
141,168,46508,1,0,0:0:0:0:
211,16,46659,6,0,L|203:91,1,53.9999983520508,4|0,1:0|0:0,0:0:0:0:
136,115,46811,2,0,L|144:190,1,53.9999983520508,0|0,1:0|0:0,0:0:0:0:
208,215,46962,5,8,0:0:0:0:
232,263,47037,1,0,0:0:0:0:
228,316,47113,1,0,0:0:0:0:
198,360,47189,1,0,0:0:0:0:
150,383,47265,1,2,0:0:0:0:
97,378,47340,1,0,0:0:0:0:
53,347,47416,1,0,0:0:0:0:
31,299,47492,1,0,0:0:0:0:
37,246,47568,1,8,0:0:0:0:
80,278,47643,1,0,0:0:0:0:
133,283,47719,1,2,0:0:0:0:
181,259,47795,1,0,0:0:0:0:
208,215,47871,1,2,0:0:0:0:
192,165,47948,1,0,0:0:0:0:
218,117,48023,1,0,0:0:0:0:
269,101,48099,1,0,0:0:0:0:
316,127,48175,1,8,0:0:0:0:
332,179,48251,1,0,0:0:0:0:
306,226,48327,1,2,0:0:0:0:
254,242,48402,1,0,0:0:0:0:
208,215,48477,5,2,0:0:0:0:
50,141,48628,1,2,0:0:0:0:
193,41,48780,1,8,0:0:0:0:
208,215,48932,1,2,0:0:0:0:
212,219,49008,1,0,0:0:0:0:
216,223,49083,6,0,L|335:217,1,107.999996704102,6|0,1:0|0:0,0:0:0:0:
462,72,49386,5,8,0:0:0:0:
431,28,49461,1,0,0:0:0:0:
382,7,49537,1,0,0:0:0:0:
330,16,49613,1,0,0:0:0:0:
290,52,49689,1,2,0:0:0:0:
277,104,49764,1,0,0:0:0:0:
292,154,49840,1,0,0:0:0:0:
309,206,49916,1,0,0:0:0:0:
295,258,49992,1,8,0:0:0:0:
255,294,50067,1,0,0:0:0:0:
203,303,50143,1,0,0:0:0:0:
154,282,50219,1,0,0:0:0:0:
124,238,50295,1,2,0:0:0:0:
102,188,50370,1,0,0:0:0:0:
101,135,50446,1,0,0:0:0:0:
121,85,50522,1,0,0:0:0:0:
158,47,50598,1,8,0:0:0:0:
208,26,50673,1,0,0:0:0:0:
261,26,50749,1,0,0:0:0:0:
311,46,50825,1,0,0:0:0:0:
349,84,50902,5,2,0:0:0:0:
344,151,50978,1,2,0:0:0:0:
339,218,51054,1,2,0:0:0:0:
334,285,51130,1,2,0:0:0:0:
329,353,51205,5,8,0:0:0:0:
215,279,51356,1,2,0:0:0:0:
452,195,51508,6,0,P|454:227|434:264,2,71.9999978027344,6|2|2,0:0|0:0|0:0,0:0:0:0:
316,145,51811,6,0,L|328:229,1,71.9999978027344,6|2,0:0|0:0,0:0:0:0:
338,287,52013,1,2,0:0:0:0:
462,123,52114,6,0,L|450:207,2,71.9999978027344,6|2|2,0:0|0:0|0:0,0:0:0:0:
356,38,52417,5,6,0:0:0:0:
409,47,52518,1,2,0:0:0:0:
460,40,52619,1,2,0:0:0:0:
508,15,52720,6,0,B|439:52|439:52|357:38,1,161.999995056153,2|0,1:0|0:0,0:0:0:0:
279,15,53023,5,0,1:0:0:0:
272,177,53174,1,2,0:0:0:0:
433,190,53326,5,0,1:0:0:0:
297,103,53477,1,2,0:0:0:0:
205,236,53629,5,0,1:0:0:0:
348,162,53780,1,2,0:0:0:0:
352,166,53856,1,2,0:0:0:0:
356,170,53932,1,6,0:0:0:0:
356,170,58023,5,2,0:0:0:0:
416,198,58174,2,0,L|444:191,3,22.5000008583069,2|2|2|2,0:0|0:0|0:0|0:0,0:0:0:0:
411,130,58477,1,0,0:0:0:0:
361,238,58629,1,2,0:0:0:0:
351,102,58780,6,0,L|360:8,1,90,6|0,1:0|0:0,0:0:0:0:
177,55,59083,1,0,0:0:0:0:
163,98,59158,1,0,0:0:0:0:
165,143,59234,1,0,0:0:0:0:
182,184,59310,1,0,0:0:0:0:
213,217,59386,1,8,0:0:0:0:
244,249,59461,1,0,0:0:0:0:
256,292,59537,1,0,0:0:0:0:
245,335,59613,1,0,0:0:0:0:
214,367,59689,1,0,0:0:0:0:
171,380,59764,1,0,0:0:0:0:
128,370,59840,1,2,0:0:0:0:
95,340,59916,1,0,0:0:0:0:
81,298,59992,6,0,L|89:245,2,45,0|0|0,3:0|3:0|3:0,0:0:0:0:
25,160,60295,1,2,0:0:0:0:
42,158,60370,1,0,0:0:0:0:
59,157,60446,1,0,0:0:0:0:
76,155,60522,1,0,0:0:0:0:
93,154,60598,1,8,0:0:0:0:
109,153,60673,1,0,0:0:0:0:
126,151,60749,1,2,0:0:0:0:
143,150,60825,1,0,0:0:0:0:
160,149,60902,1,2,0:0:0:0:
198,171,60977,1,2,0:0:0:0:
242,169,61053,1,2,0:0:0:0:
278,143,61129,1,2,0:0:0:0:
292,101,61205,6,0,L|398:107,1,90,6|2,0:0|0:0,0:0:0:0:
472,114,61508,1,8,0:0:0:0:
406,298,61659,2,0,L|399:191,1,90,2|2,0:0|0:0,0:0:0:0:
393,118,61962,1,8,0:0:0:0:
262,153,62114,5,2,0:0:0:0:
297,22,62266,1,2,0:0:0:0:
318,26,62341,1,2,0:0:0:0:
340,30,62417,1,8,0:0:0:0:
483,114,62568,2,0,L|375:119,1,90,2|2,0:0|0:0,0:0:0:0:
329,182,62871,1,8,0:0:0:0:
223,96,63023,5,2,0:0:0:0:
217,158,63174,1,0,3:0:0:0:
211,220,63326,1,0,3:0:0:0:
206,282,63477,1,0,3:0:0:0:
53,174,63629,6,0,P|48:129|71:92,1,90,6|0,1:0|0:0,0:0:0:0:
197,45,63932,1,8,0:0:0:0:
231,73,64007,1,0,0:0:0:0:
273,89,64083,1,0,0:0:0:0:
318,92,64159,1,0,0:0:0:0:
361,81,64235,1,2,0:0:0:0:
404,68,64310,1,0,0:0:0:0:
446,82,64386,1,0,0:0:0:0:
471,118,64462,1,0,0:0:0:0:
471,163,64539,2,0,L|460:266,1,90,8|0,0:0|0:0,0:0:0:0:
279,343,64841,5,2,0:0:0:0:
307,308,64916,1,0,0:0:0:0:
322,266,64992,1,0,0:0:0:0:
320,221,65068,1,0,0:0:0:0:
302,181,65144,1,8,0:0:0:0:
270,149,65219,1,0,0:0:0:0:
228,132,65295,1,0,0:0:0:0:
184,131,65371,1,0,0:0:0:0:
142,146,65447,1,2,0:0:0:0:
98,156,65522,1,0,0:0:0:0:
56,143,65598,1,0,0:0:0:0:
26,110,65674,1,0,0:0:0:0:
16,67,65750,2,0,P|16:40|32:13,1,45,8|0,0:0|0:0,0:0:0:0:
134,58,65902,1,8,0:0:0:0:
138,102,65977,1,8,0:0:0:0:
142,146,66053,6,0,L|132:238,1,90,6|0,1:0|0:0,0:0:0:0:
236,324,66356,1,8,0:0:0:0:
280,329,66431,1,0,0:0:0:0:
323,318,66507,1,0,0:0:0:0:
360,292,66583,1,0,0:0:0:0:
384,254,66659,1,2,0:0:0:0:
393,210,66734,1,0,0:0:0:0:
386,166,66810,1,0,0:0:0:0:
363,128,66886,1,0,0:0:0:0:
328,100,66962,2,0,P|319:65|324:40,1,45,8|0,0:0|0:0,0:0:0:0:
429,10,67114,2,0,P|428:32|420:53,1,45,2|0,0:0|0:0,0:0:0:0:
296,173,67265,5,2,0:0:0:0:
251,170,67340,1,0,0:0:0:0:
206,167,67416,1,0,0:0:0:0:
161,164,67492,1,0,0:0:0:0:
116,161,67568,1,8,0:0:0:0:
136,201,67645,1,0,3:0:0:0:
156,240,67720,1,0,3:0:0:0:
176,281,67796,1,0,3:0:0:0:
196,321,67872,1,2,0:0:0:0:
221,283,67948,1,0,0:0:0:0:
246,245,68023,2,0,L|302:248,1,45,8|0,0:0|0:0,0:0:0:0:
415,302,68174,1,2,0:0:0:0:
412,279,68249,1,0,0:0:0:0:
410,257,68325,1,8,0:0:0:0:
408,234,68401,1,0,0:0:0:0:
405,212,68477,5,6,1:0:0:0:
461,40,68629,1,2,0:0:0:0:
285,76,68780,2,0,P|221:73|196:53,1,90,8|0,0:0|0:0,0:0:0:0:
71,13,69083,1,2,0:0:0:0:
54,54,69158,1,0,0:0:0:0:
44,98,69234,1,2,0:0:0:0:
40,143,69310,1,2,0:0:0:0:
44,188,69386,1,8,0:0:0:0:
98,260,69538,1,2,0:0:0:0:
181,226,69689,5,2,0:0:0:0:
357,258,69841,1,2,0:0:0:0:
297,90,69992,2,0,L|398:86,1,90,8|0,0:0|0:0,0:0:0:0:
509,215,70295,1,2,0:0:0:0:
482,250,70370,1,0,0:0:0:0:
443,272,70446,1,2,0:0:0:0:
398,274,70522,1,2,0:0:0:0:
357,258,70599,1,8,0:0:0:0:
314,240,70675,1,0,0:0:0:0:
270,243,70751,1,2,0:0:0:0:
230,264,70827,1,0,0:0:0:0:
204,299,70902,5,6,0:0:0:0:
28,264,71053,1,2,0:0:0:0:
147,129,71205,2,0,P|143:71|121:44,1,90,8|0,0:0|0:0,0:0:0:0:
89,203,71508,1,2,0:0:0:0:
133,200,71583,1,0,0:0:0:0:
178,198,71659,1,2,0:0:0:0:
223,196,71735,1,2,0:0:0:0:
268,194,71811,2,0,P|288:150|282:108,1,90,8|2,0:0|0:0,0:0:0:0:
246,25,72114,5,6,1:0:0:0:
424,7,72264,1,2,0:0:0:0:
351,169,72416,1,8,0:0:0:0:
154,92,72568,1,0,0:0:0:0:
158,88,72644,1,0,0:0:0:0:
162,84,72719,1,6,1:0:0:0:
340,66,72870,1,2,0:0:0:0:
267,228,73022,1,8,0:0:0:0:
70,151,73175,1,2,0:0:0:0:
74,147,73251,1,2,0:0:0:0:
78,143,73326,6,0,P|95:202|90:252,1,90,6|8,1:0|0:0,0:0:0:0:
57,312,73629,1,0,0:0:0:0:
133,358,73780,1,2,0:0:0:0:
162,174,73932,6,0,L|255:183,1,71.9999978027344,8|2,0:0|0:0,0:0:0:0:
246,194,74083,2,0,L|339:184,1,71.9999978027344,0|2,0:1|0:0,0:0:0:0:
330,173,74235,2,0,L|423:182,1,71.9999978027344,8|2,0:0|0:0,0:0:0:0:
414,192,74386,2,0,L|507:182,1,71.9999978027344,8|2,0:0|0:0,0:0:0:0:
498,172,74538,6,0,P|506:115|506:92,1,71.9999978027344,0|2,0:0|0:0,0:0:0:0:
494,113,74689,2,0,P|485:56|485:33,1,71.9999978027344,8|2,0:0|0:0,0:0:0:0:
498,28,74841,2,0,L|417:23,1,71.9999978027344,8|2,0:0|0:0,0:0:0:0:
413,36,74992,2,0,L|332:41,1,71.9999978027344,0|2,0:0|0:0,0:0:0:0:
328,27,75144,6,0,L|247:22,1,71.9999978027344,8|2,0:0|0:0,0:0:0:0:
243,35,75296,2,0,L|162:40,1,71.9999978027344,8|2,0:0|0:0,0:0:0:0:
158,26,75447,2,0,P|139:67|146:110,1,71.9999978027344,10|2,0:0|0:0,0:0:0:0:
152,105,75598,2,0,P|171:146|164:189,1,71.9999978027344,8|2,0:0|0:0,0:0:0:0:
156,184,75750,6,0,L|160:248,1,53.9999983520508,2|0,0:0|0:0,0:0:0:0:
239,211,75902,2,0,L|236:265,1,53.9999983520508,2|0,0:0|0:0,0:0:0:0:
306,166,76053,2,0,L|310:230,1,53.9999983520508,2|0,0:0|0:0,0:0:0:0:
389,193,76205,2,0,L|386:247,1,53.9999983520508,2|0,0:0|0:0,0:0:0:0:
236,158,76356,6,0,L|240:222,1,53.9999983520508,2|0,0:0|0:0,0:0:0:0:
319,185,76508,2,0,L|316:239,1,53.9999983520508,2|0,0:0|0:0,0:0:0:0:
386,139,76659,2,0,L|390:203,1,53.9999983520508,2|0,0:0|0:0,0:0:0:0:
469,167,76811,2,0,L|466:221,1,53.9999983520508,2|0,0:0|0:0,0:0:0:0:
320,329,76962,5,6,0:0:0:0:
275,300,77037,1,2,0:0:0:0:
222,295,77113,1,2,0:0:0:0:
173,316,77189,1,2,0:0:0:0:
138,357,77265,1,6,0:0:0:0:
88,373,77340,1,2,0:0:0:0:
40,351,77416,1,2,0:0:0:0:
20,302,77492,1,2,0:0:0:0:
39,253,77568,1,6,0:0:0:0:
55,202,77643,1,2,0:0:0:0:
55,148,77719,1,2,0:0:0:0:
39,97,77795,1,2,0:0:0:0:
9,53,77871,5,2,0:0:0:0:
0,118,77946,1,2,0:0:0:0:
31,177,78022,1,2,0:0:0:0:
91,205,78098,1,2,0:0:0:0:
155,191,78175,6,0,B|271:173|218:222|340:203,1,180,4|0,1:2|0:0,0:0:0:0:
451,21,78629,2,0,P|441:62|443:73,1,45
511,188,78780,2,0,L|422:196,1,90,8|0,0:0|0:0,0:0:0:0:
331,204,79084,1,0,0:0:0:0:
380,328,79235,1,0,0:0:0:0:
248,308,79387,6,0,P|189:314|158:327,1,90,2|0,0:0|0:0,0:0:0:0:
85,374,79689,1,0,0:0:0:0:
24,307,79841,2,0,L|18:235,1,45,2|0,0:0|3:0,0:0:0:0:
57,205,79992,1,8,0:0:0:0:
14,76,80144,2,0,B|130:94|77:45|199:64,1,180,0|2,0:0|0:0,0:0:0:0:
210,72,80523,1,2,0:0:0:0:
229,83,80598,6,0,P|241:135|240:181,1,90,6|0,0:0|0:0,0:0:0:0:
208,256,80902,1,0,0:0:0:0:
382,216,81053,1,0,0:0:0:0:
376,194,81129,1,0,0:0:0:0:
370,172,81205,1,8,0:0:0:0:
289,332,81356,1,0,0:0:0:0:
300,333,81432,1,0,0:0:0:0:
311,334,81508,2,0,P|355:324|406:326,1,90,0|0,0:0|0:0,0:0:0:0:
483,217,81811,6,0,P|424:222|305:192,1,180,2|0,0:0|0:0,0:0:0:0:
265,114,82265,1,0,0:0:0:0:
199,232,82417,2,0,B|114:245|114:245|70:206,1,135.000005149842,8|0,0:0|0:0,0:0:0:0:
93,51,82644,2,0,B|146:118|146:118|137:167,1,135.000005149842,2|0,0:0|0:0,0:0:0:0:
14,170,82871,2,0,B|20:153|20:153|67:138,1,67.5000025749208,2|0,0:0|0:0,0:0:0:0:
219,144,83023,6,0,L|199:231,1,90,6|0,0:0|0:0,0:0:0:0:
169,316,83326,1,0,0:0:0:0:
343,272,83477,2,0,P|371:274|397:283,1,45,0|0,0:0|0:0,0:0:0:0:
467,322,83629,1,8,0:0:0:0:
494,286,83704,1,0,0:0:0:0:
509,244,83780,1,0,0:0:0:0:
512,199,83856,1,0,0:0:0:0:
501,156,83932,2,0,L|410:160,1,90,0|2,0:0|0:0,0:0:0:0:
313,41,84235,6,0,L|501:51,1,180,2|2,0:0|0:0,0:0:0:0:
411,160,84689,1,2,0:0:0:0:
284,111,84841,2,0,P|281:157|269:197,1,90,8|2,0:0|0:0,0:0:0:0:
210,267,85144,1,0,0:0:0:0:
69,155,85295,1,2,0:0:0:0:
73,177,85371,1,2,0:0:0:0:
77,199,85447,5,6,0:0:0:0:
109,167,85522,1,0,0:0:0:0:
129,127,85598,1,0,0:0:0:0:
134,83,85674,1,0,0:0:0:0:
124,39,85750,1,0,0:0:0:0:
114,83,85825,1,0,0:0:0:0:
124,126,85901,1,0,0:0:0:0:
152,161,85977,1,0,0:0:0:0:
193,179,86053,1,8,0:0:0:0:
237,178,86128,1,0,0:0:0:0:
277,157,86204,1,0,0:0:0:0:
303,121,86280,1,0,0:0:0:0:
311,77,86356,1,0,0:0:0:0:
331,38,86431,1,0,0:0:0:0:
370,15,86507,1,0,0:0:0:0:
414,16,86583,1,0,0:0:0:0:
452,40,86659,6,0,L|445:104,1,45,2|0,0:0|0:0,0:0:0:0:
435,152,86811,1,2,0:0:0:0:
439,173,86886,1,2,0:0:0:0:
444,194,86962,1,8,0:0:0:0:
277,157,87114,2,0,L|269:220,1,45,2|0,0:0|0:0,0:0:0:0:
259,269,87266,1,2,0:0:0:0:
263,290,87341,1,2,0:0:0:0:
268,311,87417,1,8,0:0:0:0:
100,274,87569,2,0,L|93:344,1,67.5000025749208,12|0,0:0|0:0,0:0:0:0:
44,193,87871,6,0,L|36:92,1,101.250003862381,2|0,0:0|0:0,0:0:0:0:
21,106,88174,6,0,L|171:112,1,135.000005149842,14|0,0:0|0:0,0:0:0:0:
252,75,88402,1,0,0:0:0:0:
281,106,88478,1,0,0:0:0:0:
296,145,88554,1,0,0:0:0:0:
295,187,88630,1,2,0:0:0:0:
278,224,88705,1,0,0:0:0:0:
262,262,88781,1,8,0:0:0:0:
261,304,88857,1,0,0:0:0:0:
276,343,88933,2,0,P|300:335|339:335,1,56.25,0|0,0:0|0:0,0:0:0:0:
437,364,89083,6,0,P|469:310|456:244,1,112.5,2|0,0:0|0:0,0:0:0:0:
245,68,89387,1,8,0:0:0:0:
226,88,89462,1,0,0:0:0:0:
207,108,89538,2,0,L|201:220,1,112.5
73,304,89841,1,2,0:0:0:0:
70,261,89916,1,0,0:0:0:0:
67,219,89992,1,8,0:0:0:0:
64,177,90068,1,0,0:0:0:0:
61,135,90144,1,2,0:0:0:0:
59,93,90219,1,2,0:0:0:0:
56,51,90295,5,6,0:0:0:0:
109,67,90370,1,0,0:0:0:0:
165,67,90446,1,0,0:0:0:0:
218,50,90522,1,0,0:0:0:0:
264,18,90598,2,0,L|391:24,1,112.5,8|0,0:0|0:0,0:0:0:0:
449,177,90902,1,0,0:0:0:0:
396,193,90977,1,0,0:0:0:0:
340,193,91053,1,2,0:0:0:0:
287,176,91129,1,0,0:0:0:0:
241,144,91205,2,0,L|114:150,1,112.5,8|0,0:0|0:0,0:0:0:0:
56,303,91508,5,2,0:0:0:0:
88,276,91583,1,0,0:0:0:0:
127,260,91659,1,0,0:0:0:0:
168,256,91735,1,0,0:0:0:0:
210,264,91811,1,8,0:0:0:0:
246,284,91886,1,0,0:0:0:0:
276,315,91963,1,0,0:0:0:0:
308,341,92039,1,2,0:0:0:0:
347,357,92114,1,2,0:0:0:0:
388,361,92190,1,0,0:0:0:0:
430,353,92266,1,2,0:0:0:0:
466,333,92342,1,0,0:0:0:0:
496,302,92417,2,0,L|490:152,1,112.5,8|2,0:0|0:0,0:0:0:0:
387,24,92720,6,0,P|379:41|377:64,5,37.5,6|0|0|0|0|0,0:0|0:0|0:0|0:0|0:0|0:0,0:0:0:0:
301,106,93023,2,0,P|298:87|290:70,5,37.5,8|0|0|0|0|0,0:0|0:0|0:0|0:0|0:0|0:0,0:0:0:0:
225,9,93326,2,0,P|217:26|215:49,5,37.5,0|0|0|2|0|0,0:0|0:0|0:0|0:0|0:0|0:0,0:0:0:0:
133,69,93629,1,8,0:0:0:0:
115,75,93679,1,0,0:0:0:0:
97,75,93730,1,0,0:0:0:0:
79,68,93780,1,0,0:0:0:0:
65,56,93831,1,0,0:0:0:0:
56,40,93881,1,0,0:0:0:0:
53,22,93933,6,0,L|59:138,1,112.5,2|0,0:0|0:0,0:0:0:0:
185,264,94235,2,0,P|207:219|204:183,1,75,8|0,0:0|0:0,0:0:0:0:
133,209,94437,1,0,0:0:0:0:
170,354,94538,2,0,L|267:348,1,75
319,342,94740,1,0,0:0:0:0:
373,290,94841,2,0,L|470:296,1,75,8|0,0:0|0:0,0:0:0:0:
460,281,94992,2,0,P|472:252|474:226,1,56.25,2|2,0:0|0:0,0:0:0:0:
353,183,95144,6,0,P|351:238|373:290,1,112.5,4|0,0:0|0:0,0:0:0:0:
492,110,95447,1,8,0:0:0:0:
451,122,95522,1,0,0:0:0:0:
409,121,95598,1,0,0:0:0:0:
370,107,95674,1,0,0:0:0:0:
337,81,95750,1,0,0:0:0:0:
296,68,95827,1,0,0:0:0:0:
254,69,95902,1,2,0:0:0:0:
215,83,95978,1,2,0:0:0:0:
182,109,96054,2,0,L|59:105,1,112.5,8|0,0:0|0:0,0:0:0:0:
53,263,96356,6,0,L|123:257,1,56.25,6|0,0:0|0:0,0:0:0:0:
244,213,96508,1,2,0:0:0:0:
238,240,96583,1,2,0:0:0:0:
232,267,96659,1,8,0:0:0:0:
60,175,96811,2,0,L|130:169,1,56.25,6|0,0:0|0:0,0:0:0:0:
252,126,96963,1,2,0:0:0:0:
246,152,97038,1,2,0:0:0:0:
239,179,97114,1,8,0:0:0:0:
68,87,97265,2,0,L|182:78,1,112.5,6|0,0:0|0:0,0:0:0:0:
332,28,97568,6,0,P|365:107|309:192,1,180,6|0,1:0|0:0,0:0:0:0:
250,239,98023,2,0,P|236:292|243:337,1,90,6|0,1:2|0:0,0:0:0:0:
325,355,98326,1,0,0:0:0:0:
385,289,98477,1,0,0:0:0:0:
467,325,98629,1,0,0:0:0:0:
503,242,98780,5,0,0:0:0:0:
503,225,98855,1,0,0:0:0:0:
504,208,98931,1,0,0:0:0:0:
505,191,99007,1,0,0:0:0:0:
506,174,99083,1,0,0:0:0:0:
507,157,99158,1,0,0:0:0:0:
507,140,99234,1,0,0:0:0:0:
508,124,99310,1,0,0:0:0:0:
509,107,99386,1,0,0:0:0:0:
494,115,99461,1,0,0:0:0:0:
479,121,99537,1,6,1:2:0:0:
463,126,99613,1,0,0:0:0:0:
446,129,99689,1,0,0:0:0:0:
429,130,99764,1,0,0:0:0:0:
412,128,99840,1,6,1:2:0:0:
396,125,99916,1,0,0:0:0:0:
380,120,99992,5,6,1:0:0:0:
303,72,100144,2,0,L|200:77,1,90,0|0,1:0|0:0,0:0:0:0:
154,198,100447,2,0,L|257:203,1,90,6|2,1:2|0:0,0:0:0:0:
324,311,100750,1,0,0:0:0:0:
234,323,100902,1,2,1:0:0:0:
145,335,101053,1,2,1:0:0:0:
60,304,101205,5,0,0:0:0:0:
49,290,101280,1,0,0:0:0:0:
40,276,101356,1,6,1:2:0:0:
34,260,101432,1,2,1:0:0:0:
30,244,101508,1,2,1:0:0:0:
28,227,101583,1,0,0:0:0:0:
29,210,101659,1,6,1:2:0:0:
32,194,101735,1,2,1:0:0:0:
38,178,101811,1,2,1:0:0:0:
43,162,101886,1,0,0:0:0:0:
47,145,101962,1,6,1:2:0:0:
47,128,102038,1,2,1:0:0:0:
46,111,102114,1,2,1:0:0:0:
42,95,102189,1,0,0:0:0:0:
35,80,102265,1,6,1:2:0:0:
27,65,102341,1,2,0:0:0:0:
16,52,102417,6,0,L|200:58,1,180,6|2,1:0|1:0,0:0:0:0:
282,31,102871,1,6,1:2:0:0:
230,156,103023,2,0,P|219:221|220:253,1,90,2|0,1:0|0:0,0:0:0:0:
389,303,103326,2,0,P|387:258|378:214,1,90,2|2,1:0|1:0,0:0:0:0:
366,194,103553,1,2,1:0:0:0:
351,176,103629,6,0,L|356:122,2,45,6|0|0,1:2|0:0|0:0,0:0:0:0:
309,306,103856,2,0,L|314:360,2,45,6|0|0,1:2|0:0|0:0,0:0:0:0:
230,156,104083,2,0,L|235:102,2,45,6|0|0,1:2|0:0|0:0,0:0:0:0:
188,286,104310,2,0,L|193:340,2,45,6|0|0,1:2|0:0|0:0,0:0:0:0:
109,136,104538,2,0,L|114:82,1,45,6|0,1:2|0:0,0:0:0:0:
67,266,104690,2,0,L|72:320,1,45,6|0,1:2|0:0,0:0:0:0:
5,203,104841,6,0,L|197:198,1,180,6|2,1:0|1:0,0:0:0:0:
252,136,105295,1,6,1:2:0:0:
270,315,105447,2,0,L|180:310,1,90,2|0,0:0|0:0,0:0:0:0:
24,213,105750,2,0,L|19:116,1,90,2|0,1:0|1:0,0:0:0:0:
40,115,105977,1,2,1:0:0:0:
61,107,106054,6,0,P|56:68|45:50,2,45,6|0|0,1:2|0:0|0:0,0:0:0:0:
143,197,106281,2,0,P|138:236|127:254,2,45,6|0|0,1:2|0:0|0:0,0:0:0:0:
179,81,106508,2,0,P|174:42|163:24,2,45,6|0|0,1:2|0:0|0:0,0:0:0:0:
261,171,106736,2,0,P|256:210|245:228,2,45,6|0|0,1:2|0:0|0:0,0:0:0:0:
297,55,106963,2,0,P|292:16|281:-2,1,45,6|0,1:2|0:0,0:0:0:0:
379,145,107114,2,0,P|374:184|363:202,1,45,6|0,1:2|0:0,0:0:0:0:
315,263,107265,5,6,1:2:0:0:
177,218,107417,1,2,1:0:0:0:
263,336,107568,1,8,1:0:0:0:
263,118,107720,5,6,1:2:0:0:
177,309,107871,1,2,1:0:0:0:
358,205,108023,1,2,1:0:0:0:
151,182,108174,5,6,1:2:0:0:
351,375,108325,1,2,1:0:0:0:
304,100,108477,1,2,1:0:0:0:
182,353,108630,5,6,1:2:0:0:
463,202,108781,1,2,1:0:0:0:
146,156,108933,1,2,1:0:0:0:
427,5,109083,5,6,1:2:0:0:
360,212,109234,1,2,1:0:0:0:
214,50,109386,1,8,1:0:0:0:
180,52,109461,1,0,1:0:0:0:
146,54,109538,1,2,1:0:0:0:
113,57,109613,1,2,1:0:0:0:
79,59,109690,6,0,L|71:158,1,90,6|0,1:2|0:0,0:0:0:0:
152,296,109992,2,0,L|144:206,1,90,6|0,1:2|0:0,0:0:0:0:
263,28,110295,5,2,0:0:0:0:
253,42,110370,1,2,0:0:0:0:
248,57,110446,1,2,0:0:0:0:
246,74,110522,1,2,0:0:0:0:
249,91,110598,1,2,0:0:0:0:
256,106,110673,1,2,0:0:0:0:
266,119,110749,1,2,0:0:0:0:
280,130,110825,1,2,0:0:0:0:
295,136,110901,5,2,0:0:0:0:
329,164,110977,1,2,0:0:0:0:
351,203,111053,1,2,0:0:0:0:
358,247,111129,1,2,0:0:0:0:
350,291,111205,1,2,0:0:0:0:
326,329,111280,1,2,0:0:0:0:
291,356,111356,1,2,0:0:0:0:
248,370,111432,1,2,0:0:0:0:
203,367,111508,1,2,0:0:0:0:
163,349,111583,1,2,0:0:0:0:
131,318,111659,1,2,0:0:0:0:
112,277,111735,1,2,0:0:0:0:
108,233,111811,1,2,0:0:0:0:
140,264,111886,1,2,0:0:0:0:
180,283,111962,1,2,0:0:0:0:
225,288,112038,1,2,0:0:0:0:
269,279,112114,2,0,L|273:207,1,67.5000025749208,6|0,1:0|0:0,0:0:0:0:
188,136,112417,5,2,0:0:0:0:
142,120,112492,1,2,0:0:0:0:
93,121,112568,1,2,0:0:0:0:
50,141,112644,1,2,0:0:0:0:
20,179,112720,1,2,0:0:0:0:
5,225,112795,1,2,0:0:0:0:
10,272,112871,1,2,0:0:0:0:
32,315,112947,1,2,0:0:0:0:
71,343,113023,1,2,0:0:0:0:
118,355,113098,1,2,0:0:0:0:
166,348,113174,1,2,0:0:0:0:
207,324,113250,1,2,0:0:0:0:
234,285,113326,1,2,0:0:0:0:
247,239,113401,1,2,0:0:0:0:
256,192,113477,1,2,0:0:0:0:
265,145,113553,1,2,0:0:0:0:
277,98,113630,1,2,0:0:0:0:
304,59,113705,1,2,0:0:0:0:
345,35,113781,1,2,0:0:0:0:
393,28,113857,1,2,0:0:0:0:
440,40,113933,1,2,0:0:0:0:
479,68,114008,1,2,0:0:0:0:
501,111,114084,1,2,0:0:0:0:
506,158,114160,1,2,0:0:0:0:
491,204,114236,1,2,0:0:0:0:
461,242,114311,1,2,0:0:0:0:
418,262,114387,1,2,0:0:0:0:
369,263,114463,1,2,0:0:0:0:
325,248,114539,5,4,0:0:0:0:
