osu file format v14

[General]
AudioFilename: pianodesuka.mp3
AudioLeadIn: 0
PreviewTime: 15144
Countdown: 0
SampleSet: Soft
StackLeniency: 0.4
Mode: 0
LetterboxInBreaks: 0
WidescreenStoryboard: 0

[Editor]
Bookmarks: 10295,15144,24841,34538,44235,53932,58780,68477,78174,87871,97568,107265,112114
DistanceSpacing: 1
BeatDivisor: 4
GridSize: 4
TimelineZoom: 1.1

[Metadata]
Title:Enigma
TitleUnicode:Enigma
Artist:Toromaru
ArtistUnicode:とろまる
Creator:Avena
Version:NOVICE
Source:SOUND VOLTEX III GRAVITY WARS
Tags:SDVX Piano The 5th KACオリジナル楽曲コンテスト Original Song Contest Konami Bemani Priti Frey Marianna toybot vikala Electronic Instrumental
BeatmapID:1149542
BeatmapSetID:460380

[Difficulty]
HPDrainRate:4
CircleSize:3.6
OverallDifficulty:5
ApproachRate:5.4
SliderMultiplier:1.15
SliderTickRate:1

[Events]
//Background and Video events
0,0,"Enigma.jpg",0,0
//Break Periods
2,54132,57642
//Storyboard Layer 0 (Background)
//Storyboard Layer 1 (Fail)
//Storyboard Layer 2 (Pass)
//Storyboard Layer 3 (Foreground)
//Storyboard Layer 4 (Overlay)
//Storyboard Sound Samples

[TimingPoints]
599,303.030303030303,4,2,1,70,1,0
13402,-100,4,2,1,40,0,0
13629,-100,4,2,1,70,0,0
13705,-100,4,2,1,40,0,0
13932,-100,4,2,1,70,0,0
21407,-100,4,2,2,70,0,0
21508,-100,4,2,1,70,0,0
21710,-100,4,2,2,70,0,0
21811,-100,4,2,1,70,0,0
22013,-100,4,2,2,70,0,0
22114,-100,4,2,1,70,0,0
22316,-100,4,2,2,70,0,0
23629,-100,4,2,1,70,0,0
34538,-100,4,2,1,75,0,0
50977,-100,4,2,0,60,0,0
51205,-100,4,2,1,75,0,0
58023,-100,4,2,1,60,0,0
58780,-100,4,2,1,70,0,0
59386,-100,4,2,1,70,0,0
60750,-100,4,2,1,70,0,0
75750,-100,4,2,1,70,0,0
78174,-100,4,2,1,75,0,1
87568,-100,4,2,1,75,0,0
88174,-100,4,2,1,85,0,1
97568,-100,4,2,1,70,0,0
110295,-100,4,2,1,50,0,0
110902,-100,4,2,1,70,0,0
112114,-100,4,2,1,70,0,0
112417,-100,4,2,1,60,0,0
114538,-100,4,2,1,60,0,0

[Colours]
Combo1 : 30,205,236
Combo2 : 16,82,163
Combo3 : 204,217,225
Combo4 : 78,115,243

[HitObjects]
111,164,599,6,0,L|304:156,1,172.5,6|6,1:0|1:2,0:0:0:0:
388,200,1356,1,0,0:0:0:0:
388,200,1508,2,0,L|384:273,1,57.5,0|0,0:0|0:0,0:0:0:0:
404,311,1811,2,0,P|314:302|101:356,1,287.5,0|2,0:0|1:0,0:0:0:0:
35,270,2871,1,2,1:0:0:0:
35,270,3023,6,0,P|26:201|71:100,1,172.5,6|6,1:0|1:2,0:0:0:0:
159,43,3780,1,0,0:0:0:0:
159,43,3932,2,0,P|210:52|243:52,1,57.5
260,15,4235,2,0,L|271:206,1,172.5,0|6,0:0|1:2,0:0:0:0:
359,259,4992,2,0,P|371:181|390:131,1,115,2|6,1:0|1:2,0:0:0:0:
421,104,5447,5,14,1:0:0:0:
480,199,5750,1,2,1:0:0:0:
480,199,5902,2,0,L|474:313,1,115,6|2,1:2|1:2,0:0:0:0:
433,354,6356,1,2,1:0:0:0:
322,322,6659,2,0,L|165:330,1,115,2|2,1:0|1:0,0:0:0:0:
147,229,7265,2,0,L|261:223,1,115,2|0,1:0|0:0,0:0:0:0:
288,111,7871,6,0,P|184:111|124:47,2,172.5,14|14|2,1:0|1:2|1:0,0:0:0:0:
377,38,9083,2,0,L|507:45,1,115,2|2,1:0|1:0,0:0:0:0:
503,158,9689,2,0,L|388:151,1,115,2|2,1:0|1:0,0:0:0:0:
273,147,10295,6,0,P|267:222|307:331,2,172.5,6|6|6,1:0|1:2|1:2,0:0:0:0:
298,32,11508,1,2,1:0:0:0:
298,32,11659,2,0,L|112:37,1,172.5,6|6,1:2|1:2,0:0:0:0:
34,107,12417,1,2,1:0:0:0:
65,155,12568,1,2,0:0:0:0:
101,200,12720,6,0,P|116:258|113:321,1,115,6|6,1:0|1:2,0:0:0:0:
216,365,13326,2,0,P|214:307|229:252,1,115,2|2,1:0|1:0,0:0:0:0:
324,187,13931,2,0,L|453:199,1,115,2|2,0:0|0:0,0:0:0:0:
497,105,14538,1,2,0:0:0:0:
439,13,14841,1,2,0:0:0:0:
331,25,15144,6,0,P|263:38|204:60,1,115,4|2,1:0|1:0,0:0:0:0:
151,144,15750,2,0,P|108:139|85:128,1,57.5,0|0,1:0|0:0,0:0:0:0:
52,95,16053,1,2,1:0:0:0:
17,204,16356,2,0,L|27:333,1,115,0|2,1:0|1:0,0:0:0:0:
133,360,16962,2,0,L|141:245,1,115,0|2,1:0|1:0,0:0:0:0:
210,153,17568,6,0,P|259:176|389:176,2,172.5,4|0|2,1:0|0:0|1:0,0:0:0:0:
143,59,18780,2,0,P|76:68|16:89,1,115,2|6,1:0|1:0,0:0:0:0:
3,194,19386,2,0,P|57:210|114:217,1,115,2|6,1:0|1:2,0:0:0:0:
210,153,19992,5,2,3:0:0:0:
314,201,20295,1,6,1:0:0:0:
314,201,20447,2,0,L|307:323,1,115,0|0,0:0|0:0,0:0:0:0:
266,356,20902,1,2,1:0:0:0:
214,330,21053,1,2,1:0:0:0:
166,298,21205,2,0,P|101:314|43:309,1,115,0|2,1:0|1:0,0:0:0:0:
0,208,21811,2,0,P|18:143|51:95,1,115,0|2,1:0|1:0,0:0:0:0:
153,66,22417,5,4,1:0:0:0:
260,105,22720,2,0,L|376:97,2,115,8|0|8,1:2|1:2|1:2,0:0:0:0:
172,179,23629,2,0,P|173:256|191:298,1,115,2|6,1:0|1:2,0:0:0:0:
288,343,24235,2,0,P|285:285|302:231,1,115,6|6,1:2|1:2,0:0:0:0:
376,144,24841,6,0,L|490:149,1,115,6|8,1:0|0:0,0:0:0:0:
512,36,25447,2,0,L|397:30,1,115,0|8,0:0|0:0,0:0:0:0:
289,71,26053,2,0,B|254:81|234:84|214:82|195:59|174:57|155:60|120:71,2,172.5,2|0|8,0:0|0:0|0:0,0:0:0:0:
376,144,27265,6,0,P|392:227|392:288,1,115,2|8,0:0|0:0,0:0:0:0:
377,312,27720,1,2,0:0:0:0:
268,272,28023,1,2,0:0:0:0:
268,272,28174,1,8,0:0:0:0:
176,342,28477,2,0,L|56:335,1,115,2|8,0:0|0:0,0:0:0:0:
23,226,29083,2,0,L|137:219,1,115,2|8,0:0|0:0,0:0:0:0:
228,149,29689,6,0,P|294:148|412:167,1,172.5,6|0,1:0|0:0,0:0:0:0:
454,145,30295,2,0,P|444:186|444:259,1,115,0|8,0:0|0:0,0:0:0:0:
493,363,30902,2,0,L|371:357,1,115,2|8,0:0|0:0,0:0:0:0:
344,310,31356,1,0,0:0:0:0:
237,354,31659,1,2,0:0:0:0:
237,354,31811,2,0,P|233:319|222:294,1,57.5,8|2,0:0|0:0,0:0:0:0:
182,259,32114,6,0,L|191:130,1,115,2|2,0:0|0:0,0:0:0:0:
291,90,32720,2,0,L|299:204,1,115,2|2,0:0|0:0,0:0:0:0:
344,310,33326,2,0,P|372:311|400:319,2,57.5,2|2|2,0:0|0:0|0:0,0:0:0:0:
230,329,33932,2,0,P|188:338|168:338,1,57.5,10|2,0:0|0:0,0:0:0:0:
139,291,34235,2,0,P|97:282|77:282,1,57.5,2|2,0:0|0:0,0:0:0:0:
35,314,34538,6,0,L|30:172,1,115,6|8,1:0|0:0,0:0:0:0:
65,89,35144,2,0,P|97:99|134:97,1,57.5,2|0,1:0|1:0,0:0:0:0:
175,80,35447,1,8,0:0:0:0:
281,36,35750,2,0,L|407:43,1,115,2|8,1:0|0:0,0:0:0:0:
383,156,36356,2,0,L|268:149,1,115,2|8,1:0|0:0,0:0:0:0:
175,80,36962,6,0,L|37:90,1,115,6|8,1:0|0:0,0:0:0:0:
34,139,37417,1,0,0:0:0:0:
34,139,37568,2,0,P|18:221|19:272,1,115,2|8,1:0|0:0,0:0:0:0:
105,326,38174,2,0,P|184:298|227:272,1,115,2|8,1:0|0:0,0:0:0:0:
296,208,38780,2,0,P|329:211|370:231,1,57.5,2|0,1:0|1:0,0:0:0:0:
394,258,39083,2,0,P|427:254|468:235,1,57.5,8|2,0:0|0:0,0:0:0:0:
474,194,39386,6,0,L|464:57,1,115,6|8,1:0|0:0,0:0:0:0:
364,24,39992,2,0,L|355:138,1,115,2|8,1:0|0:0,0:0:0:0:
253,191,40598,2,0,P|212:180|191:177,1,57.5,2|0,1:0|1:0,0:0:0:0:
140,190,40902,1,8,0:0:0:0:
98,294,41205,2,0,P|159:301|218:271,1,115,2|8,1:0|0:0,0:0:0:0:
264,275,41659,1,8,0:0:0:0:
321,270,41811,6,0,L|456:277,1,115,6|6,0:0|0:0,0:0:0:0:
492,175,42417,2,0,L|377:169,1,115,6|6,0:0|0:0,0:0:0:0:
291,92,43023,2,0,P|216:144|62:105,1,230,2|0,0:0|1:0,0:0:0:0:
41,86,43780,1,2,0:0:0:0:
41,86,43932,1,0,1:0:0:0:
20,199,44235,6,0,L|31:275,1,57.5,4|0,1:0|1:0,0:0:0:0:
69,296,44538,2,0,B|115:309|142:313|168:310|194:280|222:277|247:281|294:296,1,230,8|8,0:0|0:0,0:0:0:0:
340,328,45295,1,0,0:0:0:0:
340,328,45447,2,0,P|416:316|404:156,1,230,2|2,0:0|0:0,0:0:0:0:
363,95,46356,1,8,0:0:0:0:
252,125,46659,6,0,L|154:117,1,57.5,4|0,1:0|1:0,0:0:0:0:
153,79,46962,2,0,B|116:188|116:188|212:275,1,230,8|8,0:0|0:0,0:0:0:0:
294,332,47871,2,0,L|422:322,2,115,2|8|2,0:0|0:0|0:0,0:0:0:0:
242,358,48629,1,2,0:0:0:0:
242,358,48780,1,8,0:0:0:0:
127,345,49083,6,0,L|42:338,1,57.5,6|0,1:0|0:0,0:0:0:0:
28,299,49386,2,0,B|14:252|10:225|13:199|43:173|46:145|42:120|28:73,1,230,8|8,0:0|0:0,0:0:0:0:
0,24,50144,1,2,0:0:0:0:
0,24,50295,2,0,L|128:34,1,115,2|8,0:0|0:0,0:0:0:0:
196,114,50902,2,0,L|324:104,1,115,2|8,0:0|0:0,0:0:0:0:
420,68,51508,6,0,P|453:138|433:192,1,115,6|6,0:0|0:0,0:0:0:0:
337,209,52114,2,0,P|304:279|324:333,1,115,6|6,0:0|0:0,0:0:0:0:
423,337,52720,2,0,L|162:350,1,230,2|0,1:0|1:0,0:0:0:0:
89,298,53629,1,0,1:0:0:0:
126,189,53932,5,6,0:0:0:0:
41,220,58781,6,0,B|88:262|158:256|211:220|212:134|212:134|231:193|296:203,1,345,6|0,1:0|0:0,0:0:0:0:
388,160,59992,2,0,P|460:164|408:352,1,345,0|2,3:0|0:0,0:0:0:0:
311,303,61205,6,0,P|257:276|191:283,1,115,6|8,0:0|0:0,0:0:0:0:
159,315,61659,2,0,P|108:341|51:339,1,115,2|8,0:0|0:0,0:0:0:0:
4,305,62114,2,0,L|20:177,1,115,2|8,0:0|0:0,0:0:0:0:
70,167,62568,2,0,L|55:52,1,115,2|8,0:0|0:0,0:0:0:0:
0,35,63023,1,2,0:0:0:0:
229,21,63629,6,0,P|288:20|340:43,1,115,6|8,1:0|0:0,0:0:0:0:
359,95,64083,1,0,0:0:0:0:
359,95,64235,2,0,L|350:235,1,115,2|8,0:0|0:0,0:0:0:0:
244,249,64841,2,0,L|236:134,1,115,2|8,0:0|0:0,0:0:0:0:
229,21,65447,1,2,0:0:0:0:
133,85,65750,1,8,0:0:0:0:
140,198,66054,6,0,L|144:255,1,57.5,6|0,1:0|0:0,0:0:0:0:
126,310,66356,2,0,P|181:333|249:325,1,115,8|2,0:0|0:0,0:0:0:0:
286,303,66811,1,0,0:0:0:0:
319,256,66962,1,8,0:0:0:0:
344,143,67265,2,0,L|477:151,1,115,2|8,0:0|0:0,0:0:0:0:
504,44,67871,2,0,L|389:37,1,115,2|2,0:0|0:0,0:0:0:0:
275,51,68477,5,6,1:0:0:0:
275,51,68629,1,2,0:0:0:0:
275,51,68780,2,0,P|235:51|206:37,1,57.5,8|0,0:0|0:0,0:0:0:0:
166,22,69083,2,0,L|178:154,1,115,2|8,0:0|0:0,0:0:0:0:
184,193,69538,1,2,0:0:0:0:
192,249,69689,2,0,L|273:258,2,57.5,2|2|8,0:0|0:0|0:0,0:0:0:0:
87,200,70295,2,0,L|76:85,1,115,2|8,0:0|0:0,0:0:0:0:
105,35,70750,1,2,0:0:0:0:
105,35,70902,6,0,P|165:59|233:45,1,115,6|8,0:0|0:0,0:0:0:0:
319,7,71508,2,0,P|328:45|328:65,1,57.5,2|2,0:0|0:0,0:0:0:0:
307,116,71811,2,0,P|298:154|298:174,1,57.5,8|2,0:0|0:0,0:0:0:0:
319,225,72114,2,0,L|455:219,1,115,6|8,1:0|0:0,0:0:0:0:
464,330,72720,2,0,L|349:335,1,115,6|8,1:0|0:0,0:0:0:0:
234,341,73326,1,6,1:0:0:0:
256,192,73477,12,2,75750,0:0:0:0:
181,242,76962,6,0,L|186:115,1,115,6|6,0:0|0:0,0:0:0:0:
296,98,77568,2,0,L|291:212,1,115,6|2,0:0|0:0,0:0:0:0:
262,324,78174,5,4,1:2:0:0:
151,353,78477,2,0,P|81:356|40:328,1,115,0|8,0:0|0:0,0:0:0:0:
87,226,79083,2,0,P|78:178|71:165,1,57.5,0|0,0:0|0:0,0:0:0:0:
46,120,79386,1,2,0:0:0:0:
46,120,79538,2,0,L|183:113,1,115,0|2,0:0|0:0,0:0:0:0:
201,73,79992,1,8,0:0:0:0:
201,73,80143,2,0,L|338:80,1,115,0|2,0:0|0:0,0:0:0:0:
368,56,80598,6,0,P|392:120|392:184,1,115,6|0,0:0|0:0,0:0:0:0:
377,221,81053,1,0,0:0:0:0:
377,221,81205,1,8,0:0:0:0:
267,185,81508,1,0,0:0:0:0:
162,232,81811,2,0,L|40:225,1,115,2|0,0:0|0:0,0:0:0:0:
83,334,82417,2,0,L|197:340,1,115,8|0,0:0|0:0,0:0:0:0:
302,293,83023,5,6,0:0:0:0:
284,238,83174,1,0,0:0:0:0:
267,185,83326,2,0,P|268:146|283:113,2,57.5,0|0|8,0:0|0:0|0:0,0:0:0:0:
372,229,83932,1,0,0:0:0:0:
477,184,84235,2,0,L|470:61,1,115,2|2,0:0|0:0,0:0:0:0:
427,30,84689,2,0,P|362:51|313:48,1,115,2|2,0:0|0:0,0:0:0:0:
261,29,85144,1,0,0:0:0:0:
206,130,85447,6,0,L|139:125,1,57.5,6|0,0:0|0:0,0:0:0:0:
107,84,85750,2,0,L|40:89,1,57.5,0|0,0:0|0:0,0:0:0:0:
8,129,86053,2,0,L|13:196,1,57.5,8|0,0:0|0:0,0:0:0:0:
53,227,86356,2,0,L|48:294,1,57.5,0|0,0:0|0:0,0:0:0:0:
43,341,86659,2,0,L|195:327,1,115,2|8,0:0|0:0,0:0:0:0:
215,326,87114,2,0,L|367:312,1,115,2|8,0:0|0:0,0:0:0:0:
386,309,87568,1,12,0:0:0:0:
423,200,87871,2,0,P|416:161|406:135,1,57.5,2|0,0:0|0:0,0:0:0:0:
380,94,88174,6,0,L|228:80,1,115,14|0,0:0|0:0,0:0:0:0:
208,76,88629,1,2,0:0:0:0:
208,76,88780,2,0,L|216:148,1,57.5,8|0,0:0|0:0,0:0:0:0:
218,190,89083,2,0,P|150:174|65:174,1,115,2|8,0:0|0:0,0:0:0:0:
63,211,89538,2,0,P|83:277|125:351,1,115,0|2,0:0|0:0,0:0:0:0:
158,334,89992,1,8,0:0:0:0:
259,279,90295,6,0,L|384:288,1,115,6|8,0:0|0:0,0:0:0:0:
420,181,90902,2,0,L|305:172,1,115,0|8,0:0|0:0,0:0:0:0:
191,186,91508,2,0,P|173:118|181:67,2,115,2|8|2,0:0|0:0|0:0,0:0:0:0:
259,279,92417,1,8,0:0:0:0:
373,287,92720,5,6,0:0:0:0:
256,192,92871,12,4,95144,0:0:0:0:
332,252,96356,6,0,L|318:127,1,115,6|8,0:0|0:0,0:0:0:0:
278,96,96811,2,0,P|222:122|154:108,1,115,6|8,0:0|0:0,0:0:0:0:
125,80,97265,2,0,P|97:72|68:72,1,57.5,6|0,0:0|0:0,0:0:0:0:
21,105,97568,6,0,P|46:155|41:212,1,115,6|0,1:0|0:0,0:0:0:0:
17,265,98023,1,6,1:2:0:0:
116,322,98326,2,0,L|108:379,2,57.5,0|0|0,0:0|0:0|0:0,0:0:0:0:
156,281,98780,2,0,L|292:273,1,115,0|0,0:0|0:0,0:0:0:0:
360,346,99386,1,0,0:0:0:0:
360,346,99538,2,0,L|368:210,1,115,6|6,1:2|1:2,0:0:0:0:
386,177,99992,6,0,L|378:41,1,115,4|0,1:0|2:2,0:0:0:0:
328,36,100447,1,6,1:2:0:0:
328,36,100598,2,0,P|235:40|206:57,1,115,2|2,0:0|1:0,0:0:0:0:
134,129,101205,1,0,0:0:0:0:
134,129,101356,2,0,L|142:200,1,57.5,6|2,1:2|1:0,0:0:0:0:
181,226,101659,2,0,L|173:297,1,57.5,6|2,1:2|1:0,0:0:0:0:
133,323,101962,2,0,L|141:394,1,57.5,6|2,1:2|1:0,0:0:0:0:
253,363,102417,6,0,L|420:352,1,115,6|2,1:0|1:0,0:0:0:0:
384,300,102871,1,6,1:2:0:0:
401,245,103023,2,0,L|395:161,1,57.5,2|0,1:0|0:0,0:0:0:0:
356,146,103326,2,0,L|361:62,1,57.5,2|2,1:0|1:0,0:0:0:0:
368,31,103629,2,0,P|234:39|178:55,2,172.5,6|6|6,1:2|1:2|1:2,0:0:0:0:
466,89,104841,5,6,1:0:0:0:
436,200,105144,2,0,P|440:244|450:262,1,57.5,2|6,1:0|1:2,0:0:0:0:
479,302,105447,1,2,0:0:0:0:
376,354,105750,2,0,L|311:349,1,57.5,2|0,1:0|1:0,0:0:0:0:
277,308,106053,2,0,L|95:321,2,172.5,6|6|6,1:2|1:2|1:2,0:0:0:0:
317,200,107265,6,0,P|348:145|338:75,1,115,6|8,1:2|1:0,0:0:0:0:
309,49,107720,2,0,L|177:57,1,115,6|8,1:2|1:0,0:0:0:0:
153,96,108174,2,0,L|21:88,1,115,6|8,1:2|1:0,0:0:0:0:
10,139,108629,2,0,P|9:195|39:244,1,115,6|8,1:2|1:0,0:0:0:0:
93,225,109083,2,0,P|121:226|149:237,1,57.5,6|2,1:2|1:0,0:0:0:0:
188,277,109386,2,0,P|216:275|244:265,1,57.5,8|2,1:0|1:0,0:0:0:0:
283,224,109689,5,6,1:2:0:0:
261,111,109992,1,6,1:2:0:0:
374,89,110296,1,2,0:0:0:0:
396,202,110598,1,2,0:0:0:0:
483,127,110902,5,2,0:0:0:0:
462,14,111205,1,2,0:0:0:0:
374,89,111508,1,2,0:0:0:0:
396,202,111810,1,2,0:0:0:0:
505,240,112114,5,6,1:0:0:0:
256,192,112417,12,4,114538,0:0:0:0:
