osu file format v14

[General]
AudioFilename: audio.mp3
AudioLeadIn: 0
PreviewTime: 19046
Countdown: 0
SampleSet: Soft
StackLeniency: 0.7
Mode: 3
LetterboxInBreaks: 0
SpecialStyle: 0
WidescreenStoryboard: 1

[Editor]
Bookmarks: 1400,19222,22046,30341,58929,92105
DistanceSpacing: 1.3
BeatDivisor: 4
GridSize: 16
TimelineZoom: 2.4

[Metadata]
Title:Deorbit
TitleUnicode:Deorbit
Artist:Toromaru
ArtistUnicode:とろまる
Creator:elexire
Version:Advanced
Source:osu!mania 4K World Cup 2023
Tags:toaph daddy thetoaphster fa featured artist retromgp mwc23 mwc round of 16 osu! original piano jazz electronic instrumental fvrex ro16 ln3 mwc2023
BeatmapID:4284892
BeatmapSetID:2048064

[Difficulty]
HPDrainRate:7.5
CircleSize:4
OverallDifficulty:6.8
ApproachRate:5
SliderMultiplier:1.4
SliderTickRate:1

[Events]
//Background and Video events
0,0,"toromaru-deorbit.jpg",0,0
//Break Periods
//Storyboard Layer 0 (Background)
//Storyboard Layer 1 (Fail)
//Storyboard Layer 2 (Pass)
//Storyboard Layer 3 (Foreground)
//Storyboard Layer 4 (Overlay)
//Storyboard Sound Samples

[TimingPoints]
1400,352.941176470588,4,2,1,35,1,0
2811,352.941176470588,5,2,1,35,1,0
13399,352.941176470588,4,2,1,35,1,0
30341,352.941176470588,7,2,1,35,1,0
37752,352.941176470588,3,2,1,35,1,0
45164,352.941176470588,5,2,1,35,1,0
46929,352.941176470588,4,2,1,35,1,0
49752,352.941176470588,7,2,1,35,1,0
52047,352.941176470588,7,2,1,35,1,0
54341,352.941176470588,7,2,1,35,1,0
56635,352.941176470588,7,2,1,35,1,0
58929,352.941176470588,7,2,1,35,1,0
61223,352.941176470588,7,2,1,35,1,0
63517,352.941176470588,7,2,1,35,1,0
65811,352.941176470588,7,2,1,35,1,0
68105,352.941176470588,7,2,1,35,1,0
73047,352.941176470588,4,2,1,35,1,0
75870,352.941176470588,5,2,1,35,1,0
86458,352.941176470588,4,2,1,35,1,0
92105,352.941176470588,7,2,1,35,1,0
111870,352.941176470588,4,2,1,35,1,0
114517,352.941176470588,4,2,1,35,1,0
117164,352.941176470588,7,2,1,35,1,0
119635,352.941176470588,4,2,1,35,1,0
122458,352.941176470588,5,2,1,35,1,0
124047,352.941176470588,4,2,1,35,1,0
124752,352.941176470588,4,2,1,35,1,0

[HitObjects]
448,192,1400,5,0,0:0:0:0:
320,192,1576,1,0,0:0:0:0:
192,192,1752,1,0,0:0:0:0:
64,192,1929,1,0,0:0:0:0:
192,192,2017,1,0,0:0:0:0:
448,192,2105,1,0,0:0:0:0:
320,192,2194,1,0,0:0:0:0:
64,192,2282,1,0,0:0:0:0:
192,192,2370,1,0,0:0:0:0:
320,192,2458,1,0,0:0:0:0:
448,192,2458,1,0,0:0:0:0:
320,192,2811,128,0,2987:0:0:0:0:
448,192,2811,1,0,0:0:0:0:
64,192,2987,1,0,0:0:0:0:
448,192,3340,1,0,0:0:0:0:
320,192,3340,128,0,3516:0:0:0:0:
64,192,3516,1,0,0:0:0:0:
448,192,3693,1,0,0:0:0:0:
320,192,3693,128,0,3869:0:0:0:0:
64,192,3869,1,0,0:0:0:0:
64,192,4222,1,0,0:0:0:0:
320,192,4222,128,0,4399:0:0:0:0:
192,192,4399,1,0,0:0:0:0:
448,192,4399,1,0,0:0:0:0:
64,192,4575,128,0,4752:0:0:0:0:
192,192,4575,1,0,0:0:0:0:
448,192,4752,1,0,0:0:0:0:
64,192,5105,128,0,5281:0:0:0:0:
192,192,5105,1,0,0:0:0:0:
448,192,5281,1,0,0:0:0:0:
192,192,5458,1,0,0:0:0:0:
64,192,5458,128,0,5634:0:0:0:0:
448,192,5634,1,0,0:0:0:0:
64,192,5987,128,0,6163:0:0:0:0:
448,192,5987,1,0,0:0:0:0:
320,192,6163,1,0,0:0:0:0:
448,192,6252,1,0,0:0:0:0:
64,192,6340,1,0,0:0:0:0:
192,192,6340,128,0,6516:0:0:0:0:
448,192,6516,1,0,0:0:0:0:
192,192,6869,128,0,7046:0:0:0:0:
64,192,6869,1,0,0:0:0:0:
448,192,7046,1,0,0:0:0:0:
192,192,7222,128,0,7399:0:0:0:0:
64,192,7222,1,0,0:0:0:0:
448,192,7399,1,0,0:0:0:0:
192,192,7752,128,0,7928:0:0:0:0:
448,192,7752,1,0,0:0:0:0:
320,192,7928,1,0,0:0:0:0:
64,192,7928,1,0,0:0:0:0:
320,192,8105,128,0,8281:0:0:0:0:
448,192,8105,1,0,0:0:0:0:
192,192,8281,1,0,0:0:0:0:
320,192,8634,128,0,8810:0:0:0:0:
448,192,8634,1,0,0:0:0:0:
192,192,8810,1,0,0:0:0:0:
320,192,8987,128,0,9163:0:0:0:0:
448,192,8987,1,0,0:0:0:0:
192,192,9163,1,0,0:0:0:0:
448,192,9340,1,0,0:0:0:0:
192,192,9428,1,0,0:0:0:0:
64,192,9516,1,0,0:0:0:0:
320,192,9516,128,0,9693:0:0:0:0:
192,192,9693,128,0,9869:0:0:0:0:
64,192,9869,1,0,0:0:0:0:
448,192,9869,128,0,10046:0:0:0:0:
320,192,10046,1,0,0:0:0:0:
448,192,10399,128,0,10575:0:0:0:0:
64,192,10399,1,0,0:0:0:0:
320,192,10575,1,0,0:0:0:0:
64,192,10752,1,0,0:0:0:0:
448,192,10752,128,0,10928:0:0:0:0:
320,192,10928,1,0,0:0:0:0:
448,192,11281,128,0,11458:0:0:0:0:
64,192,11281,1,0,0:0:0:0:
320,192,11458,1,0,0:0:0:0:
64,192,11634,128,0,11810:0:0:0:0:
448,192,11634,1,0,0:0:0:0:
192,192,11810,1,0,0:0:0:0:
64,192,12163,128,0,12340:0:0:0:0:
448,192,12163,1,0,0:0:0:0:
192,192,12340,1,0,0:0:0:0:
64,192,12516,128,0,12693:0:0:0:0:
448,192,12516,1,0,0:0:0:0:
192,192,12693,1,0,0:0:0:0:
64,192,13046,128,0,13222:0:0:0:0:
448,192,13046,1,0,0:0:0:0:
448,192,13222,1,0,0:0:0:0:
192,192,13222,1,0,0:0:0:0:
192,192,13399,1,0,0:0:0:0:
320,192,13399,128,0,13575:0:0:0:0:
448,192,13575,1,0,0:0:0:0:
192,192,13928,1,0,0:0:0:0:
320,192,13928,128,0,14104:0:0:0:0:
448,192,14104,1,0,0:0:0:0:
320,192,14281,128,0,14457:0:0:0:0:
192,192,14281,1,0,0:0:0:0:
448,192,14457,1,0,0:0:0:0:
64,192,14634,1,0,0:0:0:0:
192,192,14722,1,0,0:0:0:0:
448,192,14810,128,0,14987:0:0:0:0:
64,192,14987,128,0,15163:0:0:0:0:
192,192,14987,1,0,0:0:0:0:
320,192,15163,128,0,15340:0:0:0:0:
64,192,15340,1,0,0:0:0:0:
192,192,15340,128,0,15516:0:0:0:0:
448,192,15516,128,0,15693:0:0:0:0:
192,192,15693,1,0,0:0:0:0:
64,192,15693,128,0,15869:0:0:0:0:
448,192,15869,128,0,16046:0:0:0:0:
64,192,16046,1,0,0:0:0:0:
192,192,16134,1,0,0:0:0:0:
320,192,16222,128,0,16487:0:0:0:0:
448,192,16222,1,0,0:0:0:0:
448,192,16487,1,0,0:0:0:0:
64,192,16487,1,0,0:0:0:0:
320,192,16751,1,0,0:0:0:0:
192,192,16751,128,0,17016:0:0:0:0:
320,192,17016,1,0,0:0:0:0:
448,192,17016,1,0,0:0:0:0:
64,192,17281,128,0,17457:0:0:0:0:
448,192,17281,128,0,17457:0:0:0:0:
192,192,17634,128,0,17898:0:0:0:0:
320,192,17634,1,0,0:0:0:0:
448,192,17898,1,0,0:0:0:0:
64,192,17898,1,0,0:0:0:0:
192,192,18163,1,0,0:0:0:0:
448,192,18163,128,0,18340:0:0:0:0:
320,192,18516,128,0,18693:0:0:0:0:
192,192,18693,128,0,18869:0:0:0:0:
448,192,18869,1,0,0:0:0:0:
320,192,18957,1,0,0:0:0:0:
192,192,19046,1,0,0:0:0:0:
64,192,19046,1,0,0:0:0:0:
448,192,19222,1,0,0:0:0:0:
320,192,19310,1,0,0:0:0:0:
64,192,19487,1,0,0:0:0:0:
192,192,19575,1,0,0:0:0:0:
448,192,19751,1,0,0:0:0:0:
64,192,19928,1,0,0:0:0:0:
320,192,19928,128,0,20104:0:0:0:0:
192,192,20104,1,0,0:0:0:0:
448,192,20104,1,0,0:0:0:0:
64,192,20281,1,0,0:0:0:0:
320,192,20457,128,0,20634:0:0:0:0:
192,192,20634,128,0,20810:0:0:0:0:
64,192,20810,128,0,20987:0:0:0:0:
448,192,20810,1,0,0:0:0:0:
320,192,20987,1,0,0:0:0:0:
192,192,21075,1,0,0:0:0:0:
448,192,21163,1,0,0:0:0:0:
192,192,21340,128,0,21516:0:0:0:0:
448,192,21516,1,0,0:0:0:0:
64,192,21516,128,0,21693:0:0:0:0:
320,192,21693,128,0,21869:0:0:0:0:
64,192,21869,1,0,0:0:0:0:
192,192,21869,1,0,0:0:0:0:
320,192,22046,1,0,0:0:0:0:
192,192,22134,1,0,0:0:0:0:
64,192,22310,1,0,0:0:0:0:
320,192,22398,128,0,22663:0:0:0:0:
192,192,22663,1,0,0:0:0:0:
448,192,22751,128,0,22928:0:0:0:0:
192,192,22928,1,0,0:0:0:0:
64,192,22928,1,0,0:0:0:0:
448,192,23104,1,0,0:0:0:0:
320,192,23281,128,0,23457:0:0:0:0:
192,192,23457,128,0,23634:0:0:0:0:
64,192,23634,1,0,0:0:0:0:
448,192,23634,128,0,23810:0:0:0:0:
320,192,23810,128,0,23987:0:0:0:0:
64,192,23987,128,0,24163:0:0:0:0:
320,192,24163,1,0,0:0:0:0:
448,192,24163,1,0,0:0:0:0:
192,192,24340,1,0,0:0:0:0:
448,192,24516,1,0,0:0:0:0:
320,192,24604,1,0,0:0:0:0:
192,192,24693,1,0,0:0:0:0:
64,192,24693,1,0,0:0:0:0:
448,192,24869,1,0,0:0:0:0:
192,192,25046,1,0,0:0:0:0:
64,192,25046,1,0,0:0:0:0:
448,192,25134,128,0,25310:0:0:0:0:
64,192,25310,1,0,0:0:0:0:
320,192,25487,1,0,0:0:0:0:
192,192,25575,128,0,25751:0:0:0:0:
64,192,25751,1,0,0:0:0:0:
320,192,25751,128,0,25928:0:0:0:0:
448,192,25928,128,0,26104:0:0:0:0:
192,192,26104,128,0,26281:0:0:0:0:
320,192,26281,1,0,0:0:0:0:
192,192,26457,1,0,0:0:0:0:
64,192,26457,1,0,0:0:0:0:
320,192,26634,1,0,0:0:0:0:
192,192,26722,128,0,26898:0:0:0:0:
448,192,26898,1,0,0:0:0:0:
64,192,27075,1,0,0:0:0:0:
448,192,27163,1,0,0:0:0:0:
320,192,27163,128,0,27340:0:0:0:0:
64,192,27340,128,0,27516:0:0:0:0:
448,192,27516,128,0,27693:0:0:0:0:
192,192,27693,1,0,0:0:0:0:
320,192,27869,128,0,28046:0:0:0:0:
448,192,27869,1,0,0:0:0:0:
64,192,28046,1,0,0:0:0:0:
192,192,28222,128,0,28398:0:0:0:0:
448,192,28398,1,0,0:0:0:0:
64,192,28575,128,0,28751:0:0:0:0:
320,192,28575,1,0,0:0:0:0:
192,192,28751,1,0,0:0:0:0:
448,192,28928,128,0,29104:0:0:0:0:
64,192,28928,1,0,0:0:0:0:
192,192,29104,1,0,0:0:0:0:
448,192,29281,5,0,0:0:0:0:
64,192,29281,1,0,0:0:0:0:
192,192,29369,1,0,0:0:0:0:
320,192,29457,1,0,0:0:0:0:
448,192,29546,5,0,0:0:0:0:
64,192,29546,1,0,0:0:0:0:
192,192,29722,1,0,0:0:0:0:
448,192,29810,1,0,0:0:0:0:
64,192,29987,5,0,0:0:0:0:
448,192,30075,1,0,0:0:0:0:
320,192,30163,1,0,0:0:0:0:
192,192,30251,1,0,0:0:0:0:
448,192,30341,5,0,0:0:0:0:
64,192,30341,128,0,30870:0:0:0:0:
320,192,30605,1,0,0:0:0:0:
448,192,30605,1,0,0:0:0:0:
448,192,30870,1,0,0:0:0:0:
192,192,30870,1,0,0:0:0:0:
64,192,31223,1,0,0:0:0:0:
320,192,31223,128,0,31399:0:0:0:0:
192,192,31399,1,0,0:0:0:0:
448,192,31399,128,0,31576:0:0:0:0:
64,192,31576,1,0,0:0:0:0:
320,192,31576,1,0,0:0:0:0:
64,192,31929,1,0,0:0:0:0:
320,192,31929,128,0,32282:0:0:0:0:
192,192,32458,1,0,0:0:0:0:
448,192,32546,1,0,0:0:0:0:
320,192,32635,1,0,0:0:0:0:
192,192,32723,1,0,0:0:0:0:
448,192,32811,1,0,0:0:0:0:
64,192,32811,128,0,33341:0:0:0:0:
320,192,33076,1,0,0:0:0:0:
448,192,33076,1,0,0:0:0:0:
448,192,33341,1,0,0:0:0:0:
192,192,33341,1,0,0:0:0:0:
64,192,33693,1,0,0:0:0:0:
320,192,33693,128,0,33870:0:0:0:0:
192,192,33870,1,0,0:0:0:0:
448,192,33870,128,0,34046:0:0:0:0:
64,192,34046,1,0,0:0:0:0:
320,192,34046,1,0,0:0:0:0:
64,192,34399,1,0,0:0:0:0:
448,192,34399,128,0,34752:0:0:0:0:
320,192,34929,1,0,0:0:0:0:
64,192,35017,1,0,0:0:0:0:
192,192,35105,1,0,0:0:0:0:
320,192,35193,1,0,0:0:0:0:
448,192,35282,1,0,0:0:0:0:
64,192,35282,128,0,35811:0:0:0:0:
320,192,35546,1,0,0:0:0:0:
448,192,35546,1,0,0:0:0:0:
448,192,35811,1,0,0:0:0:0:
192,192,35811,1,0,0:0:0:0:
64,192,36164,1,0,0:0:0:0:
448,192,36164,128,0,36341:0:0:0:0:
192,192,36341,1,0,0:0:0:0:
320,192,36341,128,0,36517:0:0:0:0:
64,192,36517,1,0,0:0:0:0:
448,192,36517,1,0,0:0:0:0:
64,192,36870,1,0,0:0:0:0:
192,192,36870,128,0,37046:0:0:0:0:
448,192,37046,128,0,37223:0:0:0:0:
64,192,37223,1,0,0:0:0:0:
320,192,37399,128,0,37576:0:0:0:0:
192,192,37576,1,0,0:0:0:0:
448,192,37752,1,0,0:0:0:0:
64,192,37752,1,0,0:0:0:0:
192,192,38016,128,0,38281:0:0:0:0:
320,192,38016,128,0,38281:0:0:0:0:
448,192,38281,1,0,0:0:0:0:
64,192,38281,1,0,0:0:0:0:
448,192,38546,128,0,38810:0:0:0:0:
192,192,38546,128,0,38810:0:0:0:0:
320,192,38810,1,0,0:0:0:0:
64,192,38810,1,0,0:0:0:0:
192,192,39075,128,0,39340:0:0:0:0:
64,192,39075,128,0,39340:0:0:0:0:
320,192,39340,1,0,0:0:0:0:
448,192,39340,128,0,39516:0:0:0:0:
192,192,39516,128,0,39693:0:0:0:0:
64,192,39693,128,0,39869:0:0:0:0:
320,192,39869,1,0,0:0:0:0:
448,192,39869,1,0,0:0:0:0:
192,192,40134,128,0,40399:0:0:0:0:
64,192,40134,128,0,40399:0:0:0:0:
320,192,40399,1,0,0:0:0:0:
448,192,40399,1,0,0:0:0:0:
320,192,40663,128,0,40928:0:0:0:0:
64,192,40663,128,0,40928:0:0:0:0:
192,192,40928,1,0,0:0:0:0:
448,192,40928,1,0,0:0:0:0:
448,192,41193,128,0,41457:0:0:0:0:
320,192,41193,128,0,41457:0:0:0:0:
192,192,41457,1,0,0:0:0:0:
64,192,41457,128,0,41634:0:0:0:0:
448,192,41634,128,0,41810:0:0:0:0:
320,192,41810,128,0,41987:0:0:0:0:
192,192,41987,1,0,0:0:0:0:
448,192,41987,1,0,0:0:0:0:
320,192,42252,128,0,42516:0:0:0:0:
64,192,42252,128,0,42516:0:0:0:0:
448,192,42516,1,0,0:0:0:0:
192,192,42516,1,0,0:0:0:0:
320,192,42781,128,0,43046:0:0:0:0:
192,192,42781,128,0,43046:0:0:0:0:
64,192,43046,1,0,0:0:0:0:
448,192,43046,1,0,0:0:0:0:
448,192,43310,128,0,43575:0:0:0:0:
192,192,43310,128,0,43575:0:0:0:0:
320,192,43575,1,0,0:0:0:0:
64,192,43575,128,0,43752:0:0:0:0:
448,192,43752,128,0,43928:0:0:0:0:
320,192,43928,128,0,44104:0:0:0:0:
64,192,44104,1,0,0:0:0:0:
192,192,44104,1,0,0:0:0:0:
448,192,44369,128,0,44634:0:0:0:0:
320,192,44369,128,0,44634:0:0:0:0:
192,192,44634,1,0,0:0:0:0:
64,192,44634,1,0,0:0:0:0:
448,192,44899,128,0,45164:0:0:0:0:
64,192,44899,1,0,0:0:0:0:
320,192,45164,1,0,0:0:0:0:
192,192,45164,1,0,0:0:0:0:
64,192,45252,1,0,0:0:0:0:
192,192,45428,1,0,0:0:0:0:
448,192,45428,128,0,45605:0:0:0:0:
320,192,45605,1,0,0:0:0:0:
64,192,45693,128,0,45869:0:0:0:0:
320,192,45869,128,0,46046:0:0:0:0:
192,192,46046,1,0,0:0:0:0:
448,192,46046,1,0,0:0:0:0:
64,192,46222,1,0,0:0:0:0:
320,192,46222,1,0,0:0:0:0:
448,192,46311,1,0,0:0:0:0:
64,192,46487,1,0,0:0:0:0:
192,192,46487,128,0,46752:0:0:0:0:
448,192,46752,1,0,0:0:0:0:
64,192,46929,1,0,0:0:0:0:
192,192,46929,128,0,47046:0:0:0:0:
448,192,47046,128,0,47164:0:0:0:0:
64,192,47164,128,0,47281:0:0:0:0:
320,192,47281,128,0,47399:0:0:0:0:
192,192,47399,128,0,47517:0:0:0:0:
64,192,47517,128,0,47634:0:0:0:0:
448,192,47634,128,0,47752:0:0:0:0:
320,192,47752,128,0,47870:0:0:0:0:
192,192,47870,128,0,47987:0:0:0:0:
448,192,47987,128,0,48164:0:0:0:0:
64,192,48164,128,0,48340:0:0:0:0:
448,192,48340,128,0,48458:0:0:0:0:
192,192,48458,128,0,48576:0:0:0:0:
320,192,48576,128,0,48693:0:0:0:0:
64,192,48693,128,0,48811:0:0:0:0:
448,192,48811,128,0,48929:0:0:0:0:
192,192,48929,128,0,49046:0:0:0:0:
320,192,49046,128,0,49164:0:0:0:0:
448,192,49164,128,0,49281:0:0:0:0:
64,192,49281,128,0,49399:0:0:0:0:
192,192,49399,1,0,0:0:0:0:
320,192,49399,128,0,49576:0:0:0:0:
448,192,49576,128,0,49752:0:0:0:0:
64,192,49576,1,0,0:0:0:0:
192,192,49752,128,0,50016:0:0:0:0:
320,192,49752,128,0,50016:0:0:0:0:
64,192,50016,128,0,50281:0:0:0:0:
320,192,50281,1,0,0:0:0:0:
448,192,50369,1,0,0:0:0:0:
192,192,50457,128,0,50634:0:0:0:0:
192,192,50810,128,0,51075:0:0:0:0:
320,192,50810,128,0,51075:0:0:0:0:
64,192,51075,128,0,51340:0:0:0:0:
320,192,51340,1,0,0:0:0:0:
448,192,51428,1,0,0:0:0:0:
192,192,51516,128,0,51693:0:0:0:0:
320,192,51693,128,0,51869:0:0:0:0:
64,192,51869,1,0,0:0:0:0:
192,192,52047,128,0,52311:0:0:0:0:
64,192,52047,128,0,52311:0:0:0:0:
320,192,52311,128,0,52576:0:0:0:0:
192,192,52576,1,0,0:0:0:0:
448,192,52664,1,0,0:0:0:0:
64,192,52752,128,0,52929:0:0:0:0:
64,192,53105,128,0,53370:0:0:0:0:
192,192,53105,128,0,53370:0:0:0:0:
320,192,53370,128,0,53635:0:0:0:0:
192,192,53635,1,0,0:0:0:0:
448,192,53723,1,0,0:0:0:0:
64,192,53811,128,0,53988:0:0:0:0:
320,192,53988,128,0,54164:0:0:0:0:
448,192,54164,1,0,0:0:0:0:
320,192,54341,128,0,54605:0:0:0:0:
192,192,54341,128,0,54605:0:0:0:0:
64,192,54605,128,0,54870:0:0:0:0:
320,192,54870,1,0,0:0:0:0:
448,192,54958,1,0,0:0:0:0:
192,192,55046,128,0,55223:0:0:0:0:
320,192,55399,128,0,55664:0:0:0:0:
192,192,55399,128,0,55664:0:0:0:0:
64,192,55664,128,0,55929:0:0:0:0:
320,192,55929,1,0,0:0:0:0:
448,192,56017,1,0,0:0:0:0:
192,192,56105,128,0,56282:0:0:0:0:
320,192,56282,128,0,56458:0:0:0:0:
448,192,56458,1,0,0:0:0:0:
320,192,56635,128,0,56899:0:0:0:0:
64,192,56635,128,0,56899:0:0:0:0:
192,192,56899,128,0,57164:0:0:0:0:
64,192,57164,1,0,0:0:0:0:
448,192,57252,1,0,0:0:0:0:
192,192,57340,128,0,57517:0:0:0:0:
320,192,57517,1,0,0:0:0:0:
192,192,57605,1,0,0:0:0:0:
448,192,57693,128,0,58046:0:0:0:0:
64,192,57693,128,0,58046:0:0:0:0:
192,192,58046,128,0,58399:0:0:0:0:
448,192,58399,128,0,58576:0:0:0:0:
64,192,58576,1,0,0:0:0:0:
320,192,58664,1,0,0:0:0:0:
448,192,58752,1,0,0:0:0:0:
64,192,58840,1,0,0:0:0:0:
448,192,58929,128,0,59458:0:0:0:0:
192,192,58929,128,0,59193:0:0:0:0:
320,192,59193,1,0,0:0:0:0:
64,192,59458,128,0,59634:0:0:0:0:
320,192,59634,128,0,59811:0:0:0:0:
192,192,59811,128,0,59987:0:0:0:0:
320,192,59987,1,0,0:0:0:0:
64,192,60076,1,0,0:0:0:0:
192,192,60164,1,0,0:0:0:0:
320,192,60252,1,0,0:0:0:0:
448,192,60340,128,0,60517:0:0:0:0:
192,192,60517,1,0,0:0:0:0:
64,192,60605,128,0,60781:0:0:0:0:
448,192,60781,1,0,0:0:0:0:
192,192,60870,128,0,61046:0:0:0:0:
320,192,61046,1,0,0:0:0:0:
448,192,61046,128,0,61223:0:0:0:0:
192,192,61223,1,0,0:0:0:0:
64,192,61223,128,0,61399:0:0:0:0:
448,192,61399,1,0,0:0:0:0:
320,192,61487,1,0,0:0:0:0:
64,192,61664,1,0,0:0:0:0:
192,192,61752,1,0,0:0:0:0:
320,192,61840,1,0,0:0:0:0:
448,192,62017,1,0,0:0:0:0:
192,192,62193,1,0,0:0:0:0:
320,192,62281,1,0,0:0:0:0:
448,192,62370,1,0,0:0:0:0:
64,192,62546,1,0,0:0:0:0:
192,192,62634,1,0,0:0:0:0:
448,192,62811,1,0,0:0:0:0:
64,192,62899,1,0,0:0:0:0:
320,192,62987,128,0,63164:0:0:0:0:
192,192,63164,128,0,63340:0:0:0:0:
448,192,63340,128,0,63517:0:0:0:0:
64,192,63517,1,0,0:0:0:0:
320,192,63517,128,0,63693:0:0:0:0:
448,192,63693,1,0,0:0:0:0:
192,192,63781,1,0,0:0:0:0:
64,192,63958,1,0,0:0:0:0:
320,192,64046,128,0,64222:0:0:0:0:
448,192,64222,1,0,0:0:0:0:
64,192,64311,128,0,64487:0:0:0:0:
448,192,64487,1,0,0:0:0:0:
320,192,64575,128,0,64752:0:0:0:0:
192,192,64575,128,0,64752:0:0:0:0:
64,192,64752,1,0,0:0:0:0:
448,192,64840,1,0,0:0:0:0:
320,192,64928,128,0,65105:0:0:0:0:
192,192,65105,1,0,0:0:0:0:
64,192,65105,1,0,0:0:0:0:
448,192,65193,1,0,0:0:0:0:
320,192,65369,1,0,0:0:0:0:
64,192,65458,128,0,65634:0:0:0:0:
192,192,65634,1,0,0:0:0:0:
320,192,65634,128,0,65811:0:0:0:0:
64,192,65811,128,0,66075:0:0:0:0:
448,192,65811,128,0,66075:0:0:0:0:
192,192,66075,128,0,66340:0:0:0:0:
448,192,66340,128,0,66516:0:0:0:0:
320,192,66340,1,0,0:0:0:0:
192,192,66516,1,0,0:0:0:0:
64,192,66516,128,0,66693:0:0:0:0:
192,192,66693,1,0,0:0:0:0:
320,192,66781,1,0,0:0:0:0:
448,192,66869,1,0,0:0:0:0:
64,192,66869,128,0,67046:0:0:0:0:
320,192,67046,128,0,67222:0:0:0:0:
192,192,67046,1,0,0:0:0:0:
448,192,67222,128,0,67399:0:0:0:0:
64,192,67399,128,0,67575:0:0:0:0:
320,192,67575,128,0,67752:0:0:0:0:
448,192,67575,1,0,0:0:0:0:
192,192,67752,128,0,67928:0:0:0:0:
64,192,67928,128,0,68105:0:0:0:0:
320,192,68105,1,0,0:0:0:0:
448,192,68105,128,0,68634:0:0:0:0:
192,192,68369,1,0,0:0:0:0:
64,192,68369,1,0,0:0:0:0:
64,192,68634,128,0,68810:0:0:0:0:
320,192,68810,128,0,68987:0:0:0:0:
192,192,68987,128,0,69163:0:0:0:0:
448,192,69163,128,0,69340:0:0:0:0:
320,192,69163,1,0,0:0:0:0:
192,192,69340,1,0,0:0:0:0:
64,192,69340,128,0,69869:0:0:0:0:
448,192,69605,1,0,0:0:0:0:
320,192,69605,1,0,0:0:0:0:
448,192,69869,128,0,70046:0:0:0:0:
192,192,70046,128,0,70222:0:0:0:0:
448,192,70222,1,0,0:0:0:0:
320,192,70222,128,0,70399:0:0:0:0:
192,192,70399,128,0,70575:0:0:0:0:
64,192,70575,1,0,0:0:0:0:
320,192,70575,128,0,71105:0:0:0:0:
192,192,70840,1,0,0:0:0:0:
64,192,70840,1,0,0:0:0:0:
448,192,71105,128,0,71281:0:0:0:0:
192,192,71281,128,0,71457:0:0:0:0:
448,192,71457,128,0,71634:0:0:0:0:
192,192,71634,1,0,0:0:0:0:
64,192,71634,128,0,71810:0:0:0:0:
448,192,71810,128,0,72340:0:0:0:0:
192,192,72075,1,0,0:0:0:0:
64,192,72075,1,0,0:0:0:0:
192,192,72340,128,0,72516:0:0:0:0:
320,192,72516,128,0,72693:0:0:0:0:
192,192,72693,1,0,0:0:0:0:
64,192,72693,128,0,72869:0:0:0:0:
448,192,72869,128,0,73047:0:0:0:0:
320,192,73047,1,0,0:0:0:0:
64,192,73047,1,0,0:0:0:0:
192,192,73223,1,0,0:0:0:0:
448,192,73311,128,0,73488:0:0:0:0:
192,192,73488,128,0,73664:0:0:0:0:
64,192,73664,1,0,0:0:0:0:
320,192,73752,128,0,74017:0:0:0:0:
448,192,74017,1,0,0:0:0:0:
192,192,74017,128,0,74282:0:0:0:0:
448,192,74282,128,0,74458:0:0:0:0:
64,192,74282,1,0,0:0:0:0:
320,192,74458,1,0,0:0:0:0:
192,192,74458,128,0,74635:0:0:0:0:
64,192,74635,1,0,0:0:0:0:
448,192,74723,128,0,74899:0:0:0:0:
320,192,74899,1,0,0:0:0:0:
64,192,74988,128,0,75164:0:0:0:0:
192,192,75164,128,0,75341:0:0:0:0:
320,192,75341,1,0,0:0:0:0:
448,192,75429,128,0,75605:0:0:0:0:
64,192,75605,1,0,0:0:0:0:
320,192,75694,128,0,75870:0:0:0:0:
64,192,75870,128,0,76222:0:0:0:0:
448,192,75870,128,0,76222:0:0:0:0:
320,192,76046,1,0,0:0:0:0:
192,192,76222,1,0,0:0:0:0:
448,192,76399,128,0,76575:0:0:0:0:
64,192,76575,1,0,0:0:0:0:
448,192,76752,128,0,76928:0:0:0:0:
64,192,76928,1,0,0:0:0:0:
192,192,77017,1,0,0:0:0:0:
320,192,77193,1,0,0:0:0:0:
448,192,77281,128,0,77458:0:0:0:0:
64,192,77281,1,0,0:0:0:0:
192,192,77458,128,0,77634:0:0:0:0:
448,192,77634,128,0,77987:0:0:0:0:
64,192,77634,128,0,77987:0:0:0:0:
192,192,77811,1,0,0:0:0:0:
320,192,77987,1,0,0:0:0:0:
64,192,78164,128,0,78340:0:0:0:0:
448,192,78340,1,0,0:0:0:0:
64,192,78517,128,0,78693:0:0:0:0:
448,192,78693,1,0,0:0:0:0:
320,192,78781,1,0,0:0:0:0:
192,192,78958,1,0,0:0:0:0:
64,192,79046,128,0,79222:0:0:0:0:
448,192,79046,1,0,0:0:0:0:
320,192,79222,1,0,0:0:0:0:
192,192,79311,1,0,0:0:0:0:
448,192,79399,128,0,79752:0:0:0:0:
64,192,79399,128,0,79752:0:0:0:0:
320,192,79575,1,0,0:0:0:0:
192,192,79752,1,0,0:0:0:0:
448,192,79928,128,0,80105:0:0:0:0:
64,192,80105,1,0,0:0:0:0:
448,192,80281,128,0,80458:0:0:0:0:
64,192,80458,1,0,0:0:0:0:
192,192,80546,1,0,0:0:0:0:
320,192,80722,1,0,0:0:0:0:
64,192,80811,1,0,0:0:0:0:
448,192,80811,128,0,80987:0:0:0:0:
192,192,80987,128,0,81164:0:0:0:0:
64,192,81164,128,0,81517:0:0:0:0:
320,192,81164,128,0,81517:0:0:0:0:
448,192,81340,1,0,0:0:0:0:
192,192,81517,1,0,0:0:0:0:
320,192,81693,128,0,81870:0:0:0:0:
64,192,81870,1,0,0:0:0:0:
320,192,82046,128,0,82222:0:0:0:0:
64,192,82222,1,0,0:0:0:0:
192,192,82311,1,0,0:0:0:0:
320,192,82487,1,0,0:0:0:0:
448,192,82575,128,0,82752:0:0:0:0:
64,192,82575,1,0,0:0:0:0:
320,192,82752,1,0,0:0:0:0:
64,192,82840,1,0,0:0:0:0:
448,192,82928,128,0,83281:0:0:0:0:
192,192,82928,128,0,83281:0:0:0:0:
320,192,83105,1,0,0:0:0:0:
64,192,83281,1,0,0:0:0:0:
192,192,83458,128,0,83634:0:0:0:0:
64,192,83634,1,0,0:0:0:0:
192,192,83811,128,0,83987:0:0:0:0:
448,192,83987,1,0,0:0:0:0:
320,192,84075,1,0,0:0:0:0:
192,192,84252,1,0,0:0:0:0:
448,192,84340,1,0,0:0:0:0:
64,192,84340,128,0,84517:0:0:0:0:
320,192,84517,128,0,84693:0:0:0:0:
64,192,84693,128,0,85046:0:0:0:0:
192,192,84693,128,0,85046:0:0:0:0:
448,192,84870,1,0,0:0:0:0:
320,192,85046,1,0,0:0:0:0:
64,192,85222,128,0,85399:0:0:0:0:
448,192,85399,1,0,0:0:0:0:
64,192,85575,128,0,85752:0:0:0:0:
448,192,85752,1,0,0:0:0:0:
320,192,85840,1,0,0:0:0:0:
192,192,86017,1,0,0:0:0:0:
64,192,86105,128,0,86281:0:0:0:0:
448,192,86105,1,0,0:0:0:0:
320,192,86281,1,0,0:0:0:0:
192,192,86370,1,0,0:0:0:0:
448,192,86458,128,0,86810:0:0:0:0:
64,192,86458,128,0,86810:0:0:0:0:
320,192,86634,1,0,0:0:0:0:
192,192,86810,1,0,0:0:0:0:
448,192,86987,128,0,87163:0:0:0:0:
64,192,87163,1,0,0:0:0:0:
448,192,87340,128,0,87516:0:0:0:0:
64,192,87516,1,0,0:0:0:0:
192,192,87693,1,0,0:0:0:0:
320,192,87781,1,0,0:0:0:0:
64,192,87869,1,0,0:0:0:0:
448,192,87869,128,0,88046:0:0:0:0:
192,192,88046,128,0,88222:0:0:0:0:
64,192,88222,1,0,0:0:0:0:
448,192,88222,128,0,88399:0:0:0:0:
320,192,88399,128,0,88575:0:0:0:0:
448,192,88575,1,0,0:0:0:0:
64,192,88575,128,0,88752:0:0:0:0:
320,192,88752,128,0,88928:0:0:0:0:
64,192,88928,1,0,0:0:0:0:
448,192,88928,128,0,89105:0:0:0:0:
192,192,89105,128,0,89281:0:0:0:0:
64,192,89281,128,0,89634:0:0:0:0:
448,192,89281,128,0,89634:0:0:0:0:
192,192,89634,1,0,0:0:0:0:
448,192,89752,1,0,0:0:0:0:
64,192,89869,1,0,0:0:0:0:
320,192,89987,1,0,0:0:0:0:
192,192,89987,1,0,0:0:0:0:
192,192,90252,1,0,0:0:0:0:
320,192,90252,1,0,0:0:0:0:
320,192,90516,1,0,0:0:0:0:
192,192,90516,1,0,0:0:0:0:
448,192,90693,128,0,90869:0:0:0:0:
64,192,90869,128,0,91046:0:0:0:0:
448,192,91046,5,0,0:0:0:0:
192,192,91046,128,0,91222:0:0:0:0:
320,192,91222,128,0,91399:0:0:0:0:
448,192,91399,1,0,0:0:0:0:
64,192,91399,128,0,91575:0:0:0:0:
320,192,91575,128,0,91752:0:0:0:0:
64,192,91752,1,0,0:0:0:0:
448,192,91752,1,0,0:0:0:0:
448,192,92105,128,0,92369:0:0:0:0:
64,192,92105,128,0,92369:0:0:0:0:
192,192,92369,128,0,92634:0:0:0:0:
448,192,92634,1,0,0:0:0:0:
320,192,92634,1,0,0:0:0:0:
64,192,92722,1,0,0:0:0:0:
320,192,92810,128,0,92987:0:0:0:0:
192,192,92987,128,0,93163:0:0:0:0:
320,192,93163,1,0,0:0:0:0:
448,192,93163,128,0,93340:0:0:0:0:
64,192,93340,128,0,93516:0:0:0:0:
320,192,93516,1,0,0:0:0:0:
192,192,93605,128,0,93781:0:0:0:0:
448,192,93781,1,0,0:0:0:0:
64,192,93869,1,0,0:0:0:0:
320,192,93869,128,0,94046:0:0:0:0:
192,192,94046,128,0,94222:0:0:0:0:
64,192,94222,128,0,94399:0:0:0:0:
448,192,94310,1,0,0:0:0:0:
320,192,94399,128,0,94575:0:0:0:0:
192,192,94575,128,0,94840:0:0:0:0:
448,192,94575,128,0,94840:0:0:0:0:
320,192,94840,1,0,0:0:0:0:
64,192,94840,128,0,95457:0:0:0:0:
320,192,95105,1,0,0:0:0:0:
448,192,95105,1,0,0:0:0:0:
192,192,95457,1,0,0:0:0:0:
320,192,95634,1,0,0:0:0:0:
448,192,95634,128,0,96075:0:0:0:0:
64,192,95810,1,0,0:0:0:0:
192,192,95987,1,0,0:0:0:0:
64,192,96075,128,0,96340:0:0:0:0:
448,192,96340,1,0,0:0:0:0:
320,192,96340,128,0,96516:0:0:0:0:
192,192,96516,128,0,96693:0:0:0:0:
448,192,96693,1,0,0:0:0:0:
64,192,96693,1,0,0:0:0:0:
320,192,96869,1,0,0:0:0:0:
192,192,96869,128,0,97046:0:0:0:0:
448,192,97046,128,0,97310:0:0:0:0:
64,192,97046,128,0,97310:0:0:0:0:
192,192,97310,128,0,97575:0:0:0:0:
448,192,97575,1,0,0:0:0:0:
320,192,97575,1,0,0:0:0:0:
64,192,97663,1,0,0:0:0:0:
320,192,97752,128,0,97928:0:0:0:0:
192,192,97928,128,0,98105:0:0:0:0:
320,192,98105,1,0,0:0:0:0:
448,192,98105,128,0,98281:0:0:0:0:
64,192,98281,128,0,98457:0:0:0:0:
320,192,98457,1,0,0:0:0:0:
192,192,98546,128,0,98722:0:0:0:0:
448,192,98722,1,0,0:0:0:0:
64,192,98810,1,0,0:0:0:0:
320,192,98810,128,0,98987:0:0:0:0:
192,192,98987,128,0,99163:0:0:0:0:
64,192,99163,128,0,99340:0:0:0:0:
448,192,99252,1,0,0:0:0:0:
320,192,99340,128,0,99516:0:0:0:0:
192,192,99516,128,0,99781:0:0:0:0:
448,192,99516,128,0,99781:0:0:0:0:
320,192,99781,128,0,100399:0:0:0:0:
192,192,100046,1,0,0:0:0:0:
64,192,100046,1,0,0:0:0:0:
64,192,100310,1,0,0:0:0:0:
448,192,100399,1,0,0:0:0:0:
192,192,100575,1,0,0:0:0:0:
64,192,100575,128,0,100928:0:0:0:0:
320,192,100752,1,0,0:0:0:0:
448,192,100928,1,0,0:0:0:0:
192,192,101016,128,0,101193:0:0:0:0:
320,192,101193,1,0,0:0:0:0:
448,192,101281,1,0,0:0:0:0:
64,192,101281,128,0,101457:0:0:0:0:
320,192,101457,128,0,101634:0:0:0:0:
448,192,101634,128,0,101810:0:0:0:0:
64,192,101634,128,0,101810:0:0:0:0:
320,192,101810,1,0,0:0:0:0:
192,192,101899,1,0,0:0:0:0:
320,192,101987,128,0,102252:0:0:0:0:
448,192,101987,128,0,102252:0:0:0:0:
192,192,102252,128,0,102516:0:0:0:0:
448,192,102516,1,0,0:0:0:0:
320,192,102516,1,0,0:0:0:0:
64,192,102605,1,0,0:0:0:0:
320,192,102693,128,0,102869:0:0:0:0:
64,192,102869,128,0,103046:0:0:0:0:
192,192,103046,1,0,0:0:0:0:
448,192,103046,128,0,103222:0:0:0:0:
320,192,103222,128,0,103399:0:0:0:0:
64,192,103399,1,0,0:0:0:0:
192,192,103487,128,0,103663:0:0:0:0:
448,192,103663,1,0,0:0:0:0:
64,192,103752,1,0,0:0:0:0:
320,192,103752,128,0,103928:0:0:0:0:
192,192,103928,128,0,104105:0:0:0:0:
64,192,104105,128,0,104281:0:0:0:0:
448,192,104193,1,0,0:0:0:0:
320,192,104281,128,0,104457:0:0:0:0:
192,192,104457,128,0,104722:0:0:0:0:
448,192,104457,128,0,104722:0:0:0:0:
320,192,104722,128,0,105340:0:0:0:0:
64,192,104987,1,0,0:0:0:0:
192,192,104987,1,0,0:0:0:0:
64,192,105252,1,0,0:0:0:0:
448,192,105340,1,0,0:0:0:0:
192,192,105516,1,0,0:0:0:0:
64,192,105516,128,0,105869:0:0:0:0:
448,192,105693,1,0,0:0:0:0:
320,192,105781,1,0,0:0:0:0:
448,192,105957,1,0,0:0:0:0:
192,192,105957,128,0,106222:0:0:0:0:
64,192,106222,1,0,0:0:0:0:
320,192,106222,1,0,0:0:0:0:
448,192,106310,128,0,106487:0:0:0:0:
64,192,106487,1,0,0:0:0:0:
192,192,106575,128,0,106752:0:0:0:0:
320,192,106575,1,0,0:0:0:0:
448,192,106752,1,0,0:0:0:0:
64,192,106752,128,0,106928:0:0:0:0:
320,192,106928,128,0,107193:0:0:0:0:
448,192,106928,128,0,107193:0:0:0:0:
192,192,107193,128,0,107457:0:0:0:0:
448,192,107457,1,0,0:0:0:0:
320,192,107457,1,0,0:0:0:0:
64,192,107546,1,0,0:0:0:0:
320,192,107634,128,0,107810:0:0:0:0:
64,192,107810,128,0,107987:0:0:0:0:
192,192,107987,1,0,0:0:0:0:
448,192,107987,128,0,108163:0:0:0:0:
320,192,108163,128,0,108340:0:0:0:0:
64,192,108340,1,0,0:0:0:0:
192,192,108428,128,0,108604:0:0:0:0:
448,192,108604,1,0,0:0:0:0:
64,192,108693,1,0,0:0:0:0:
320,192,108693,128,0,108869:0:0:0:0:
192,192,108869,128,0,109046:0:0:0:0:
64,192,109046,128,0,109222:0:0:0:0:
448,192,109134,1,0,0:0:0:0:
320,192,109222,128,0,109399:0:0:0:0:
192,192,109399,128,0,109663:0:0:0:0:
448,192,109399,128,0,109663:0:0:0:0:
64,192,109575,1,0,0:0:0:0:
320,192,109663,128,0,110281:0:0:0:0:
64,192,109928,1,0,0:0:0:0:
192,192,109928,1,0,0:0:0:0:
448,192,110104,1,0,0:0:0:0:
64,192,110193,1,0,0:0:0:0:
192,192,110281,1,0,0:0:0:0:
448,192,110457,1,0,0:0:0:0:
64,192,110546,1,0,0:0:0:0:
192,192,110634,1,0,0:0:0:0:
320,192,110722,5,0,0:0:0:0:
64,192,110899,1,0,0:0:0:0:
448,192,110987,128,0,111163:0:0:0:0:
64,192,111163,1,0,0:0:0:0:
192,192,111163,128,0,111340:0:0:0:0:
320,192,111340,128,0,111516:0:0:0:0:
64,192,111516,1,0,0:0:0:0:
448,192,111516,128,0,111693:0:0:0:0:
64,192,111693,128,0,111869:0:0:0:0:
320,192,111693,1,0,0:0:0:0:
320,192,111870,128,0,112222:0:0:0:0:
192,192,111870,128,0,112222:0:0:0:0:
192,192,112399,128,0,112928:0:0:0:0:
448,192,112399,128,0,112928:0:0:0:0:
64,192,113105,128,0,113458:0:0:0:0:
192,192,113105,128,0,113458:0:0:0:0:
320,192,113634,1,0,0:0:0:0:
192,192,113722,1,0,0:0:0:0:
448,192,113811,128,0,113987:0:0:0:0:
320,192,113987,128,0,114164:0:0:0:0:
192,192,114164,128,0,114340:0:0:0:0:
64,192,114340,128,0,114517:0:0:0:0:
320,192,114517,128,0,114781:0:0:0:0:
448,192,114517,128,0,114781:0:0:0:0:
320,192,115046,128,0,115575:0:0:0:0:
64,192,115046,128,0,115575:0:0:0:0:
192,192,115752,128,0,116105:0:0:0:0:
64,192,115752,128,0,116105:0:0:0:0:
192,192,116281,1,0,0:0:0:0:
320,192,116369,1,0,0:0:0:0:
448,192,116458,1,0,0:0:0:0:
64,192,116546,1,0,0:0:0:0:
192,192,116634,128,0,116811:0:0:0:0:
320,192,116811,128,0,116987:0:0:0:0:
448,192,116987,128,0,117164:0:0:0:0:
64,192,117164,128,0,117516:0:0:0:0:
192,192,117164,128,0,117516:0:0:0:0:
320,192,117516,1,0,0:0:0:0:
192,192,117693,128,0,117958:0:0:0:0:
448,192,117693,128,0,117958:0:0:0:0:
64,192,117958,1,0,0:0:0:0:
320,192,118046,1,0,0:0:0:0:
192,192,118222,128,0,118399:0:0:0:0:
320,192,118399,128,0,118752:0:0:0:0:
448,192,118399,128,0,118752:0:0:0:0:
64,192,118752,1,0,0:0:0:0:
448,192,118928,1,0,0:0:0:0:
192,192,118928,128,0,119193:0:0:0:0:
320,192,119193,128,0,119458:0:0:0:0:
64,192,119458,1,0,0:0:0:0:
192,192,119546,1,0,0:0:0:0:
448,192,119635,1,0,0:0:0:0:
320,192,119635,1,0,0:0:0:0:
64,192,119723,1,0,0:0:0:0:
448,192,119899,1,0,0:0:0:0:
320,192,119899,1,0,0:0:0:0:
192,192,119987,1,0,0:0:0:0:
320,192,120164,1,0,0:0:0:0:
64,192,120252,1,0,0:0:0:0:
448,192,120340,1,0,0:0:0:0:
192,192,120458,1,0,0:0:0:0:
320,192,120576,1,0,0:0:0:0:
64,192,120693,1,0,0:0:0:0:
320,192,120811,1,0,0:0:0:0:
448,192,120929,1,0,0:0:0:0:
64,192,121046,1,0,0:0:0:0:
192,192,121046,1,0,0:0:0:0:
448,192,121135,1,0,0:0:0:0:
64,192,121311,1,0,0:0:0:0:
192,192,121311,1,0,0:0:0:0:
320,192,121399,1,0,0:0:0:0:
192,192,121576,1,0,0:0:0:0:
448,192,121664,1,0,0:0:0:0:
64,192,121752,1,0,0:0:0:0:
320,192,121870,1,0,0:0:0:0:
192,192,121987,1,0,0:0:0:0:
64,192,122105,1,0,0:0:0:0:
320,192,122223,1,0,0:0:0:0:
448,192,122340,1,0,0:0:0:0:
192,192,122458,128,0,122722:0:0:0:0:
64,192,122458,128,0,122722:0:0:0:0:
320,192,122722,128,0,122987:0:0:0:0:
64,192,122987,128,0,123252:0:0:0:0:
448,192,122987,128,0,123252:0:0:0:0:
192,192,123252,128,0,123516:0:0:0:0:
448,192,123516,128,0,123781:0:0:0:0:
64,192,123516,128,0,123781:0:0:0:0:
320,192,123781,128,0,124047:0:0:0:0:
448,192,124047,1,0,0:0:0:0:
64,192,124047,1,0,0:0:0:0:
192,192,124164,1,0,0:0:0:0:
320,192,124282,1,0,0:0:0:0:
448,192,124399,1,0,0:0:0:0:
64,192,124517,1,0,0:0:0:0:
192,192,124635,1,0,0:0:0:0:
448,192,124752,1,0,0:0:0:0:
320,192,124752,1,0,0:0:0:0:
192,192,125104,1,0,0:0:0:0:
320,192,125281,1,0,0:0:0:0:
448,192,125281,1,0,0:0:0:0:
192,192,125457,1,0,0:0:0:0:
64,192,125634,1,0,0:0:0:0:
320,192,125810,1,0,0:0:0:0:
448,192,125810,1,0,0:0:0:0:
192,192,125899,1,0,0:0:0:0:
64,192,125899,1,0,0:0:0:0:
