osu file format v14

[General]
AudioFilename: audio.mp3
AudioLeadIn: 0
PreviewTime: 50564
Countdown: 0
SampleSet: None
StackLeniency: 0.7
Mode: 0
LetterboxInBreaks: 0
WidescreenStoryboard: 1

[Editor]
Bookmarks: 764,15164,29164,36364,50764,78764,100764
DistanceSpacing: 0.8
BeatDivisor: 4
GridSize: 32
TimelineZoom: 2.599999

[Metadata]
Title:Blue Forest (Prog Keys Remix)
TitleUnicode:Blue Forest (Prog Keys Remix)
Artist:Toromaru
ArtistUnicode:とろまる
Creator:Allice
Version:Down's MAXIMUM
Source:SOUND VOLTEX VIVID WAVE
Tags:mynt knightcore knightc0re down celektus calliecube obamacube smokebloke electronic jazz videogame game instrumental BEMANI Song Remix Contest~2019~楽曲リミックスコンテスト SOUND VOLTEX III GRAVITY WARS コナステ SDVX GW VW cc22 hr3 qf corsace closed hard rock three quarter finals Mutsuhiko Izumi 泉陸奥彦
BeatmapID:3612216
BeatmapSetID:1764721

[Difficulty]
HPDrainRate:5
CircleSize:4
OverallDifficulty:8.8
ApproachRate:9.4
SliderMultiplier:2.8
SliderTickRate:1

[Events]
//Background and Video events
0,0,"blueforest.jpg",0,0
//Break Periods
//Storyboard Layer 0 (Background)
//Storyboard Layer 1 (Fail)
//Storyboard Layer 2 (Pass)
//Storyboard Layer 3 (Foreground)
//Storyboard Layer 4 (Overlay)
//Storyboard Sound Samples

[TimingPoints]
-1036,400,5,2,0,70,1,0
564,-100,5,2,0,70,0,0
764,400,5,2,0,70,1,0
2564,400,5,2,0,70,1,0
4364,400,5,2,0,70,1,0
6164,400,5,2,0,70,1,0
7964,400,5,2,0,70,1,0
9764,400,5,2,0,70,1,0
11564,400,5,2,0,70,1,0
13364,400,5,2,0,70,1,0
15164,400,7,2,0,70,1,0
15164,-83.3333333333333,7,2,0,70,0,0
17964,400,4,2,0,70,1,0
17964,-83.3333333333333,4,2,0,70,0,0
27564,-100,4,2,0,70,0,0
29164,400,5,2,0,70,1,0
30964,400,5,2,0,70,1,0
32764,400,5,2,0,70,1,0
34564,400,5,2,0,70,1,0
36364,400,4,2,0,70,1,1
39564,400,5,2,0,70,1,1
43564,400,4,2,0,70,1,1
46764,400,5,2,0,70,1,1
50764,-100,5,2,0,70,0,0
52564,400,5,2,0,70,1,0
54364,400,5,2,0,70,1,0
56164,400,5,2,0,70,1,0
57964,400,5,2,0,70,1,0
59764,400,5,2,0,70,1,0
61564,400,5,2,0,70,1,0
63364,400,5,2,0,70,1,0
65164,400,7,2,0,70,1,0
65164,-83.3333333333333,7,2,0,70,0,0
67964,400,4,2,0,70,1,0
67964,-83.3333333333333,4,2,0,70,0,0
77164,-100,4,2,0,70,0,0
78764,400,4,2,0,70,1,0
79164,-100,4,2,0,70,0,1
81964,400,5,2,0,70,1,1
85964,400,4,2,0,70,1,1
89164,400,5,2,0,70,1,1
93164,400,4,2,0,70,1,0
94064,-100,4,2,0,70,0,1
97164,-100,4,2,0,70,0,0
98764,400,5,2,0,70,1,0

[Colours]
Combo1 : 0,149,89
Combo2 : 0,168,168
Combo3 : 18,124,255
Combo4 : 0,230,132

[HitObjects]
300,139,564,6,0,B|291:120|291:120|314:80,2,46.6666666666667,2|2|2,0:3|0:3|0:3,0:0:0:0:
308,150,764,6,0,P|210:131|109:74,1,210,4|2,1:2|0:0,0:0:0:0:
26,47,1164,2,0,P|38:91|40:144,1,70,8|0,0:0|0:0,0:0:0:0:
170,205,1364,6,0,P|134:259|125:352,1,140,0|2,1:0|0:0,0:0:0:0:
9,215,1664,1,2,0:3:0:0:
9,215,1764,2,0,P|58:198|84:187,1,70,2|2,0:3|0:3,0:0:0:0:
232,255,1964,5,0,0:0:0:0:
260,273,2064,1,2,0:3:0:0:
303,269,2164,1,0,0:0:0:0:
333,234,2264,1,2,0:3:0:0:
350,184,2364,1,2,0:3:0:0:
312,135,2464,1,2,0:3:0:0:
237,115,2564,6,0,B|333:71|380:67|380:67|327:54|304:31,1,210,0|2,1:0|0:0,0:0:0:0:
161,105,2964,2,0,B|150:127|150:127|203:204,1,70,8|0,0:0|0:0,0:0:0:0:
396,188,3164,6,0,P|372:227|336:349,1,140,2|0,0:0|0:0,0:0:0:0:
277,367,3464,1,0,1:0:0:0:
277,367,3564,2,0,P|227:352|226:306,1,70
104,226,3764,5,2,3:2:0:0:
43,240,3864,1,2,3:2:0:0:
21,285,3964,1,2,3:2:0:0:
26,321,4064,1,2,3:2:0:0:
41,342,4164,1,2,3:2:0:0:
58,347,4264,1,2,3:2:0:0:
66,341,4364,6,0,P|82:273|121:117,1,210,4|0,1:2|3:0,0:0:0:0:
49,29,4764,2,0,B|34:47|34:47|55:111,1,70,8|0,0:0|0:0,0:0:0:0:
182,193,4964,2,0,P|221:170|273:155,1,70,8|0,0:0|0:0,0:0:0:0:
336,53,5164,6,0,P|303:41|250:2,1,70,2|2,0:0|0:3,0:0:0:0:
320,189,5364,2,0,P|327:226|355:281,1,70,2|8,0:3|0:0,0:0:0:0:
500,85,5564,5,0,0:0:0:0:
472,67,5664,1,8,0:0:0:0:
429,71,5764,1,0,0:0:0:0:
399,106,5864,1,2,0:0:0:0:
392,155,5964,1,2,0:3:0:0:
428,203,6064,1,2,0:3:0:0:
489,262,6164,6,0,P|416:245|314:228,1,140,0|0,1:0|0:0,0:0:0:0:
248,199,6464,1,2,0:0:0:0:
248,199,6564,2,0,P|268:234|278:285,1,70,8|0,0:0|0:0,0:0:0:0:
403,370,6764,2,0,P|443:345|493:333,1,70,0|0,0:0|1:0,0:0:0:0:
431,107,6964,6,0,B|449:136|449:136|412:209,1,70,0|0,0:0|3:0,0:0:0:0:
248,199,7164,2,0,P|196:172|174:128,1,70,0|0,3:0|3:0,0:0:0:0:
161,47,7364,5,2,3:2:0:0:
110,66,7464,1,2,3:2:0:0:
99,123,7564,5,2,3:2:0:0:
64,112,7664,1,2,3:2:0:0:
14,122,7764,5,2,3:2:0:0:
9,103,7864,1,2,3:2:0:0:
49,31,7964,6,0,P|33:176|23:274,1,210,4|2,1:2|0:0,0:0:0:0:
140,300,8364,2,0,P|176:289|234:270,1,70,8|0,0:0|0:0,0:0:0:0:
338,139,8564,6,0,P|265:127|235:38,1,140,0|0,1:0|0:0,0:0:0:0:
135,35,8864,1,2,3:0:0:0:
135,35,8964,2,0,P|147:66|159:135,1,70,8|8,0:0|0:0,0:0:0:0:
339,217,9164,5,8,0:0:0:0:
367,235,9264,1,0,0:0:0:0:
410,231,9364,1,8,0:0:0:0:
440,196,9464,1,0,0:0:0:0:
457,146,9564,1,8,0:0:0:0:
419,97,9664,1,8,0:0:0:0:
346,72,9764,6,0,B|285:81|273:167|273:167|249:110|166:121,1,210,0|0,1:0|0:0,0:0:0:0:
132,216,10164,1,0,3:0:0:0:
132,216,10264,2,0,P|180:201|237:189,2,70,2|0|0,3:2|0:0|3:2,0:0:0:0:
1,131,10564,6,0,P|19:89|52:63,1,70,2|0,3:2|0:0,0:0:0:0:
29,260,10764,2,0,P|79:277|117:302,1,70,2|0,3:2|0:0,0:0:0:0:
277,227,10964,5,2,3:2:0:0:
338,213,11064,1,0,0:0:0:0:
360,168,11164,1,8,0:0:0:0:
355,132,11264,1,8,0:0:0:0:
340,111,11364,1,8,0:0:0:0:
323,106,11464,1,8,0:0:0:0:
315,112,11564,6,0,B|299:180|284:225|284:225|335:251|331:314,1,210,4|2,1:2|0:0,0:0:0:0:
388,384,11964,2,0,P|424:364|430:304,1,70,8|0,0:0|0:0,0:0:0:0:
440,225,12164,2,0,P|402:211|364:190,1,70,8|0,0:0|0:0,0:0:0:0:
249,299,12364,5,2,3:0:0:0:
249,299,12464,2,0,P|186:314|88:347,2,140,8|8|2,0:0|0:0|3:0,0:0:0:0:
375,197,12964,2,0,B|386:177|386:177|355:114,1,70,8|0,0:0|0:0,0:0:0:0:
223,44,13164,2,0,P|212:73|186:129,1,70,2|2,3:0|3:0,0:0:0:0:
304,231,13364,6,0,P|254:213|248:167,1,70,0|0,1:0|0:0,0:0:0:0:
92,74,13564,1,0,0:0:0:0:
92,74,13664,1,0,0:0:0:0:
92,74,13764,2,0,P|109:106|119:150,1,70,8|8,0:1|0:1,0:0:0:0:
139,301,13964,2,0,P|173:284|242:259,1,70,8|8,0:1|0:1,0:0:0:0:
414,161,14164,1,8,0:0:0:0:
414,161,14264,2,0,P|338:138|270:113,1,140,8|8,0:0|0:0,0:0:0:0:
210,178,14564,5,4,0:3:0:0:
213,186,14630,1,4,0:3:0:0:
216,195,14697,1,4,0:3:0:0:
230,207,14764,6,0,P|213:242|199:280,1,70,8|8,0:3|0:3,0:0:0:0:
41,280,14964,2,0,P|73:298|105:335,1,70,8|8,0:3|0:3,0:0:0:0:
264,319,15164,6,0,P|359:291|465:268,1,167.999994873047,0|0,1:0|0:0,0:0:0:0:
459,203,15464,1,2,0:3:0:0:
459,203,15564,2,0,B|478:175|478:175|442:122,1,83.9999974365235,2|0,0:3|0:0,0:0:0:0:
263,14,15764,6,0,B|218:51|218:51|198:106|309:135,1,167.999994873047,0|0,1:0|0:0,0:0:0:0:
372,113,16064,1,2,0:3:0:0:
372,113,16164,2,0,P|357:154|345:215,1,83.9999974365235,2|0,0:3|0:0,0:0:0:0:
215,335,16364,6,0,P|135:294|159:176,1,167.999994873047,0|0,1:0|0:0,0:0:0:0:
104,149,16664,1,2,0:3:0:0:
104,149,16764,2,0,B|64:165|64:165|44:218,1,83.9999974365235,2|0,0:3|0:0,0:0:0:0:
27,43,16964,6,0,P|143:29|242:17,1,167.999994873047,0|0,1:0|0:0,0:0:0:0:
265,73,17264,1,2,0:3:0:0:
265,73,17364,2,0,P|257:112|248:182,1,83.9999974365235,2|0,0:3|0:0,0:0:0:0:
332,245,17564,6,0,B|300:275|300:275|310:341,1,83.9999974365235,8|0,1:0|0:0,0:0:0:0:
433,359,17764,2,0,B|465:329|465:329|455:263,1,83.9999974365235,8|0,1:0|0:0,0:0:0:0:
386,299,17964,6,0,P|349:174|335:123,1,167.999994873047,0|2,1:0|0:3,0:0:0:0:
457,95,18264,1,2,0:3:0:0:
457,95,18364,2,0,P|404:80|356:58,1,83.9999974365235,2|0,0:3|0:0,0:0:0:0:
147,32,18564,6,0,B|133:67|133:67|168:133,1,83.9999974365235,0|0,1:0|0:0,0:0:0:0:
262,158,18764,1,2,0:3:0:0:
262,158,18864,1,2,0:3:0:0:
262,158,18964,2,0,P|214:169|147:193,1,83.9999974365235,2|0,0:3|0:0,0:0:0:0:
47,338,19164,6,0,B|33:303|33:303|68:237,1,83.9999974365235,0|0,1:0|0:0,0:0:0:0:
29,161,19364,1,2,0:3:0:0:
29,161,19464,1,2,0:3:0:0:
29,161,19564,2,0,P|70:183|115:205,1,83.9999974365235,2|0,0:3|0:0,0:0:0:0:
125,308,19764,6,0,P|221:276|306:248,1,167.999994873047,0|2,1:0|0:3,0:0:0:0:
348,328,20064,1,2,0:3:0:0:
348,328,20164,2,0,P|364:275|377:229,1,83.9999974365235,2|0,0:3|0:0,0:0:0:0:
268,54,20364,6,0,B|259:89|259:89|315:158,1,83.9999974365235,8|0,1:0|0:0,0:0:0:0:
434,83,20564,2,0,B|443:48|443:48|387:-21,1,83.9999974365235,8|0,1:0|0:0,0:0:0:0:
353,74,20764,5,8,1:0:0:0:
369,130,20864,1,8,1:0:0:0:
400,159,20964,1,8,1:0:0:0:
430,162,21064,1,8,1:0:0:0:
445,158,21164,6,0,P|392:180|326:285,1,167.999994873047,2|8,1:2|0:0,0:0:0:0:
262,309,21464,1,8,0:0:0:0:
222,295,21564,1,8,0:0:0:0:
195,250,21664,1,8,0:0:0:0:
268,216,21764,6,0,P|209:199|93:160,1,167.999994873047,2|8,1:2|0:0,0:0:0:0:
76,97,22064,1,8,0:0:0:0:
36,111,22164,1,8,0:0:0:0:
9,156,22264,1,8,0:0:0:0:
51,221,22364,6,0,P|174:153|172:84,1,167.999994873047,2|8,1:2|0:0,0:0:0:0:
240,44,22664,1,8,0:0:0:0:
240,44,22764,2,0,P|248:89|267:159,1,83.9999974365235,8|8,0:0|0:0,0:0:0:0:
476,35,22964,6,0,P|448:99|423:241,1,167.999994873047,2|8,1:2|0:0,0:0:0:0:
372,253,23264,1,8,0:0:0:0:
332,239,23364,1,8,0:0:0:0:
305,194,23464,1,8,0:0:0:0:
359,133,23564,6,0,P|275:114|165:80,1,167.999994873047,2|8,1:2|0:0,0:0:0:0:
147,151,23864,1,8,0:0:0:0:
95,207,23964,2,0,P|60:219|17:259,1,83.9999974365235,8|2,1:0|0:0,0:0:0:0:
197,357,24164,2,0,P|139:336|111:318,1,83.9999974365235,8|2,1:0|0:0,0:0:0:0:
0,326,24364,6,0,P|13:209|14:109,1,167.999994873047,8|10,1:2|0:0,0:0:0:0:
82,117,24664,1,10,0:0:0:0:
122,131,24764,1,10,0:0:0:0:
149,176,24864,1,10,0:0:0:0:
147,257,24964,5,2,1:2:0:0:
147,257,25064,1,0,0:0:0:0:
147,257,25164,2,0,P|197:238|235:228,1,83.9999974365235,10|10,0:0|0:0,0:0:0:0:
294,101,25364,5,10,0:0:0:0:
297,109,25430,1,0,0:0:0:0:
300,118,25497,1,0,0:0:0:0:
315,133,25564,6,0,P|390:155|495:205,1,167.999994873047,2|10,1:2|0:0,0:0:0:0:
432,259,25864,1,10,0:0:0:0:
392,273,25964,1,10,0:0:0:0:
365,318,26064,1,10,0:0:0:0:
296,366,26164,6,0,P|288:320|268:216,1,83.9999974365235,2|0,1:2|0:0,0:0:0:0:
222,189,26364,5,8,0:0:0:0:
225,197,26430,1,0,0:0:0:0:
228,206,26497,1,0,0:0:0:0:
224,227,26564,6,0,P|182:237|108:252,1,83.9999974365235,10|10,1:0|1:0,0:0:0:0:
322,100,26764,2,0,P|364:110|438:125,1,83.9999974365235,10|10,1:0|1:0,0:0:0:0:
268,159,26964,1,10,1:0:0:0:
268,159,27564,5,4,1:3:0:0:
268,159,27664,1,4,1:3:0:0:
46,52,27864,1,4,1:3:0:0:
46,52,27964,2,0,P|62:89|69:139,1,70,4|0,1:3|0:0,0:0:0:0:
159,194,28164,2,0,P|145:221|140:280,1,70,2|2,3:0|3:0,3:0:0:0:
288,305,28364,5,8,0:3:0:0:
291,297,28430,1,8,0:3:0:0:
294,288,28497,1,8,0:3:0:0:
290,267,28564,6,0,P|248:257|167:232,1,70,8|8,0:3|0:0,0:0:0:0:
68,290,28764,2,0,B|56:319|56:319|91:393,1,70,8|0,0:0|0:0,0:0:0:0:
159,194,28964,5,8,0:0:0:0:
151,197,29030,1,0,0:0:0:0:
142,200,29097,1,0,0:0:0:0:
121,196,29164,6,0,P|111:154|104:109,1,70,2|2,1:2|0:0,0:0:0:0:
260,59,29464,1,2,0:0:0:0:
260,59,29564,1,2,0:0:0:0:
374,84,29764,1,2,0:0:0:0:
459,219,29964,5,2,0:0:0:0:
459,219,30064,1,2,0:0:0:0:
347,250,30264,1,2,0:0:0:0:
347,250,30364,1,2,0:0:0:0:
235,281,30564,1,2,0:0:0:0:
63,181,30764,1,2,0:0:0:0:
0,234,30964,6,0,P|13:274|24:335,1,70,2|2,1:2|0:0,0:0:0:0:
107,329,31164,1,2,0:0:0:0:
107,329,31264,1,2,0:0:0:0:
107,329,31364,1,2,0:0:0:0:
235,281,31564,1,2,0:0:0:0:
326,160,31764,5,2,0:0:0:0:
326,160,31864,2,0,P|340:107|354:58,1,70,2|0,1:2|0:0,0:0:0:0:
252,112,32064,1,2,0:0:0:0:
252,112,32164,1,2,0:0:0:0:
427,80,32364,1,2,0:0:0:0:
492,261,32564,1,2,0:0:0:0:
448,325,32764,5,2,0:0:0:0:
320,361,32964,1,2,0:0:0:0:
320,361,33064,1,2,0:0:0:0:
320,361,33164,2,0,P|268:346|206:331,1,70,2|2,1:2|0:0,0:0:0:0:
311,273,33364,1,2,0:0:0:0:
161,214,33564,5,2,0:0:0:0:
161,214,33664,1,2,0:0:0:0:
91,95,33864,1,2,0:0:0:0:
91,95,33964,1,2,0:0:0:0:
206,11,34164,1,2,0:0:0:0:
357,126,34364,1,2,0:0:0:0:
420,75,34564,5,2,0:0:0:0:
420,75,34664,2,0,P|460:90|502:108,1,70,2|2,1:2|0:0,0:0:0:0:
484,17,34864,1,2,0:0:0:0:
484,17,34964,1,2,0:0:0:0:
346,217,35164,2,0,P|383:199|427:182,1,70,2|0,1:2|0:0,0:0:0:0:
413,274,35364,6,0,B|430:297|430:297|410:359,1,70,2|2,0:0|0:0,0:0:0:0:
313,330,35564,5,8,0:3:0:0:
307,336,35630,1,8,0:3:0:0:
301,343,35697,1,8,0:3:0:0:
281,350,35764,6,0,P|251:318|240:255,1,70,8|2,0:3|0:0,0:0:0:0:
249,210,35964,1,8,0:0:0:0:
272,179,36064,1,8,0:0:0:0:
257,129,36164,1,8,0:0:0:0:
210,104,36264,1,8,0:0:0:0:
141,131,36364,5,2,1:0:0:0:
85,121,36464,1,0,0:0:0:0:
69,73,36564,1,2,1:0:0:0:
81,42,36664,1,0,0:0:0:0:
109,32,36764,2,0,P|87:145|74:248,1,210,2|0,1:0|0:0,0:0:0:0:
16,291,37164,6,0,P|19:327|76:352,1,70,0|0,1:0|0:0,0:0:0:0:
188,308,37364,2,0,P|223:284|230:243,1,70
170,161,37564,1,2,1:0:0:0:
142,137,37664,1,0,1:0:0:0:
154,86,37764,1,0,1:0:0:0:
208,64,37864,2,0,P|242:78|292:95,1,70,2|0,1:0|0:0,0:0:0:0:
345,256,38064,6,0,B|374:239|374:239|383:202,1,70,2|0,1:0|0:0,0:0:0:0:
425,81,38264,1,0,1:0:0:0:
425,81,38364,2,0,B|368:73|325:125|361:131|322:179|246:166,1,210,2|0,1:0|0:0,0:0:0:0:
273,89,38764,6,0,P|250:64|257:8,1,70,0|0,1:0|0:0,0:0:0:0:
94,154,38964,2,0,P|77:181|66:243,1,70,0|0,0:0|1:0,0:0:0:0:
200,272,39164,1,0,0:0:0:0:
228,296,39264,1,0,1:0:0:0:
216,347,39364,1,0,1:0:0:0:
162,369,39464,1,0,1:0:0:0:
100,318,39564,5,0,1:0:0:0:
100,318,39664,2,8,P|52:310|-4:302,1,70,0|0,0:0|0:0,0:0:0:0:
412,318,39864,1,0,1:0:0:0:
412,318,39964,2,8,P|460:310|516:302,1,70,0|0,0:0|0:0,0:0:0:0:
148,218,40164,5,0,1:0:0:0:
148,218,40264,2,8,P|99:194|85:167,1,70,0|0,0:0|0:0,0:0:0:0:
364,218,40464,1,0,1:0:0:0:
364,218,40564,2,8,P|413:194|427:167,1,70,0|0,0:0|0:0,0:0:0:0:
198,104,40764,5,0,1:0:0:0:
198,104,40864,2,8,P|182:72|148:30,1,70,0|0,0:0|0:0,0:0:0:0:
314,104,41064,1,0,1:0:0:0:
314,104,41164,2,8,P|330:72|364:30,1,70,0|0,0:0|0:0,0:0:0:0:
255,161,41364,6,0,P|247:208|237:341,1,140,0|0,1:0|3:0,0:0:0:0:
301,350,41664,1,2,3:0:0:0:
341,345,41764,1,2,3:0:0:0:
375,314,41864,1,2,3:0:0:0:
391,259,41964,1,2,3:0:0:0:
344,195,42064,6,0,P|387:185|434:165,1,70,0|0,1:0|0:0,0:0:0:0:
275,85,42264,2,0,P|243:79|184:55,1,70,8|0,0:0|0:0,0:0:0:0:
380,22,42464,6,0,P|369:44|355:115,1,70,0|0,1:0|0:0,0:0:0:0:
272,228,42664,2,0,P|261:206|247:135,1,70,8|0,0:0|0:0,0:0:0:0:
333,165,42864,5,0,1:0:0:0:
198,262,43064,1,8,0:0:0:0:
136,254,43164,1,8,0:0:0:0:
93,289,43264,1,8,0:0:0:0:
89,334,43364,1,8,0:0:0:0:
115,358,43464,1,8,0:0:0:0:
135,353,43564,5,2,1:0:0:0:
151,322,43664,1,0,0:0:0:0:
137,275,43764,1,2,1:0:0:0:
89,250,43864,1,0,0:0:0:0:
16,266,43964,2,0,B|81:203|137:203|137:203|78:197|55:141,1,210,2|0,1:0|0:0,0:0:0:0:
105,65,44364,6,0,B|129:82|129:82|140:153,1,70,0|0,1:0|0:0,0:0:0:0:
212,236,44564,2,0,P|258:207|291:184,1,70
430,261,44764,1,2,1:0:0:0:
458,285,44864,1,0,1:0:0:0:
446,336,44964,1,0,1:0:0:0:
392,358,45065,2,0,P|359:344|326:332,1,70,2|0,1:0|0:0,0:0:0:0:
161,336,45264,6,0,B|135:302|135:302|159:256,1,70,2|0,1:0|0:0,0:0:0:0:
233,162,45464,1,0,1:0:0:0:
233,162,45564,2,0,B|175:158|137:214|173:217|138:268|62:262,1,210,2|0,1:0|0:0,0:0:0:0:
30,139,45964,6,0,P|62:157|95:216,1,70,0|0,1:0|0:0,0:0:0:0:
250,306,46164,2,0,P|244:272|231:240,1,70,0|0,0:0|1:0,0:0:0:0:
257,86,46364,1,0,0:0:0:0:
281,58,46464,1,0,1:0:0:0:
332,70,46564,1,0,1:0:0:0:
354,124,46664,1,0,1:0:0:0:
436,151,46764,5,0,1:0:0:0:
436,151,46864,2,8,P|428:103|420:47,1,70,0|0,0:0|0:0,0:0:0:0:
76,233,47064,1,0,1:0:0:0:
76,233,47164,2,8,P|84:281|92:337,1,70,0|0,0:0|0:0,0:0:0:0:
368,230,47364,5,0,1:0:0:0:
368,230,47464,2,8,P|360:182|352:126,1,70,0|0,0:0|0:0,0:0:0:0:
144,154,47664,1,0,1:0:0:0:
144,154,47764,2,8,P|152:202|160:258,1,70,0|0,0:0|0:0,0:0:0:0:
295,303,47964,5,0,1:0:0:0:
295,303,48064,2,8,P|287:255|279:199,1,70,0|0,0:0|0:0,0:0:0:0:
217,81,48264,1,0,1:0:0:0:
217,81,48364,2,8,P|225:129|233:185,1,70,0|0,0:0|0:0,0:0:0:0:
344,178,48564,5,0,1:0:0:0:
378,191,48664,1,0,0:0:0:0:
421,180,48764,1,0,3:0:0:0:
458,148,48864,1,2,3:0:0:0:
472,93,48964,1,2,3:0:0:0:
443,42,49064,1,2,3:0:0:0:
382,21,49164,1,2,3:0:0:0:
316,51,49264,6,0,P|277:41|239:21,1,70,0|0,1:0|0:0,0:0:0:0:
147,174,49464,2,0,P|164:197|194:269,1,70,8|0,0:0|0:0,0:0:0:0:
280,123,49664,6,0,P|259:154|246:205,1,70,0|0,1:0|0:0,0:0:0:0:
168,307,49864,2,0,P|126:287|110:251,1,70,8|0,0:0|0:0,0:0:0:0:
246,289,50064,5,0,1:0:0:0:
350,163,50264,1,8,0:0:0:0:
412,171,50364,1,8,0:0:0:0:
455,136,50464,1,8,0:0:0:0:
459,91,50564,1,8,0:0:0:0:
433,67,50664,1,0,1:0:0:0:
414,71,50764,5,4,1:2:0:0:
376,41,50864,1,0,0:0:0:0:
336,76,50964,5,0,0:0:0:0:
326,47,51064,1,0,3:0:0:0:
268,53,51164,5,2,3:0:0:0:
282,31,51264,1,2,3:0:0:0:
246,18,51364,6,0,P|222:27|175:41,1,70,0|0,1:0|0:0,0:0:0:0:
107,216,51564,2,0,B|144:221|206:180|201:114|201:114|210:154|245:164,1,210,2|0,3:0|1:0,0:0:0:0:
278,97,51964,6,0,B|311:115|311:115|326:158,1,70
355,278,52164,1,2,1:3:0:0:
320,305,52264,1,0,0:0:0:0:
269,302,52364,6,0,P|244:269|242:208,1,70,8|2,0:0|0:3,0:0:0:0:
155,254,52564,6,0,P|149:304|124:386,1,93.3333333333333,2|0,1:3|0:0,0:0:0:0:
130,352,52764,6,0,P|96:343|81:309,1,70,2|0,3:0|1:0,0:0:0:0:
6,299,52964,1,0,0:0:0:0:
0,56,53164,6,0,P|42:86|162:115,1,140,2|2,3:0|3:0,0:0:0:0:
197,158,53464,1,0,0:0:0:0:
197,158,53564,2,0,P|238:132|279:113,1,70,2|0,3:0|3:0,0:0:0:0:
309,13,53764,2,0,P|355:30|382:59,1,70,0|2,3:0|3:0,0:0:0:0:
449,177,53964,1,0,3:0:0:0:
461,217,54064,1,0,3:0:0:0:
426,250,54164,2,0,P|384:240|351:225,1,70,2|0,3:0|0:0,0:0:0:0:
211,279,54364,5,4,1:2:0:0:
211,279,54464,2,0,L|222:325,2,35,2|2|2,3:0|3:0|1:3,0:0:0:0:
134,251,54664,1,0,0:0:0:0:
134,251,54764,2,0,L|148:161,1,70,0|0,1:0|0:0,0:0:0:0:
243,68,54964,5,0,0:0:0:0:
243,68,55064,2,0,L|254:114,2,35,2|2|2,3:0|3:0|1:3,0:0:0:0:
169,106,55264,1,0,0:0:0:0:
169,106,55364,2,0,P|125:94|90:75,1,70,2|2,3:0|3:0,0:0:0:0:
234,191,55564,1,2,3:0:0:0:
234,191,55664,2,0,P|314:163|396:140,1,140,0|0,1:0|0:0,0:0:0:0:
414,85,55964,2,0,P|440:96|495:120,1,70,0|0,1:0|0:0,0:0:0:0:
471,249,56164,5,8,0:0:0:0:
471,249,56264,2,0,P|412:290|402:368,1,140,0|0,1:0|1:0,0:0:0:0:
323,361,56564,2,0,P|294:327|271:291,1,70,0|8,0:0|0:0,0:0:0:0:
234,191,56764,1,8,0:0:0:0:
185,174,56864,1,0,1:0:0:0:
480,24,57064,6,0,P|432:61|308:92,1,140,0|8,1:0|3:0,0:0:0:0:
272,77,57364,2,0,P|286:117|303:161,1,70,8|8,3:0|3:0,0:0:0:0:
225,296,57564,5,8,3:0:0:0:
170,280,57664,1,8,3:0:0:0:
131,243,57764,1,8,3:0:0:0:
124,211,57864,1,8,3:0:0:0:
136,198,57964,5,4,1:2:0:0:
167,183,58064,1,0,0:0:0:0:
183,137,58164,1,0,0:0:0:0:
161,88,58264,1,0,1:0:0:0:
110,68,58364,1,0,0:0:0:0:
45,101,58464,2,0,P|37:141|26:191,1,70,0|0,1:0|0:0,0:0:0:0:
148,338,58664,6,0,P|174:315|181:271,1,70,0|0,1:0|0:0,0:0:0:0:
287,169,58864,2,0,P|327:189|347:218,1,70,0|0,1:0|0:0,0:0:0:0:
265,292,59064,1,0,0:0:0:0:
265,292,59164,6,0,P|281:333|288:370,1,70,2|2,3:0|3:0,0:0:0:0:
363,379,59364,1,2,3:0:0:0:
399,375,59464,1,2,3:0:0:0:
437,349,59564,1,0,1:2:0:0:
456,292,59664,1,0,0:0:0:0:
418,226,59764,5,8,0:0:0:0:
409,224,59830,1,8,0:0:0:0:
402,218,59897,1,8,0:0:0:0:
396,202,59964,6,0,P|407:164|417:110,1,70,8|0,1:3|0:0,0:0:0:0:
337,31,60164,5,8,0:0:0:0:
328,33,60230,1,8,0:0:0:0:
321,39,60297,1,8,0:0:0:0:
315,55,60364,6,0,P|326:92|336:147,1,70,8|0,1:3|0:0,0:0:0:0:
190,187,60564,5,8,0:0:0:0:
192,178,60630,1,8,0:0:0:0:
198,171,60697,1,8,0:0:0:0:
214,165,60764,6,0,P|251:176|306:186,1,70,4|0,1:3|0:0,0:0:0:0:
201,320,60964,5,8,0:0:0:0:
201,320,61064,2,0,P|165:340|117:377,1,70,0|0,1:0|0:0,0:0:0:0:
74,229,61264,2,0,P|46:186|18:81,1,140,0|0,1:0|0:0,0:0:0:0:
110,22,61564,5,8,0:0:0:0:
110,22,61664,2,0,P|189:51|237:90,1,140,0|0,1:0|0:0,0:0:0:0:
188,149,61964,2,0,P|164:175|156:222,1,70,0|0,1:0|0:0,0:0:0:0:
418,256,62164,5,2,3:3:0:0:
418,256,62264,2,0,P|435:161|456:102,2,140,0|0|0,1:0|1:0|0:0,0:0:0:0:
503,301,62764,2,0,P|465:319|428:359,1,70,8|0,3:0|3:0,0:0:0:0:
339,223,62964,1,8,3:0:0:0:
305,209,63064,1,0,3:0:0:0:
275,174,63164,1,8,3:0:0:0:
271,114,63264,1,0,1:0:0:0:
334,70,63364,5,0,0:0:0:0:
334,70,63464,2,0,P|386:50|423:13,1,70,0|0,1:0|0:0,0:0:0:0:
142,69,63664,2,0,P|164:100|230:118,1,70,0|0,1:0|0:0,0:0:0:0:
118,200,63864,1,0,0:0:0:0:
78,240,63964,1,8,3:0:0:0:
66,283,64064,1,8,3:0:0:0:
72,307,64164,5,8,3:0:0:0:
28,300,64264,1,4,3:0:0:0:
0,257,64364,1,4,3:0:0:0:
21,205,64464,1,4,3:0:0:0:
75,153,64564,5,8,0:0:0:0:
84,151,64630,1,8,0:0:0:0:
91,145,64697,1,8,0:0:0:0:
97,129,64764,6,0,P|86:91|76:37,1,70,10|10,0:0|0:0,0:0:0:0:
249,12,64964,2,0,P|239:47|231:112,1,70,10|10,0:0|0:0,0:0:0:0:
385,57,65164,6,0,P|448:85|435:241,1,167.999994873047,0|0,1:0|0:0,0:0:0:0:
420,226,65464,1,2,3:0:0:0:
420,226,65564,2,0,P|372:236|330:252,1,83.9999974365235,2|0,3:0|0:0,0:0:0:0:
213,154,65764,6,0,B|151:180|128:247|128:247|147:222|175:223,1,167.999994873047,0|0,1:0|0:0,0:0:0:0:
180,363,66064,1,2,3:0:0:0:
180,363,66164,2,0,B|204:346|204:346|182:263,1,83.9999974365235,2|0,3:0|0:0,0:0:0:0:
22,59,66364,6,0,P|38:138|55:250,1,167.999994873047,0|0,1:0|0:0,0:0:0:0:
22,296,66664,1,2,3:0:0:0:
22,296,66764,2,0,P|59:309|114:332,1,83.9999974365235,2|0,3:0|0:0,0:0:0:0:
274,288,66964,6,0,B|286:273|286:244|286:244|324:176|415:173,1,167.999994873047,0|0,1:0|0:0,0:0:0:0:
371,276,67264,1,2,3:0:0:0:
371,276,67364,2,0,P|393:313|405:371,1,83.9999974365235,2|0,3:0|0:0,0:0:0:0:
205,250,67564,5,0,1:0:0:0:
165,225,67664,1,0,0:0:0:0:
156,172,67764,1,0,1:0:0:0:
190,128,67864,1,0,0:0:0:0:
272,130,67964,6,0,P|174:86|109:35,1,167.999994873047,0|0,1:0|0:0,0:0:0:0:
26,39,68264,1,0,1:0:0:0:
26,39,68364,2,0,P|53:86|59:124,1,83.9999974365235,0|0,0:0|1:0,0:0:0:0:
214,195,68564,2,0,P|193:235|182:293,1,83.9999974365235,0|8,0:0|0:0,0:0:0:0:
36,339,68764,5,0,1:0:0:0:
36,339,68864,1,0,0:0:0:0:
36,339,68964,2,0,P|88:326|131:320,1,83.9999974365235,8|0,0:0|1:0,0:0:0:0:
377,352,69164,6,0,P|296:335|277:244,1,167.999994873047
324,200,69464,1,0,1:0:0:0:
324,200,69564,2,0,P|379:186|439:172,1,83.9999974365235,0|8,0:0|0:0,0:0:0:0:
220,38,69764,2,0,B|239:62|239:62|215:140,1,83.9999974365235,2|0,1:0|0:0,0:0:0:0:
21,90,69964,6,0,P|118:134|174:171,1,167.999994873047,2|2,1:0|1:0,0:0:0:0:
195,240,70264,1,2,1:0:0:0:
139,293,70364,6,0,P|148:333|157:402,1,83.9999974365235,2|0,1:0|0:0,1:0:0:0:
323,199,70564,2,0,P|317:157|308:117,1,83.9999974365235,2|0,1:0|0:0,0:0:0:0:
141,32,70764,5,10,1:0:0:0:
101,57,70864,1,10,1:0:0:0:
92,110,70964,1,10,1:0:0:0:
126,154,71064,1,10,1:0:0:0:
200,172,71164,6,0,B|211:159|211:159|197:102,5,55.9999982910157,2|2|2|2|2|2,1:3|3:0|3:0|3:0|3:0|3:0,3:0:0:0:
152,239,71564,1,2,1:3:0:0:
144,246,71630,1,2,3:0:0:0:
134,249,71697,1,2,3:0:0:0:
124,252,71764,2,0,B|102:238|102:238|98:193,2,55.9999982910157,2|2|2,3:0|3:0|3:0,0:0:0:0:
199,300,71964,6,0,P|188:322|180:365,5,55.9999982910157,2|2|2|2|2|2,1:3|3:0|3:0|3:0|3:0|3:0,0:0:0:0:
266,254,72364,1,2,1:3:0:0:
274,247,72430,1,2,3:0:0:0:
284,244,72497,1,2,3:0:0:0:
294,241,72564,2,0,B|316:255|316:255|319:299,2,55.9999982910157,2|2|2,3:0|3:0|3:0,0:0:0:0:
287,229,72764,6,2,P|353:208|381:190,1,83.9999974365235,2|2,1:0|0:0,0:0:0:0:
504,119,72964,2,2,P|452:104|410:81,1,83.9999974365235,2|2,1:0|0:0,0:0:0:0:
229,17,73164,1,2,1:0:0:0:
182,57,73264,1,2,0:0:0:0:
192,116,73364,1,2,1:0:0:0:
221,131,73464,1,2,0:0:0:0:
237,123,73564,5,10,1:0:0:0:
209,100,73664,1,0,1:0:0:0:
156,93,73764,1,10,1:0:0:0:
116,135,73864,1,0,1:0:0:0:
107,203,73964,1,10,1:0:0:0:
56,234,74064,1,0,1:0:0:0:
17,219,74164,1,10,1:0:0:0:
8,187,74264,1,0,1:0:0:0:
21,176,74364,6,0,B|28:158|28:158|6:120,5,55.9999982910157,2|2|2|2|2|2,1:3|3:0|3:0|3:0|3:0|3:0,0:0:0:0:
1,252,74764,2,0,B|-6:270|-6:270|16:308,5,55.9999982910157,2|2|2|2|2|2,1:3|3:0|3:0|3:0|3:0|3:0,0:0:0:0:
81,268,75164,5,2,1:3:0:0:
89,261,75230,1,2,3:0:0:0:
99,258,75297,1,2,3:0:0:0:
109,255,75364,2,0,B|131:269|131:269|134:313,2,55.9999982910157,2|2|2,3:0|3:0|3:0,0:0:0:0:
91,178,75564,5,2,1:3:0:0:
83,171,75630,1,2,3:0:0:0:
73,168,75697,1,2,3:0:0:0:
63,165,75764,2,0,B|41:179|41:179|37:223,2,55.9999982910157,2|2|2,3:0|3:0|3:0,0:0:0:0:
66,147,75964,6,0,P|37:98|43:56,1,83.9999974365235,0|0,1:0|0:0,0:0:0:0:
174,35,76164,1,8,0:0:0:0:
219,33,76264,1,0,1:0:0:0:
257,65,76364,1,0,0:0:0:0:
273,123,76464,1,2,3:0:0:0:
230,181,76564,5,10,1:0:0:0:
279,233,76664,5,10,1:0:0:0:
349,234,76764,5,10,1:0:0:0:
399,185,76864,5,10,1:0:0:0:
399,114,76964,5,10,1:0:0:0:
285,57,77164,5,2,0:0:0:0:
279,49,77230,1,2,0:0:0:0:
281,40,77297,1,2,0:0:0:0:
297,46,77364,6,0,P|350:36|400:19,1,70,4|0,3:0|0:0,0:0:0:0:
242,158,77564,2,0,P|193:150|145:111,1,70,8|4,0:0|3:0,0:0:0:0:
169,284,77764,5,0,0:0:0:0:
169,284,77864,2,0,P|181:323|185:377,1,70,8|8,0:0|0:0,0:0:0:0:
338,188,78064,1,8,0:0:0:0:
338,188,78164,2,0,P|326:149|322:95,1,70,4|0,3:0|0:0,0:0:0:0:
175,140,78364,5,4,3:0:0:0:
175,140,78464,1,0,0:0:0:0:
175,140,78564,2,0,P|98:115|86:43,1,140,8|2,3:0|0:0,0:0:0:0:
142,14,78864,5,2,0:0:0:0:
205,16,78964,1,2,0:0:0:0:
234,52,79064,1,2,0:0:0:0:
228,78,79164,2,0,P|200:186|181:314,1,210,6|0,1:0|0:0,0:0:0:0:
164,356,79564,6,0,B|120:335|120:335|108:287,1,70,0|0,1:0|0:0,0:0:0:0:
53,177,79764,2,0,P|93:167|126:156,1,70
273,237,79964,1,2,1:0:0:0:
297,265,80064,1,0,1:0:0:0:
348,253,80164,1,0,1:0:0:0:
370,199,80264,2,0,P|356:157|331:120,1,70,2|0,1:0|0:0,0:0:0:0:
214,2,80464,6,0,B|194:26|194:26|204:84,1,70,2|0,1:0|0:0,0:0:0:0:
192,143,80664,1,0,1:0:0:0:
192,143,80764,2,0,B|249:151|292:99|256:93|295:45|371:58,1,210,2|0,1:0|0:0,0:0:0:0:
464,27,81164,6,0,P|452:64|442:129,1,70,0|0,1:0|0:0,0:0:0:0:
294,203,81364,2,0,P|314:233|327:268,1,70,0|0,0:0|1:0,0:0:0:0:
444,341,81564,1,0,0:0:0:0:
479,343,81664,1,0,1:0:0:0:
507,299,81764,1,0,1:0:0:0:
485,244,81864,1,0,1:0:0:0:
404,237,81964,5,0,1:0:0:0:
404,237,82064,2,0,P|410:197|414:158,1,70,8|8,0:0|0:0,0:0:0:0:
108,237,82264,1,0,1:0:0:0:
108,237,82364,2,0,P|102:197|98:158,1,70,8|8,0:0|0:0,0:0:0:0:
403,54,82564,5,0,1:0:0:0:
403,54,82664,2,0,P|374:78|359:134,1,70,8|8,0:0|0:0,0:0:0:0:
109,54,82864,1,0,1:0:0:0:
109,54,82964,2,0,P|138:78|153:134,1,70,8|8,0:0|0:0,0:0:0:0:
377,311,83164,5,0,1:0:0:0:
377,311,83264,2,0,P|338:289|279:277,1,70,8|8,0:0|0:0,0:0:0:0:
135,311,83464,1,0,1:0:0:0:
135,311,83564,2,0,P|174:289|233:277,1,70,8|8,0:0|0:0,0:0:0:0:
258,88,83764,6,0,P|251:137|255:227,1,140,0|0,1:0|3:0,0:0:0:0:
314,281,84064,1,2,3:0:0:0:
354,276,84164,1,2,3:0:0:0:
388,245,84264,1,2,3:0:0:0:
404,190,84364,1,2,3:0:0:0:
357,126,84464,6,0,P|400:116|447:96,1,70,0|0,1:0|0:0,0:0:0:0:
258,88,84664,2,0,P|214:61|213:10,1,70,8|0,0:0|0:0,0:0:0:0:
255,227,84864,6,0,P|217:255|197:304,1,70,0|0,1:0|0:0,0:0:0:0:
76,256,85064,2,0,P|106:290|121:323,1,70,8|0,0:0|0:0,0:0:0:0:
189,350,85264,5,0,1:0:0:0:
187,174,85464,1,8,0:0:0:0:
149,124,85564,1,8,0:0:0:0:
157,69,85664,1,8,0:0:0:0:
194,43,85764,1,8,0:0:0:0:
228,54,85864,1,8,0:0:0:0:
234,73,85964,5,2,1:0:0:0:
215,103,86064,1,0,0:0:0:0:
167,114,86164,1,2,1:0:0:0:
122,85,86264,1,0,0:0:0:0:
95,16,86364,2,0,B|67:116|81:173|81:173|63:139|35:136,1,210,2|0,1:0|0:0,0:0:0:0:
10,205,86764,6,0,P|26:237|72:263,1,70,0|0,1:0|0:0,0:0:0:0:
124,350,86964,2,0,P|162:321|210:305,1,70
270,185,87164,1,2,1:0:0:0:
298,161,87264,1,0,1:0:0:0:
286,110,87364,1,0,1:0:0:0:
232,88,87465,2,0,P|199:102|166:114,1,70,2|0,1:0|0:0,0:0:0:0:
231,252,87664,6,0,P|269:275|297:311,1,70,2|0,1:0|0:0,0:0:0:0:
436,286,87864,1,0,1:0:0:0:
436,286,87964,2,0,B|379:278|336:330|372:336|333:384|257:371,1,210,2|0,1:0|1:0,0:0:0:0:
286,293,88364,6,0,P|285:264|321:210,1,70,0|0,1:0|0:0,0:0:0:0:
374,97,88564,2,0,P|412:116|482:122,1,70,0|0,0:0|1:0,0:0:0:0:
200,155,88764,1,0,0:0:0:0:
169,175,88864,1,0,1:0:0:0:
123,151,88964,1,0,1:0:0:0:
116,93,89064,1,0,1:0:0:0:
43,45,89164,5,0,1:0:0:0:
43,45,89264,2,0,P|38:93|31:149,1,70,8|8,0:0|0:0,0:0:0:0:
43,339,89464,1,0,1:0:0:0:
43,339,89564,2,0,P|38:290|31:234,1,70,8|8,0:0|0:0,0:0:0:0:
260,66,89764,5,0,1:0:0:0:
260,66,89863,2,0,P|256:100|252:135,1,70,8|8,0:0|0:0,0:0:0:0:
260,322,90064,1,0,1:0:0:0:
260,322,90163,2,0,P|256:287|252:252,1,70,8|8,0:0|0:0,0:0:0:0:
464,78,90364,5,0,1:0:0:0:
464,78,90463,2,0,P|460:112|456:147,1,70,8|8,0:0|0:0,0:0:0:0:
464,304,90664,1,0,1:0:0:0:
464,304,90764,2,0,P|460:269|454:235,1,70,8|8,0:0|0:0,0:0:0:0:
335,172,90964,6,0,P|250:191|151:214,1,140,0|0,1:0|3:0,0:0:0:0:
131,245,91264,1,2,3:0:0:0:
91,240,91364,1,2,3:0:0:0:
57,209,91464,1,2,3:0:0:0:
41,154,91564,1,2,3:0:0:0:
88,90,91664,6,0,P|45:80|-2:60,1,70,0|0,1:0|0:0,0:0:0:0:
177,15,91864,2,0,P|199:33|198:93,1,70,8|0,0:0|0:0,0:0:0:0:
198,202,92064,6,0,P|164:242|162:300,1,70,0|0,1:0|0:0,0:0:0:0:
8,305,92264,2,0,P|41:311|79:337,1,70,8|0,0:0|0:0,0:0:0:0:
154,333,92464,5,0,1:0:0:0:
107,167,92664,1,8,0:0:0:0:
69,117,92764,1,8,0:0:0:0:
77,62,92864,1,8,0:0:0:0:
114,36,92964,1,8,0:0:0:0:
148,47,93064,1,8,0:0:0:0:
154,66,93164,5,0,3:0:0:0:
145,95,93264,1,4,3:0:0:0:
163,131,93364,1,0,0:0:0:0:
207,147,93464,1,4,3:0:0:0:
247,115,93564,1,0,0:0:0:0:
279,63,93664,1,0,3:0:0:0:
346,30,93764,5,8,3:0:0:0:
355,33,93830,1,8,3:0:0:0:
360,41,93897,1,8,3:0:0:0:
372,57,93964,6,0,P|358:88|349:162,2,70,10|0|0,3:0|1:0|0:0,0:0:0:0:
483,73,94264,2,0,P|464:29|456:-15,1,70,8|0,1:0|0:0,0:0:0:0:
442,169,94464,6,0,P|389:193|364:221,1,70,0|0,1:0|0:0,0:0:0:0:
354,353,94664,2,0,P|308:335|282:291,1,70,8|0,1:0|0:0,0:0:0:0:
320,249,94864,5,0,1:0:0:0:
133,151,95064,1,8,0:0:0:0:
74,175,95164,1,8,0:0:0:0:
54,226,95264,1,8,0:0:0:0:
73,267,95364,1,8,0:0:0:0:
107,275,95464,1,8,0:0:0:0:
120,263,95564,5,8,0:0:0:0:
181,216,95664,2,0,P|221:222|260:229,1,70,0|0,1:0|0:0,0:0:0:0:
103,42,95864,2,0,P|83:49|26:75,1,70,8|0,1:0|0:0,0:0:0:0:
281,16,96064,6,0,P|271:45|259:116,1,70,0|0,1:0|0:0,0:0:0:0:
98,202,96264,2,0,P|88:167|67:130,1,70,8|0,1:0|0:0,0:0:0:0:
196,137,96464,5,0,1:0:0:0:
368,320,96664,1,8,1:0:0:0:
427,296,96764,1,8,1:0:0:0:
447,245,96864,1,8,1:0:0:0:
428,204,96964,1,8,1:0:0:0:
394,196,97064,1,8,1:0:0:0:
381,208,97164,6,4,P|389:119|396:89,1,70,4|0,3:0|0:0,3:0:0:0:
269,70,97364,1,0,3:0:0:0:
207,112,97464,2,0,P|122:74|120:31,1,140,8|0,3:0|0:0,0:0:0:0:
44,93,97764,6,0,P|33:126|23:186,2,70,8|0|2,3:0|0:0|0:3,0:0:0:0:
207,112,98064,2,0,P|215:181|228:258,1,140,4|4,3:0|3:0,0:0:0:0:
190,322,98364,5,4,3:0:0:0:
153,335,98464,1,8,3:0:0:0:
109,318,98564,1,8,3:0:0:0:
88,270,98664,1,8,3:0:0:0:
131,206,98764,5,10,3:0:0:0:
182,181,98864,1,10,3:0:0:0:
197,143,98964,1,10,3:0:0:0:
186,117,99064,1,10,3:0:0:0:
174,109,99164,6,0,B|151:108|141:94|141:94|177:191|276:191,1,210,2|0,1:0|0:0,0:0:0:0:
347,212,99564,6,0,B|358:193|358:193|333:148,5,46.6666666666667,2|2|2|2|2|2,3:2|3:2|3:2|3:2|3:2|3:2,0:0:0:0:
336,226,99964,6,0,P|364:235|434:257,2,70,8|8|8,1:0|1:0|1:0,0:0:0:0:
270,271,100264,1,8,1:0:0:0:
122,313,100464,1,8,1:0:0:0:
270,271,100664,1,8,1:0:0:0:
196,293,100764,5,14,1:0:0:0:
