osu file format v14

[General]
AudioFilename: audio.mp3
AudioLeadIn: 0
PreviewTime: 50564
Countdown: 0
SampleSet: None
StackLeniency: 0.7
Mode: 0
LetterboxInBreaks: 0
WidescreenStoryboard: 1

[Editor]
Bookmarks: 764,15164,29164,36364,50764,78764,100764
DistanceSpacing: 1.8
BeatDivisor: 4
GridSize: 32
TimelineZoom: 2.299999

[Metadata]
Title:Blue Forest (Prog Keys Remix)
TitleUnicode:Blue Forest (Prog Keys Remix)
Artist:Toromaru
ArtistUnicode:とろまる
Creator:Allice
Version:ADVANCED
Source:SOUND VOLTEX VIVID WAVE
Tags:mynt knightcore knightc0re down celektus calliecube obamacube smokebloke electronic jazz videogame game instrumental BEMANI Song Remix Contest~2019~楽曲リミックスコンテスト SOUND VOLTEX III GRAVITY WARS コナステ SDVX GW VW cc22 hr3 qf corsace closed hard rock three quarter finals Mutsuhiko Izumi 泉陸奥彦
BeatmapID:3612214
BeatmapSetID:1764721

[Difficulty]
HPDrainRate:4
CircleSize:3
OverallDifficulty:6.5
ApproachRate:7.5
SliderMultiplier:1.4
SliderTickRate:1

[Events]
//Background and Video events
0,0,"blueforest.jpg",0,0
//Break Periods
2,97064,97939
//Storyboard Layer 0 (Background)
//Storyboard Layer 1 (Fail)
//Storyboard Layer 2 (Pass)
//Storyboard Layer 3 (Foreground)
//Storyboard Layer 4 (Overlay)
//Storyboard Sound Samples

[TimingPoints]
-1036,400,5,2,0,70,1,0
764,400,5,2,0,70,1,0
2564,400,5,2,0,70,1,0
4364,400,5,2,0,70,1,0
6164,400,5,2,0,70,1,0
7964,400,5,2,0,70,1,0
9764,400,5,2,0,70,1,0
11564,400,5,2,0,70,1,0
13364,400,5,2,0,70,1,0
15164,400,7,2,0,70,1,0
17964,400,4,2,0,70,1,0
29164,400,5,2,0,70,1,0
30964,400,5,2,0,70,1,0
32764,400,5,2,0,70,1,0
34564,400,5,2,0,70,1,0
36364,400,4,2,0,70,1,1
39564,400,5,2,0,70,1,1
43564,400,4,2,0,70,1,1
46764,400,5,2,0,70,1,1
52564,400,5,2,0,70,1,0
54364,400,5,2,0,70,1,0
56164,400,5,2,0,70,1,0
57964,400,5,2,0,70,1,0
59764,400,5,2,0,70,1,0
61564,400,5,2,0,70,1,0
63364,400,5,2,0,70,1,0
65164,400,7,2,0,70,1,0
67964,400,4,2,0,70,1,0
78764,400,4,2,0,70,1,0
79164,-100,4,2,0,70,0,1
81964,400,5,2,0,70,1,1
85964,400,4,2,0,70,1,1
89164,400,5,2,0,70,1,1
93164,400,4,2,0,70,1,0
94064,-100,4,2,0,70,0,1
97164,-100,4,2,0,70,0,0
98764,400,5,2,0,70,1,0

[Colours]
Combo1 : 0,149,89
Combo2 : 0,168,168
Combo3 : 18,124,255
Combo4 : 0,230,132

[HitObjects]
37,260,764,6,0,P|49:214|104:145,1,105,4|2,1:2|0:0,0:0:0:0:
80,166,1164,1,8,0:0:0:0:
191,224,1364,2,0,L|202:313,1,70,0|2,1:0|0:0,0:0:0:0:
319,348,1764,5,2,0:3:0:0:
319,348,1864,2,0,L|335:226,1,105,2|0,0:3|0:0,0:0:0:0:
448,192,2364,1,2,0:3:0:0:
348,114,2564,6,0,P|303:53|332:-6,1,140,0|8,1:0|0:0,0:0:0:0:
451,5,3164,1,2,0:0:0:0:
451,5,3264,2,0,P|464:56|450:88,1,70,0|0,1:0|1:0,0:0:0:0:
307,212,3764,6,0,L|342:219,5,35,2|2|2|2|2|2,3:2|3:2|3:2|3:2|3:2|3:2,0:0:0:0:
341,218,4364,6,0,P|360:295|425:354,1,140,4|8,1:2|0:0,0:0:0:0:
500,262,4964,2,0,P|475:200|456:182,1,70,8|2,0:0|0:0,0:0:0:0:
387,105,5364,1,2,0:3:0:0:
387,105,5464,2,0,B|330:89|341:130|282:114,1,105,8|0,0:0|0:0,0:0:0:0:
189,32,5964,5,2,0:3:0:0:
189,32,6064,1,2,0:3:0:0:
189,32,6164,2,0,P|113:48|52:108,1,140,0|8,1:0|0:0,0:0:0:0:
7,199,6764,1,0,0:0:0:0:
7,199,6864,2,0,L|136:219,1,105,0|0,1:0|3:0,0:0:0:0:
193,310,7364,6,0,L|192:275,5,35,2|2|2|2|2|2,3:2|3:2|3:2|3:2|3:2|3:2,0:0:0:0:
192,275,7964,6,0,L|334:254,1,140,4|8,1:2|0:0,0:0:0:0:
436,323,8564,1,0,1:0:0:0:
491,209,8764,2,0,P|467:160|434:126,1,70,0|8,0:0|0:0,0:0:0:0:
464,104,9064,1,8,0:0:0:0:
464,104,9164,2,0,P|420:83|386:82,1,70,8|8,0:0|0:0,0:0:0:0:
298,4,9564,1,8,0:0:0:0:
258,123,9764,6,0,L|272:253,1,105,0|0,1:0|0:0,0:0:0:0:
240,259,10164,2,0,P|278:309|284:364,1,105,0|0,3:0|3:2,0:0:0:0:
289,384,10564,2,0,P|313:338|347:317,1,70,2|2,3:2|3:2,0:0:0:0:
448,292,10964,1,2,3:2:0:0:
378,187,11164,6,0,L|386:133,3,35,8|8|8|8,0:0|0:0|0:0|0:0,0:0:0:0:
383,152,11564,6,0,B|329:141|343:186|286:175,1,105,4|2,1:2|0:0,0:0:0:0:
252,197,11964,2,0,L|169:188,1,70,8|8,0:0|0:0,0:0:0:0:
82,266,12364,1,2,3:0:0:0:
82,266,12464,1,8,0:0:0:0:
6,165,12664,2,0,P|12:105|44:62,1,105,8|8,0:0|0:0,0:0:0:0:
158,36,13164,1,2,3:0:0:0:
223,145,13364,6,0,B|265:133|276:182|322:171,1,105,0|0,1:0|0:0,0:0:0:0:
374,166,13764,5,8,0:1:0:0:
374,166,13864,1,8,0:1:0:0:
374,166,13964,1,8,0:1:0:0:
374,166,14064,1,8,0:1:0:0:
374,166,14164,6,0,L|363:217,3,35,8|8|8|8,0:0|0:0|0:0|0:0,0:0:0:0:
375,244,14564,2,0,L|364:295,4,35,4|0|8|8|8,0:3|0:0|0:3|0:3|0:3,0:0:0:0:
300,379,15164,6,0,P|270:322|204:258,1,140,0|2,1:0|0:3,0:0:0:0:
89,296,15764,2,0,P|119:239|185:175,1,140,0|2,1:0|0:3,0:0:0:0:
293,212,16364,6,0,P|263:155|197:91,1,140,0|2,1:0|0:3,0:0:0:0:
88,132,16964,2,0,P|118:75|184:11,1,140,0|2,1:0|0:3,0:0:0:0:
291,58,17564,1,8,1:0:0:0:
411,21,17764,1,8,1:0:0:0:
501,109,17964,6,0,L|459:245,1,140,0|2,1:0|0:3,0:0:0:0:
408,357,18564,2,0,L|366:221,1,140,0|2,1:0|0:3,0:0:0:0:
307,112,19164,6,0,L|265:248,1,140,0|2,1:0|0:3,0:0:0:0:
214,360,19764,2,0,L|172:224,1,140,0|2,1:0|0:3,0:0:0:0:
49,254,20364,1,8,1:0:0:0:
12,133,20564,1,8,1:0:0:0:
132,96,20764,1,8,1:0:0:0:
132,96,20864,1,8,1:0:0:0:
132,96,20964,1,8,1:0:0:0:
220,5,21164,6,0,P|267:69|266:106,1,105,2|8,1:2|0:0,0:0:0:0:
268,91,21564,1,8,0:0:0:0:
391,117,21764,1,2,1:2:0:0:
311,215,21964,2,0,L|305:258,2,35,8|8|8,0:0|0:0|0:0,0:0:0:0:
192,170,22364,6,0,P|130:219|121:255,1,105,2|8,1:2|0:0,0:0:0:0:
123,240,22764,1,8,0:0:0:0:
0,233,22964,1,2,1:2:0:0:
49,349,23164,2,0,L|43:392,2,35,8|8|8,0:0|0:0|0:0,0:0:0:0:
174,351,23564,6,0,L|270:336,1,70,2|8,1:2|0:0,0:0:0:0:
367,321,23964,1,8,1:0:0:0:
367,321,24064,1,2,0:0:0:0:
367,321,24164,1,8,1:0:0:0:
478,379,24364,6,0,P|504:341|505:227,1,140,8|10,1:2|0:0,0:0:0:0:
453,137,24964,1,2,1:2:0:0:
329,162,25164,1,10,0:0:0:0:
329,162,25264,1,10,0:0:0:0:
329,162,25364,1,10,0:0:0:0:
241,71,25564,6,0,P|249:32|279:-4,2,70,2|10|10,1:2|0:0|0:0,0:0:0:0:
175,179,26164,2,0,P|189:227|208:249,1,70,2|8,1:2|0:0,0:0:0:0:
300,320,26564,6,0,L|297:361,4,35,10|10|10|10|10,1:0|1:0|1:0|1:0|1:0,0:0:0:0:
63,126,27564,6,0,L|60:167,1,35,4|4,1:3|1:3,0:0:0:0:
161,84,27864,2,0,L|158:125,1,35,4|4,1:3|1:3,0:0:0:0:
144,249,28164,6,0,L|141:208,1,35,2|2,3:0|3:0,3:0:0:0:
141,214,28364,2,0,B|230:169|246:292|352:246,1,210,8|8,0:3|0:0,0:0:0:0:
460,230,29164,5,2,1:2:0:0:
73,106,30964,5,2,1:2:0:0:
296,32,31864,5,2,1:2:0:0:
191,366,33164,5,2,1:2:0:0:
377,89,34664,5,2,1:2:0:0:
227,137,35164,5,2,1:2:0:0:
127,19,35564,6,8,P|97:48|81:89,1,70,8|8,0:3|0:3,0:3:0:0:
9,174,35964,2,0,P|24:218|44:245,1,70,8|8,0:0|0:0,0:0:0:0:
108,366,36364,5,2,1:0:0:0:
108,366,36464,1,0,0:0:0:0:
108,366,36564,1,2,1:0:0:0:
108,366,36664,1,0,0:0:0:0:
108,366,36764,2,0,P|135:338|203:320,1,105,2|0,1:0|0:0,0:0:0:0:
197,319,37164,1,0,1:0:0:0:
430,225,37564,6,0,P|458:241|485:241,2,35,2|0|0,1:0|1:0|1:0,0:0:0:0:
387,231,37864,2,0,P|357:204|350:158,1,70,2|2,1:0|1:0,0:0:0:0:
292,75,38264,1,0,1:0:0:0:
292,75,38364,2,0,P|262:102|246:175,1,105,2|0,1:0|0:0,0:0:0:0:
244,162,38764,2,0,P|180:187|96:156,1,140,0|0,1:0|0:0,0:0:0:0:
51,60,39364,5,0,1:0:0:0:
51,60,39464,1,0,1:0:0:0:
51,60,39564,2,0,B|90:21|90:21|139:29,1,105,0|0,1:0|1:0,0:0:0:0:
327,14,40164,6,0,B|366:53|366:53|357:102,1,105,0|0,1:0|1:0,0:0:0:0:
399,286,40764,6,0,B|360:325|360:325|310:316,1,105,0|0,1:0|1:0,0:0:0:0:
128,366,41364,6,0,B|86:281|168:270|116:176,1,175,0|2,1:0|3:0,0:0:0:0:
103,161,41964,1,2,3:0:0:0:
103,161,42064,6,0,L|198:178,1,70,0|8,1:0|0:0,0:0:0:0:
297,164,42464,2,0,L|284:232,1,70,0|8,1:0|0:0,0:0:0:0:
259,356,42864,1,0,1:0:0:0:
383,377,43064,6,0,B|435:335|370:283|425:246,1,140,8|8,0:0|0:0,0:0:0:0:
472,272,43564,5,2,1:0:0:0:
472,272,43664,1,0,0:0:0:0:
472,272,43764,1,2,1:0:0:0:
472,272,43864,1,0,0:0:0:0:
472,272,43964,2,0,L|448:146,1,105,2|0,1:0|0:0,0:0:0:0:
452,168,44364,1,0,1:0:0:0:
324,57,44664,5,0,0:0:0:0:
324,57,44764,2,0,P|261:47|227:54,1,70,2|0,1:0|1:0,0:0:0:0:
213,8,45064,2,0,L|207:100,1,70,2|2,1:0|1:0,0:0:0:0:
119,166,45464,1,0,1:0:0:0:
119,166,45564,2,0,L|110:57,1,105,2|0,1:0|0:0,0:0:0:0:
110,61,45964,2,0,P|49:81|21:178,1,140,0|0,1:0|0:0,0:0:0:0:
22,271,46564,5,0,1:0:0:0:
22,271,46664,1,0,1:0:0:0:
22,271,46764,2,0,B|75:259|75:259|131:309,1,105,0|0,1:0|1:0,0:0:0:0:
268,185,47364,6,0,B|231:145|231:145|246:71,1,105,0|0,1:0|1:0,0:0:0:0:
422,38,47964,6,0,B|458:77|458:77|443:151,1,105,0|0,1:0|1:0,0:0:0:0:
511,306,48564,6,0,B|430:259|434:362|336:318,1,175,0|2,1:0|3:0,0:0:0:0:
305,360,49164,1,2,3:0:0:0:
305,360,49264,6,0,L|295:282,1,70,0|8,1:0|0:0,0:0:0:0:
309,164,49664,2,0,L|231:174,1,70,0|8,1:0|0:0,0:0:0:0:
114,193,50064,1,0,1:0:0:0:
11,119,50264,6,0,P|68:71|156:73,1,140,8|0,0:0|1:0,0:0:0:0:
189,5,50764,6,0,P|192:64|278:101,1,140,4|2,1:2|3:0,0:0:0:0:
372,53,51364,1,0,1:0:0:0:
455,155,51564,1,2,3:0:0:0:
455,155,51664,2,0,L|451:249,1,70,0|0,1:0|1:0,0:0:0:0:
446,261,51964,2,0,P|420:284|386:289,1,70,0|2,0:0|1:3,0:0:0:0:
285,235,52364,5,8,0:0:0:0:
285,235,52464,1,2,0:3:0:0:
285,235,52564,2,0,L|268:369,1,105,2|0,1:3|1:0,0:0:0:0:
234,368,52964,2,0,L|100:351,1,105,0|2,1:0|3:0,0:0:0:0:
89,384,53364,1,2,3:0:0:0:
22,290,53564,5,2,3:0:0:0:
22,290,53664,1,0,3:0:0:0:
22,290,53764,1,0,3:0:0:0:
74,175,53964,1,0,3:0:0:0:
201,227,54164,5,2,3:0:0:0:
201,227,54264,1,0,0:0:0:0:
201,227,54364,2,0,L|284:199,1,70,4|2,1:2|1:3,0:0:0:0:
389,234,54764,2,0,L|421:128,1,105,0|2,1:0|3:0,0:0:0:0:
462,113,55164,1,2,1:3:0:0:
372,24,55364,6,0,P|328:30|306:50,1,70,2|2,3:0|3:0,0:0:0:0:
284,82,55664,2,0,P|240:90|213:79,1,70,0|0,1:0|0:0,0:0:0:0:
181,64,55964,1,0,1:0:0:0:
72,0,56164,6,0,L|68:43,1,35,8|0,0:0|1:0,0:0:0:0:
21,151,56464,2,0,L|39:274,1,105,0|8,1:0|0:0,0:0:0:0:
66,286,56864,2,0,L|57:360,1,70,0|0,1:0|1:0,0:0:0:0:
172,307,57264,6,0,B|283:255|289:376|371:350,1,210,8|8,3:0|3:0,0:0:0:0:
406,375,57964,6,0,L|414:297,1,70,4|0,1:2|0:0,0:0:0:0:
456,287,58264,1,0,1:0:0:0:
498,168,58464,1,0,1:0:0:0:
395,94,58664,1,0,1:0:0:0:
294,169,58864,6,0,B|216:185,1,70,0|0,1:0|0:0,0:0:0:0:
190,211,59164,2,0,B|112:195,1,70,2|2,3:0|3:0,0:0:0:0:
39,101,59564,5,0,1:2:0:0:
39,101,59664,1,0,0:0:0:0:
39,101,59764,2,0,P|80:39|167:30,2,140,8|8|8,0:0|0:0|0:0,0:0:0:0:
157,329,60964,1,8,0:0:0:0:
157,329,61064,1,0,1:0:0:0:
273,377,61264,2,0,P|320:349|336:310,1,70,0|0,1:0|0:0,0:0:0:0:
327,337,61564,6,0,L|307:177,1,140,8|0,0:0|1:0,0:0:0:0:
382,96,62164,1,2,3:3:0:0:
382,96,62264,2,0,L|394:17,1,70,0|0,1:0|1:0,0:0:0:0:
501,89,62664,5,0,0:0:0:0:
501,89,62764,2,0,L|507:141,3,35,8|0|8|0,3:0|3:0|3:0|3:0,0:0:0:0:
490,162,63164,2,0,L|496:214,1,35,8|0,3:0|1:0,0:0:0:0:
413,293,63464,1,0,1:0:0:0:
297,242,63664,2,0,P|293:197|259:142,1,105,0|8,1:0|3:0,0:0:0:0:
266,104,64064,1,8,3:0:0:0:
266,104,64164,2,0,P|216:79|171:77,1,70,8|4,3:0|3:0,0:0:0:0:
87,25,64564,2,0,P|38:52|10:87,1,70,8|10,0:0|0:0,0:0:0:0:
14,195,64964,5,10,0:0:0:0:
14,195,65064,1,10,0:0:0:0:
14,195,65164,2,0,L|42:359,1,140,0|2,1:0|3:0,0:0:0:0:
153,381,65764,2,0,L|176:242,1,140,0|2,1:0|3:0,0:0:0:0:
273,163,66364,2,0,L|296:24,1,140,0|2,1:0|3:0,0:0:0:0:
412,73,66964,2,0,L|435:211,1,140,0|2,1:0|3:0,0:0:0:0:
509,312,67564,1,0,1:0:0:0:
404,382,67764,1,0,1:0:0:0:
327,282,67964,6,0,P|268:262|167:252,1,140,0|0,1:0|0:0,0:0:0:0:
69,283,68564,2,0,P|88:224|98:123,1,140,0|0,1:0|0:0,0:0:0:0:
77,23,69164,2,0,P|136:43|237:53,1,140,0|0,1:0|0:0,0:0:0:0:
335,22,69764,2,0,P|315:81|305:182,1,140,2|2,1:0|1:0,0:0:0:0:
382,257,70364,1,2,1:0:0:0:
496,203,70564,1,2,1:0:0:0:
440,90,70764,5,10,1:0:0:0:
440,90,70864,1,10,1:0:0:0:
440,90,70964,1,10,1:0:0:0:
440,90,71064,1,10,1:0:0:0:
440,90,71164,2,0,P|374:114|289:113,1,140,2|2,1:3|1:3,3:0:0:0:
63,189,71964,2,0,P|129:165|214:166,1,140,2|2,1:3|1:3,0:0:0:0:
406,306,72764,6,2,L|497:325,2,70,2|2|2,1:0|1:0|1:0,0:0:0:0:
297,370,73364,1,2,1:0:0:0:
215,273,73564,6,0,L|146:287,2,70,10|10|10,1:0|1:0|1:0,0:0:0:0:
290,172,74164,1,10,1:0:0:0:
230,60,74364,6,0,P|194:11|161:0,1,70,2|2,1:3|3:0,0:0:0:0:
99,98,74764,2,0,P|38:93|8:112,1,70,2|2,1:3|3:0,0:0:0:0:
43,221,75164,2,0,P|1:264|-3:299,1,70,2|2,1:3|3:0,0:0:0:0:
82,367,75564,2,0,P|135:366|189:319,1,105,2|0,1:3|0:0,0:0:0:0:
217,323,75964,5,0,1:0:0:0:
217,323,76064,1,0,0:0:0:0:
217,323,76164,1,8,0:0:0:0:
217,323,76264,1,0,1:0:0:0:
325,338,76464,5,2,3:0:0:0:
325,338,76564,2,0,L|381:323,4,35,10|10|10|10|10,1:0|1:0|1:0|1:0|1:0,0:0:0:0:
256,192,77364,12,8,78564,3:0:0:0:
86,0,79164,6,0,P|17:99|3:190,1,210,6|0,1:0|0:0,0:0:0:0:
64,295,79964,6,0,L|68:336,2,35,2|0|0,1:0|1:0|1:0,0:0:0:0:
95,265,80264,2,0,P|133:270|178:299,1,70,2|2,1:0|1:0,0:0:0:0:
262,358,80664,1,0,1:0:0:0:
262,358,80764,2,0,P|316:343|356:305,1,105,2|0,1:0|0:0,0:0:0:0:
351,311,81164,2,0,P|297:247|238:232,1,140,0|0,1:0|0:0,0:0:0:0:
229,115,81764,5,0,1:0:0:0:
229,115,81864,1,0,1:0:0:0:
229,115,81964,2,0,B|223:60|223:60|270:24,1,105,0|0,1:0|1:0,0:0:0:0:
439,100,82564,6,0,B|444:154|444:154|397:190,1,105,0|0,1:0|1:0,0:0:0:0:
303,345,83164,6,0,B|248:350|248:350|212:303,1,105,0|0,1:0|1:0,0:0:0:0:
39,372,83764,6,0,B|-3:283|81:279|45:179,1,175,0|2,1:0|3:0,0:0:0:0:
23,165,84364,1,2,3:0:0:0:
23,165,84464,6,0,L|110:176,1,70,0|8,1:0|0:0,0:0:0:0:
205,228,84864,2,0,L|216:141,1,70,0|8,1:0|0:0,0:0:0:0:
231,33,85264,1,0,1:0:0:0:
353,3,85464,6,0,P|403:13|443:110,1,140,8|8,0:0|0:0,0:0:0:0:
436,126,85964,5,2,1:0:0:0:
436,126,86064,1,0,0:0:0:0:
436,126,86164,1,2,1:0:0:0:
436,126,86264,1,0,0:0:0:0:
436,126,86364,2,0,P|391:167|397:239,1,105,2|0,1:0|0:0,0:0:0:0:
385,208,86764,1,0,1:0:0:0:
278,365,87064,5,0,0:0:0:0:
278,365,87164,2,0,P|243:341|205:344,1,70,2|0,1:0|1:0,0:0:0:0:
174,370,87464,2,0,L|163:275,1,70,2|2,1:0|1:0,0:0:0:0:
59,242,87864,1,0,1:0:0:0:
59,242,87964,2,0,L|73:109,1,105,2|0,1:0|1:0,0:0:0:0:
70,137,88364,2,0,P|131:117|208:163,1,140,0|0,1:0|0:0,0:0:0:0:
300,73,88964,5,0,1:0:0:0:
300,73,89064,1,0,1:0:0:0:
300,73,89164,2,0,B|353:66|353:66|396:103,1,105,0|0,1:0|1:0,0:0:0:0:
382,288,89764,6,0,B|389:341|389:341|355:380,1,105,0|0,1:0|1:0,0:0:0:0:
173,326,90364,6,0,B|166:273|166:273|199:233,1,105,0|0,1:0|1:0,0:0:0:0:
300,73,90964,6,0,B|208:44|219:128|127:95,1,175,0|2,1:0|3:0,0:0:0:0:
97,59,91564,1,2,3:0:0:0:
97,59,91664,6,0,L|91:130,1,70,0|8,1:0|0:0,0:0:0:0:
41,244,92064,2,0,L|112:250,1,70,0|8,1:0|0:0,0:0:0:0:
236,261,92464,1,0,1:0:0:0:
338,188,92664,6,0,B|407:246|333:283|388:346,1,175,8|0,0:0|3:0,0:0:0:0:
478,44,93964,5,10,3:0:0:0:
478,44,94064,1,0,1:0:0:0:
359,0,94264,1,8,1:0:0:0:
398,119,94464,1,0,1:0:0:0:
272,127,94664,1,8,1:0:0:0:
333,237,94864,2,0,P|371:313|373:373,1,140,0|8,1:0|0:0,0:0:0:0:
189,360,95564,5,8,0:0:0:0:
189,360,95664,1,0,1:0:0:0:
112,259,95864,1,8,1:0:0:0:
234,231,96064,1,0,1:0:0:0:
216,106,96264,1,8,1:0:0:0:
325,43,96464,2,0,P|381:55|456:123,1,140,0|8,1:0|1:0,0:0:0:0:
442,325,98764,5,10,3:0:0:0:
442,325,98864,1,10,3:0:0:0:
442,325,98964,1,10,3:0:0:0:
442,325,99064,1,10,3:0:0:0:
442,325,99164,2,0,P|470:248|439:41,1,280,2|8,1:0|1:0,0:0:0:0:
289,160,100264,2,0,L|211:144,1,70,8|8,1:0|1:0,0:0:0:0:
131,234,100664,1,8,1:0:0:0:
131,234,100764,1,14,1:0:0:0:
