osu file format v14

[General]
AudioFilename: audio.mp3
AudioLeadIn: 0
PreviewTime: 84171
Countdown: 1
SampleSet: None
StackLeniency: 0.3
Mode: 0
LetterboxInBreaks: 0
WidescreenStoryboard: 0

[Editor]
Bookmarks: 5757,18998,32240,45481,58723,71964,85205,111688,124929,138171,151412,164654,177895,204378,217619,230860,244102,255688
DistanceSpacing: 0.5
BeatDivisor: 4
GridSize: 16
TimelineZoom: 1.7

[Metadata]
Title:Life is a game
TitleUnicode:Life is a game
Artist:Toriena x Nahomu Tamaki
ArtistUnicode:Toriena x Nahomu Tamaki
Creator:Ohwow
Version:>>>
Source:
Tags:No Game No Life
BeatmapID:1498108
BeatmapSetID:708664

[Difficulty]
HPDrainRate:5
CircleSize:4
OverallDifficulty:7
ApproachRate:9
SliderMultiplier:2.1
SliderTickRate:1

[Events]
//Background and Video events
0,0,"bg.jpg",0,0
//Break Periods
2,151612,164054
//Storyboard Layer 0 (Background)
//Storyboard Layer 1 (Fail)
//Storyboard Layer 2 (Pass)
//Storyboard Layer 3 (Foreground)
//Storyboard Sound Samples

[TimingPoints]
792,413.793103448276,4,2,1,30,1,0
5343,-100,4,2,1,5,0,0
5757,-125,4,2,1,60,0,0
31309,-125,4,2,1,5,0,0
31412,-125,4,2,1,60,0,0
66998,-111.111111111111,4,2,1,60,0,0
68654,-100,4,2,1,60,0,0
71860,-100,4,2,1,5,0,0
71964,-100,4,2,1,60,0,0
72792,-200,4,2,1,60,0,0
73205,-100,4,2,1,60,0,0
84378,-83.3333333333333,4,2,1,60,0,0
84481,-83.3333333333333,4,2,1,5,0,0
84585,-83.3333333333333,4,2,1,60,0,0
84688,-83.3333333333333,4,2,1,5,0,0
84792,-83.3333333333333,4,2,1,60,0,0
84895,-83.3333333333333,4,2,1,5,0,0
84998,-83.3333333333333,4,2,1,60,0,0
85102,-83.3333333333333,4,2,1,5,0,0
85205,-71.4285714285714,4,2,1,60,0,1
85619,-83.3333333333333,4,2,1,60,0,1
86033,-62.5,4,2,1,60,0,1
86343,-62.5,4,2,1,5,0,1
86447,-71.4285714285714,4,2,1,60,0,1
86860,-62.5,4,2,1,60,0,1
87688,-55.5555555555556,4,2,1,60,0,1
88516,-83.3333333333333,4,2,1,60,0,1
90171,-55.5555555555556,4,2,1,60,0,1
90998,-62.5,4,2,1,60,0,1
91826,-71.4285714285714,4,2,1,60,0,1
92654,-62.5,4,2,1,60,0,1
92964,-62.5,4,2,1,5,0,1
93067,-71.4285714285714,4,2,1,60,0,1
93481,-62.5,4,2,1,60,0,1
94309,-100,4,2,1,60,0,1
95136,-62.5,4,2,1,60,0,1
96792,-71.4285714285714,4,2,1,60,0,1
97619,-55.5555555555556,4,2,1,60,0,1
97929,-55.5555555555556,4,2,1,5,0,1
98033,-50,4,2,1,60,0,1
98343,-50,4,2,1,5,0,1
98447,-71.4285714285714,4,2,1,60,0,1
98860,-83.3333333333333,4,2,1,60,0,1
99274,-62.5,4,2,1,60,0,1
99585,-62.5,4,2,1,5,0,1
99688,-71.4285714285714,4,2,1,60,0,1
100102,-62.5,4,2,1,60,0,1
100929,-55.5555555555556,4,2,1,60,0,1
101757,-83.3333333333333,4,2,1,60,0,1
103412,-55.5555555555556,4,2,1,60,0,1
104240,-62.5,4,2,1,60,0,1
105067,-71.4285714285714,4,2,1,60,0,1
105895,-62.5,4,2,1,60,0,1
106205,-62.5,4,2,1,5,0,1
106309,-71.4285714285714,4,2,1,60,0,1
106723,-62.5,4,2,1,60,0,1
107550,-100,4,2,1,60,0,1
108378,-62.5,4,2,1,60,0,1
110447,-83.3333333333333,4,2,1,60,0,1
111688,-62.5,4,2,1,60,0,0
112516,-125,4,2,1,60,0,0
112929,-62.5,4,2,1,60,0,0
115619,-58.8235294117647,4,2,1,60,0,0
115826,-55.5555555555556,4,2,1,60,0,0
116033,-52.6315789473684,4,2,1,60,0,0
116240,-62.5,4,2,1,60,0,0
119136,-125,4,2,1,60,0,0
119550,-62.5,4,2,1,60,0,0
122860,-71.4285714285714,4,2,1,60,0,0
124929,-125,4,2,1,60,0,0
138171,-100,4,2,1,60,0,0
174998,-100,4,2,1,50,0,0
175412,-100,4,2,1,40,0,0
175826,-100,4,2,1,30,0,0
176240,-100,4,2,1,20,0,0
177067,-55.5555555555556,4,2,1,60,0,0
177377,-55.5555555555556,4,2,1,5,0,0
177481,-50,4,2,1,60,0,0
177585,-50,4,2,1,5,0,0
177688,-50,4,2,1,60,0,0
177895,-71.4285714285714,4,2,1,60,0,1
178309,-83.3333333333333,4,2,1,60,0,1
178723,-62.5,4,2,1,60,0,1
179033,-62.5,4,2,1,5,0,1
179136,-71.4285714285714,4,2,1,60,0,1
179550,-62.5,4,2,1,60,0,1
180378,-55.5555555555556,4,2,1,60,0,1
181205,-83.3333333333333,4,2,1,60,0,1
182860,-55.5555555555556,4,2,1,60,0,1
183688,-62.5,4,2,1,60,0,1
184516,-71.4285714285714,4,2,1,60,0,1
185343,-62.5,4,2,1,60,0,1
185654,-62.5,4,2,1,5,0,1
185757,-71.4285714285714,4,2,1,60,0,1
186171,-62.5,4,2,1,60,0,1
186998,-100,4,2,1,60,0,1
187826,-62.5,4,2,1,60,0,1
189481,-71.4285714285714,4,2,1,60,0,1
190309,-55.5555555555556,4,2,1,60,0,1
190619,-55.5555555555556,4,2,1,5,0,1
190723,-50,4,2,1,60,0,1
191033,-50,4,2,1,5,0,1
191136,-71.4285714285714,4,2,1,60,0,1
191550,-83.3333333333333,4,2,1,60,0,1
191964,-62.5,4,2,1,60,0,1
192274,-62.5,4,2,1,5,0,1
192378,-71.4285714285714,4,2,1,60,0,1
192792,-62.5,4,2,1,60,0,1
193619,-55.5555555555556,4,2,1,60,0,1
194447,-83.3333333333333,4,2,1,60,0,1
196102,-55.5555555555556,4,2,1,60,0,1
196929,-62.5,4,2,1,60,0,1
197757,-71.4285714285714,4,2,1,60,0,1
198585,-62.5,4,2,1,60,0,1
198895,-62.5,4,2,1,5,0,1
198998,-71.4285714285714,4,2,1,60,0,1
199412,-62.5,4,2,1,60,0,1
200240,-100,4,2,1,60,0,1
201067,-62.5,4,2,1,60,0,1
203136,-83.3333333333333,4,2,1,60,0,1
204378,-62.5,4,2,1,60,0,0
205205,-125,4,2,1,60,0,0
205619,-62.5,4,2,1,60,0,0
208309,-58.8235294117647,4,2,1,60,0,0
208516,-55.5555555555556,4,2,1,60,0,0
208723,-52.6315789473684,4,2,1,60,0,0
208929,-62.5,4,2,1,60,0,0
211826,-125,4,2,1,60,0,0
212240,-62.5,4,2,1,60,0,0
215550,-71.4285714285714,4,2,1,60,0,0
217619,-62.5,4,2,1,60,0,0
218447,-125,4,2,1,60,0,0
218860,-62.5,4,2,1,60,0,0
221550,-58.8235294117647,4,2,1,60,0,0
221757,-55.5555555555556,4,2,1,60,0,0
221964,-52.6315789473684,4,2,1,60,0,0
222171,-62.5,4,2,1,60,0,0
225067,-125,4,2,1,60,0,0
225481,-62.5,4,2,1,60,0,0
228792,-71.4285714285714,4,2,1,60,0,0

[Colours]
Combo1 : 254,137,172
Combo2 : 97,39,203
Combo3 : 171,88,239
Combo4 : 237,171,33

[HitObjects]
256,192,792,12,0,5343,0:0:0:0:
85,96,5757,6,0,L|200:82,2,84,2|0|0,0:0|0:0|0:0,0:0:0:0:
70,177,6378,2,0,L|185:163,2,84,2|0|0,0:0|0:0|0:0,0:0:0:0:
55,258,6998,1,0,0:0:0:0:
55,258,7205,6,0,L|170:244,2,84,2|0|0,0:0|0:0|0:0,0:0:0:0:
168,336,7826,2,0,L|283:350,2,84,2|0|0,0:0|0:0|0:0,0:0:0:0:
297,263,8447,2,0,L|412:249,1,84,0|0,0:0|0:0,0:0:0:0:
445,174,8860,1,2,0:0:0:0:
369,106,9067,6,0,L|360:1,1,84,2|0,0:0|0:0,0:0:0:0:
288,159,9481,2,0,L|279:54,2,84,2|0|0,0:0|0:0|0:0,0:0:0:0:
207,212,10102,2,0,L|198:107,1,84,0|0,0:0|0:0,0:0:0:0:
109,49,10516,6,0,L|101:132,2,84,2|0|0,0:0|0:0|0:0,0:0:0:0:
12,148,11136,2,0,L|19:231,1,84,2|0,0:0|0:0,0:0:0:0:
99,324,11550,1,2,0:0:0:0:
106,240,11757,2,0,L|98:323,1,84,2|0,0:0|0:0,0:0:0:0:
13,364,12171,1,0,0:0:0:0:
185,363,12378,6,0,L|268:370,2,84,2|0|0,0:0|0:0|0:0,0:0:0:0:
321,271,12998,2,0,L|237:278,2,84,2|0|0,0:0|0:0|0:0,0:0:0:0:
184,180,13619,1,0,0:0:0:0:
184,180,13826,6,0,L|267:187,2,84,2|0|0,0:0|0:0|0:0,0:0:0:0:
102,119,14447,2,0,L|19:112,2,84,2|0|0,0:0|0:0|0:0,0:0:0:0:
191,71,15067,2,0,L|274:78,1,84,0|0,0:0|0:0,0:0:0:0:
363,30,15481,1,2,0:0:0:0:
414,116,15688,6,0,L|407:199,1,84,2|0,0:0|0:0,0:0:0:0:
331,259,16102,2,0,L|338:342,2,84,2|0|0,0:0|0:0|0:0,0:0:0:0:
247,183,16723,2,0,L|240:266,1,84,0|0,0:0|0:0,0:0:0:0:
128,337,17136,6,0,L|113:169,1,168,2|0,0:0|0:0,0:0:0:0:
47,211,17757,2,0,P|117:248|184:204,1,168,2|8,0:0|0:3,0:0:0:0:
191,183,18274,1,8,0:3:0:0:
195,162,18378,1,8,0:3:0:0:
276,102,18585,1,0,0:0:0:0:
358,160,18792,1,0,0:0:0:0:
327,256,18998,5,6,0:0:0:0:
478,197,19205,1,0,0:0:0:0:
263,206,19412,1,0,0:0:0:0:
390,308,19619,1,2,0:0:0:0:
488,115,19826,2,0,P|414:146|404:230,1,168,8|0,0:0|0:0,0:0:0:0:
246,153,20447,6,0,L|430:145,1,168,2|0,0:0|0:0,0:0:0:0:
235,234,21067,1,2,0:0:0:0:
182,103,21274,1,0,0:0:0:0:
85,296,21481,2,0,B|132:273|132:273|273:280,1,168,8|0,0:0|0:0,0:0:0:0:
369,360,22102,5,2,0:0:0:0:
295,210,22309,1,0,0:0:0:0:
203,349,22516,1,0,0:0:0:0:
129,199,22723,1,2,0:0:0:0:
295,210,22929,1,0,0:0:0:0:
75,264,23136,2,0,P|45:190|95:121,1,168,8|0,0:0|0:0,0:0:0:0:
259,115,23757,6,0,L|75:123,1,168,2|0,0:0|0:0,0:0:0:0:
222,38,24378,1,2,0:0:0:0:
296,192,24585,1,0,0:0:0:0:
480,109,24792,1,8,0:0:0:0:
376,66,24998,2,0,L|391:171,1,84,2|0,0:0|0:0,0:0:0:0:
308,273,25412,1,0,0:0:0:0:
418,328,25619,6,0,L|501:332,1,84,2|0,0:0|0:0,0:0:0:0:
388,237,26033,1,0,0:0:0:0:
308,357,26240,1,2,0:0:0:0:
352,159,26447,2,0,P|433:166|472:237,1,168,8|0,0:0|0:0,0:0:0:0:
273,206,27067,6,0,B|266:88|266:88|240:130,1,168,2|0,0:0|0:0,0:0:0:0:
211,280,27688,1,2,0:0:0:0:
388,237,27895,1,0,0:0:0:0:
178,204,28102,2,0,L|6:218,1,168,8|0,0:0|0:0,0:0:0:0:
164,36,28929,6,0,L|177:203,1,168,0|2,0:0|0:0,0:0:0:0:
186,328,29550,1,0,0:0:0:0:
321,344,29757,2,0,L|335:177,1,168,8|0,0:0|0:0,0:0:0:0:
163,134,30585,6,0,P|126:250|244:221,1,294,0|0,0:0|0:0,0:0:0:0:
254,138,31412,6,0,L|249:90,10,28,8|0|0|0|0|0|0|0|0|0|0,0:0|0:0|0:0|0:0|0:0|0:0|0:0|0:0|0:0|0:0|0:0,0:0:0:0:
242,30,32240,5,4,3:2:0:0:
337,161,32447,1,0,0:0:0:0:
171,115,32654,1,0,0:0:0:0:
399,101,32860,1,0,3:0:0:0:
376,327,33067,2,0,L|358:245,1,84,8|0,0:0|0:0,0:0:0:0:
254,137,33481,1,0,0:0:0:0:
268,382,33688,6,0,L|286:299,1,84,0|0,3:0|0:0,0:0:0:0:
337,161,34102,1,0,0:0:0:0:
376,327,34309,1,0,3:0:0:0:
196,271,34516,1,0,0:0:0:0:
420,185,34723,1,8,0:0:0:0:
240,129,34929,2,0,L|129:138,2,84,0|0|0,0:0|0:0|3:0,0:0:0:0:
196,271,35550,5,0,0:0:0:0:
142,103,35757,1,0,0:0:0:0:
327,120,35964,1,0,3:0:0:0:
96,188,36171,1,0,0:0:0:0:
276,53,36378,2,0,P|318:36|355:40,1,84,8|0,0:0|0:0,0:0:0:0:
281,205,36792,1,0,0:0:0:0:
148,19,36998,6,0,L|140:123,1,84,0|0,3:0|0:0,0:0:0:0:
14,186,37412,1,0,1:0:0:0:
34,189,37516,1,0,1:0:0:0:
54,192,37619,2,0,L|122:184,1,42,0|0,3:0|0:0,0:0:0:0:
147,266,37826,2,0,L|79:258,1,42,0|0,3:0|0:0,0:0:0:0:
231,165,38033,1,8,0:0:0:0:
245,333,38240,2,0,L|238:249,1,84,0|0,0:0|0:0,0:0:0:0:
160,340,38654,1,0,0:0:0:0:
412,320,38860,6,0,L|328:326,1,84,0|0,3:0|0:0,0:0:0:0:
231,165,39274,1,0,0:0:0:0:
245,333,39481,1,0,3:0:0:0:
402,236,39688,2,0,L|485:242,1,84,8|0,0:0|0:0,0:0:0:0:
328,326,40102,1,0,0:0:0:0:
442,147,40309,6,0,L|358:153,1,84,0|0,3:0|0:0,0:0:0:0:
231,165,40723,1,0,0:0:0:0:
402,236,40929,1,0,3:0:0:0:
314,70,41136,1,0,0:0:0:0:
160,252,41343,1,8,0:0:0:0:
72,86,41550,2,0,L|65:2,2,84,0|0|0,0:0|0:0|3:0,0:0:0:0:
103,223,42171,6,0,P|64:207|22:210,1,84,0|0,0:0|0:0,0:0:0:0:
182,280,42585,2,0,P|220:295|262:292,1,84,0|0,3:0|0:0,0:0:0:0:
207,130,42998,2,0,P|229:164|235:206,1,84,8|0,0:0|0:0,0:0:0:0:
77,372,43412,2,0,P|54:337|48:295,1,84,0|0,0:0|3:0,0:0:0:0:
262,292,43826,6,0,L|251:393,1,84,0|0,0:0|0:0,0:0:0:0:
273,369,44136,1,0,1:0:0:0:
293,363,44240,1,0,1:0:0:0:
158,216,44447,2,0,L|137:218,2,21,0|0|0,3:0|1:0|1:0,0:0:0:0:
235,206,44654,5,0,1:0:0:0:
243,177,44757,1,0,1:0:0:0:
250,148,44860,1,8,1:3:0:0:
256,118,44964,1,0,1:0:0:0:
263,89,45067,6,0,L|276:128,1,42,0|0,0:0|0:0,0:0:0:0:
306,248,45274,2,0,L|319:208,1,42,4|0,0:3|0:0,0:0:0:0:
512,108,45481,6,0,L|428:101,1,84,4|0,3:2|0:0,0:0:0:0:
383,38,45792,1,0,0:0:0:0:
370,20,45895,1,0,0:0:0:0:
410,200,46102,1,0,3:0:0:0:
235,215,46309,2,0,L|319:208,1,84,8|0,0:0|0:0,0:0:0:0:
263,89,46723,1,0,0:0:0:0:
262,110,46826,1,0,0:0:0:0:
260,131,46929,1,0,3:0:0:0:
101,226,47136,6,0,L|94:142,1,84,0|0,0:0|0:0,0:0:0:0:
47,305,47447,1,0,0:0:0:0:
63,320,47550,2,0,L|147:313,1,84,0|0,3:0|0:0,0:0:0:0:
260,302,47964,1,8,0:0:0:0:
332,379,48171,1,0,0:0:0:0:
246,186,48378,1,0,0:0:0:0:
146,313,48585,1,0,3:0:0:0:
380,295,48792,6,0,L|464:288,1,84,0|0,0:0|0:0,0:0:0:0:
344,176,49102,1,0,0:0:0:0:
329,192,49205,2,0,L|245:185,1,84,0|0,3:0|0:0,0:0:0:0:
479,47,49619,2,0,P|484:88|468:126,1,84,8|0,0:0|0:0,0:0:0:0:
288,105,50033,2,0,P|282:63|298:25,1,84,0|0,0:0|3:0,0:0:0:0:
371,197,50447,5,0,0:0:0:0:
203,181,50654,1,0,1:0:0:0:
224,183,50757,1,0,1:0:0:0:
245,185,50860,1,0,3:0:0:0:
103,173,51067,1,0,3:0:0:0:
397,201,51274,6,0,L|418:106,1,84,8|0,0:0|0:0,0:0:0:0:
243,270,51688,2,0,L|224:352,1,84,0|0,0:0|0:0,0:0:0:0:
116,187,52102,6,0,P|157:192|196:178,1,84,0|0,3:0|0:0,0:0:0:0:
197,58,52412,1,0,0:0:0:0:
184,44,52516,2,0,P|142:38|103:52,1,84,0|0,0:0|3:0,0:0:0:0:
12,213,52929,2,0,L|30:130,1,84,8|0,0:0|0:0,0:0:0:0:
170,287,53343,1,0,0:0:0:0:
149,289,53447,1,0,0:0:0:0:
128,291,53550,1,0,3:0:0:0:
252,206,53757,6,0,L|348:196,1,84,0|0,0:0|0:0,0:0:0:0:
345,324,54067,1,0,0:0:0:0:
338,343,54171,2,0,L|254:351,1,84,0|0,3:0|0:0,0:0:0:0:
145,361,54585,1,8,0:0:0:0:
99,218,54792,1,0,0:0:0:0:
233,241,54998,1,0,0:0:0:0:
44,312,55205,1,0,3:0:0:0:
95,106,55412,6,0,P|136:106|184:90,1,84,0|0,0:0|0:0,0:0:0:0:
374,139,55723,1,0,0:0:0:0:
361,156,55826,2,0,P|321:143|279:144,1,84,0|0,3:0|0:0,0:0:0:0:
317,321,56240,2,0,L|311:238,1,84,8|0,0:0|0:0,0:0:0:0:
452,186,56654,1,0,0:0:0:0:
450,206,56757,1,0,0:0:0:0:
448,227,56860,1,0,3:0:0:0:
332,58,57067,5,0,0:0:0:0:
507,104,57274,1,0,1:0:0:0:
485,105,57378,1,0,1:0:0:0:
464,106,57481,1,0,3:0:0:0:
448,227,57688,1,0,3:0:0:0:
471,17,57895,1,8,0:0:0:0:
366,176,58102,2,0,L|296:181,1,42,8|0,0:3|0:0,0:0:0:0:
216,260,58309,2,0,L|286:265,1,42,4|0,0:3|0:0,0:0:0:0:
358,336,58516,1,2,0:0:0:0:
209,176,58723,6,0,L|217:281,1,84,4|0,3:2|0:0,0:0:0:0:
113,354,59033,1,0,0:0:0:0:
101,336,59136,2,0,L|107:252,1,84,0|0,0:0|3:0,0:0:0:0:
0,146,59550,2,0,L|6:229,1,84,8|0,0:0|0:0,0:0:0:0:
121,136,59964,1,0,0:0:0:0:
122,115,60067,1,0,0:0:0:0:
124,94,60170,1,0,3:0:0:0:
240,66,60378,6,0,P|276:87|317:90,1,84,0|0,0:0|0:0,0:0:0:0:
459,160,60688,1,0,0:0:0:0:
456,180,60792,2,0,P|419:200|378:203,1,84,0|0,3:0|0:0,0:0:0:0:
218,165,61205,1,8,0:0:0:0:
236,322,61412,2,0,L|231:280,1,42,0|0,0:0|0:0,0:0:0:0:
98,240,61619,1,0,0:0:0:0:
119,238,61723,1,0,0:0:0:0:
139,236,61826,1,0,3:0:0:0:
319,312,62033,6,0,L|235:321,1,84,0|0,0:0|0:0,0:0:0:0:
361,190,62343,1,0,0:0:0:0:
378,203,62447,2,0,L|461:193,1,84,0|0,3:0|0:0,0:0:0:0:
467,360,62860,2,0,P|444:324|433:284,1,84,8|0,0:0|0:0,0:0:0:0:
452,109,63274,1,0,0:0:0:0:
431,111,63377,1,0,0:0:0:0:
411,114,63480,1,0,3:0:0:0:
299,43,63688,5,0,0:0:0:0:
262,184,63895,1,0,1:0:0:0:
267,164,63998,1,0,1:0:0:0:
272,143,64101,1,0,3:0:0:0:
235,284,64309,1,0,3:0:0:0:
90,156,64516,2,0,L|196:147,1,84,8|0,0:0|0:0,0:0:0:0:
319,291,64929,2,0,L|213:282,1,84,0|0,0:0|0:0,0:0:0:0:
58,162,65343,6,0,L|70:277,1,84,0|0,3:0|0:0,0:0:0:0:
227,367,65757,2,0,L|235:283,1,84,0|0,0:0|3:0,0:0:0:0:
87,81,66171,2,0,L|-28:93,1,84,8|0,0:0|0:0,0:0:0:0:
189,210,66585,2,0,L|272:201,1,84,0|0,0:0|3:0,0:0:0:0:
454,162,66998,6,0,L|442:277,1,94.499997116089,0|0,0:0|0:0,0:0:0:0:
291,369,67412,2,0,L|280:275,1,94.499997116089,0|0,3:0|0:0,0:0:0:0:
425,81,67826,2,0,L|540:93,1,94.499997116089,8|0,0:0|0:0,0:0:0:0:
272,201,68240,1,0,0:0:0:0:
255,58,68447,1,0,3:0:0:0:
222,275,68654,6,0,P|271:290|326:273,1,105,0|0,0:0|0:0,0:0:0:0:
176,96,69067,2,0,P|126:80|72:98,1,105,0|0,3:0|0:0,0:0:0:0:
272,201,69481,6,0,P|257:151|273:101,1,105,8|0,0:0|0:0,0:0:0:0:
463,158,69895,2,0,P|477:207|461:257,1,105,0|0,0:0|3:0,0:0:0:0:
430,358,70205,1,0,0:0:0:0:
447,377,70309,2,0,L|498:367,3,52.5,0|0|0|0,1:0|1:0|1:0|1:0,1:0:0:0:
362,301,70723,1,0,3:0:0:0:
342,304,70826,1,0,0:0:0:0:
321,308,70929,2,0,L|316:283,2,26.25,0|0|0,3:0|1:0|1:0,0:0:0:0:
237,255,71136,6,0,P|100:296|230:356,1,367.5,8|0,0:0|0:0,0:0:0:0:
237,255,71964,6,0,L|238:202,1,52.5,10|0,0:0|0:0,0:0:0:0:
243,65,72171,2,0,L|242:118,1,52.5,2|0,0:0|0:0,0:0:0:0:
250,253,72378,2,0,L|251:200,1,52.5,10|0,0:0|0:0,0:0:0:0:
256,63,72585,2,0,L|255:116,1,52.5,2|0,0:0|0:0,0:0:0:0:
263,251,72792,6,0,L|264:198,1,52.5,10|0,0:0|0:0,0:0:0:0:
146,170,73205,6,0,L|145:223,1,52.5,10|0,0:0|0:0,0:0:0:0:
140,360,73412,2,0,L|141:307,1,52.5,2|0,0:0|0:0,0:0:0:0:
133,172,73619,2,0,L|132:225,1,52.5,10|0,0:0|0:0,0:0:0:0:
127,362,73826,2,0,L|128:309,1,52.5,2|0,0:0|0:0,0:0:0:0:
72,116,74033,5,10,0:0:0:0:
57,100,74447,1,8,0:0:0:0:
42,84,74860,1,8,0:0:0:0:
219,36,75274,6,0,L|272:37,1,52.5,10|0,0:0|0:0,0:0:0:0:
409,42,75481,2,0,L|356:41,1,52.5,2|0,0:0|0:0,0:0:0:0:
221,49,75688,2,0,L|274:50,1,52.5,10|0,0:0|0:0,0:0:0:0:
411,55,75895,2,0,L|358:54,1,52.5,2|0,0:0|0:0,0:0:0:0:
223,62,76102,2,0,L|276:63,1,52.5,10|0,0:0|0:0,0:0:0:0:
413,68,76309,2,0,L|360:67,1,52.5,2|0,0:0|0:0,0:0:0:0:
187,159,76516,6,0,L|240:160,1,52.5,10|0,0:0|0:0,0:0:0:0:
377,165,76723,2,0,L|324:164,1,52.5,2|0,0:0|0:0,0:0:0:0:
189,172,76930,2,0,L|242:173,1,52.5,10|0,0:0|0:0,0:0:0:0:
379,178,77137,2,0,L|326:177,1,52.5,2|0,0:0|0:0,0:0:0:0:
139,64,77343,5,8,0:0:0:0:
163,276,77757,2,0,L|267:277,1,105,8|0,0:0|0:0,0:0:0:0:
151,170,78171,1,8,0:0:0:0:
163,276,78378,1,0,0:0:0:0:
391,273,78585,5,8,1:2:0:0:
394,73,78792,1,0,1:2:0:0:
297,207,78998,5,0,1:2:0:0:
323,205,79102,1,0,1:2:0:0:
488,139,79309,1,0,1:2:0:0:
462,137,79413,1,8,1:2:0:0:
271,290,79619,5,0,1:2:0:0:
297,288,79723,1,0,1:2:0:0:
343,75,79929,1,0,1:2:0:0:
317,73,80033,1,0,1:2:0:0:
291,71,80136,1,0,1:2:0:0:
265,69,80240,1,8,1:2:0:0:
182,303,80447,1,0,1:2:0:0:
323,205,80654,5,8,1:2:0:0:
297,207,80758,1,0,1:2:0:0:
157,55,80964,1,0,1:2:0:0:
183,57,81068,1,8,1:2:0:0:
402,278,81274,5,0,1:2:0:0:
376,280,81378,1,0,1:2:0:0:
84,152,81584,1,0,1:2:0:0:
110,150,81688,1,0,1:2:0:0:
136,148,81791,1,0,1:2:0:0:
162,146,81895,5,8,1:2:0:0:
176,107,81998,1,0,1:2:0:0:
207,81,82101,1,0,1:2:0:0:
247,73,82205,1,0,1:2:0:0:
286,86,82308,1,8,1:2:0:0:
314,116,82412,1,0,1:2:0:0:
323,155,82515,1,0,1:2:0:0:
313,195,82619,1,0,1:2:0:0:
283,223,82723,5,8,1:2:0:0:
253,265,82826,1,0,1:2:0:0:
251,316,82929,1,0,1:2:0:0:
279,360,83033,1,0,1:2:0:0:
327,380,83136,1,8,1:2:0:0:
377,370,83240,1,0,1:2:0:0:
413,333,83343,1,0,1:2:0:0:
422,282,83447,5,0,1:2:0:0:
336,294,83550,2,0,L|310:297,4,26.25,0|0|0|0|0,1:2|1:2|1:2|1:2|1:2,1:2:0:0:
382,198,83860,5,0,1:2:0:0:
295,186,83964,2,0,L|269:182,4,26.25,0|0|0|0|0,1:2|1:2|1:2|1:2|1:2,1:2:0:0:
396,108,84240,5,0,0:0:0:0:
413,101,84309,1,0,0:0:0:0:
430,94,84378,2,0,L|363:68,1,62.9999980773926,8|0,0:3|0:0,0:0:0:0:
265,0,84585,2,0,L|275:71,1,62.9999980773926,8|0,0:3|0:0,0:0:0:0:
191,172,84792,2,0,L|181:109,1,62.9999980773926,4|0,0:3|0:0,0:0:0:0:
26,78,84999,2,0,L|84:100,1,62.9999980773926,4|0,0:3|0:0,0:0:0:0:
279,246,85205,6,0,L|133:268,1,146.999995513916,4|0,3:2|0:0,0:0:0:0:
55,224,85516,1,0,0:0:0:0:
122,289,85619,6,0,L|184:279,1,62.9999980773926,0|0,3:0|0:0,0:0:0:0:
267,267,85826,2,0,L|329:257,1,62.9999980773926,0|0,0:0|0:0,0:0:0:0:
376,180,86033,6,0,B|404:154|418:103|418:103|420:201|474:253,1,252,8|0,0:0|0:0,0:0:0:0:
496,275,86447,6,0,P|460:276|425:286,1,73.4999977569581,0|0,3:0|0:0,0:0:0:0:
272,148,86654,2,0,P|308:149|343:160,1,73.4999977569581,0|0,3:0|0:0,0:0:0:0:
83,216,86860,6,0,L|70:109,1,84,0|0,3:0|0:0,0:0:0:0:
63,49,87067,2,0,L|73:132,1,84
138,341,87274,1,0,3:0:0:0:
97,337,87377,1,0,3:0:0:0:
55,333,87481,1,0,3:0:0:0:
243,252,87688,6,0,P|268:288|232:288,1,94.499997116089,8|0,0:0|0:0,0:0:0:0:
434,135,87895,2,0,P|409:171|445:171,1,94.499997116089,0|0,0:0|0:0,0:0:0:0:
236,61,88102,2,0,P|261:97|225:97,1,94.499997116089,0|0,0:0|0:0,0:0:0:0:
420,337,88309,1,0,3:0:0:0:
243,252,88516,5,0,3:0:0:0:
434,135,88723,1,0,0:0:0:0:
405,131,88826,1,0,0:0:0:0:
376,127,88929,2,0,L|365:64,1,62.9999980773926,0|0,3:0|0:0,0:0:0:0:
226,0,89136,2,0,L|236:62,1,62.9999980773926,0|0,0:0|0:0,0:0:0:0:
89,208,89343,6,0,P|178:188|243:252,1,188.999994232178,8|0,0:0|0:0,0:0:0:0:
242,251,89757,2,0,L|240:188,1,62.9999980773926,0|0,0:0|0:0,0:0:0:0:
347,46,89964,2,0,L|349:109,1,62.9999980773926,0|0,3:0|0:0,0:0:0:0:
512,160,90171,6,0,L|417:162,1,94.499997116089,0|0,0:0|0:0,0:0:0:0:
323,248,90378,2,0,L|417:245,1,94.499997116089,0|0,3:0|0:0,0:0:0:0:
349,109,90585,2,0,L|255:111,1,94.499997116089,0|0,3:0|0:0,0:0:0:0:
261,338,90792,5,0,3:0:0:0:
250,263,90895,1,0,3:0:0:0:
240,188,90998,6,0,B|195:213|195:213|311:209,1,168,8|0,0:0|0:0,0:0:0:0:
392,329,91309,1,0,3:0:0:0:
418,363,91412,2,0,L|417:279,1,84,0|0,0:0|0:0,0:0:0:0:
416,96,91619,2,0,L|415:37,3,42,0|0|0|0,1:0|1:0|1:0|1:0,1:0:0:0:
484,137,91826,6,0,L|339:111,1,146.999995513916,4|0,3:2|0:0,0:0:0:0:
139,75,92136,1,0,0:0:0:0:
187,140,92240,2,0,L|259:127,1,73.4999977569581,0|0,3:0|0:0,0:0:0:0:
219,53,92447,2,0,L|291:40,1,73.4999977569581,0|0,0:0|0:0,0:0:0:0:
382,204,92654,6,0,B|369:242|327:272|327:272|357:175|339:110,1,252,8|0,0:0|0:0,0:0:0:0:
346,87,93067,2,0,P|381:78|418:77,1,73.4999977569581,0|0,3:0|0:0,0:0:0:0:
308,283,93274,2,0,P|272:282|236:273,1,73.4999977569581,0|0,3:0|0:0,0:0:0:0:
118,160,93481,6,0,L|131:267,1,84,0|0,0:0|0:0,0:0:0:0:
138,327,93688,2,0,L|128:244,1,84,0|0,0:0|0:0,0:0:0:0:
21,107,93895,5,0,3:0:0:0:
16,148,93998,1,0,3:0:0:0:
11,190,94102,1,0,3:0:0:0:
283,59,94309,6,0,B|291:81|291:81|278:102|278:102|301:151|275:217|211:224|211:224|275:217|310:252,1,315,8|0,0:0|3:0,0:0:0:0:
391,239,95136,6,0,L|308:250,1,84,0|0,3:0|0:0,0:0:0:0:
128,213,95343,2,0,L|211:223,1,84,0|0,0:0|0:0,0:0:0:0:
400,155,95550,2,0,L|316:165,1,84,0|0,3:0|0:0,0:0:0:0:
119,129,95757,2,0,L|202:139,1,84,0|0,0:0|0:0,0:0:0:0:
408,70,95964,5,8,0:0:0:0:
107,45,96171,1,0,0:0:0:0:
178,0,96274,2,0,P|183:80|119:129,1,168,0|0,0:0|0:0,0:0:0:0:
19,27,96585,2,0,P|33:66|37:107,1,84,0|0,3:0|0:0,0:0:0:0:
11,223,96792,6,0,L|83:210,1,73.4999977569581,0|0,0:0|0:0,0:0:0:0:
195,303,96998,2,0,L|122:290,1,73.4999977569581,0|0,3:0|0:0,0:0:0:0:
11,223,97205,2,0,L|83:210,1,73.4999977569581,0|0,3:0|0:0,0:0:0:0:
200,61,97412,2,0,L|244:87,1,36.749998878479,0|0,3:0|0:0,0:0:0:0:
179,84,97516,2,0,L|203:111,1,36.749998878479,0|0,3:0|0:0,0:0:0:0:
153,107,97619,6,0,B|201:145|214:219|214:219|249:176|306:169|353:195,1,283.499991348267,8|0,3:2|0:0,0:0:0:0:
350,228,98033,6,0,P|219:256|295:365,1,315,0|0,3:0|0:0,0:0:0:0:
296,287,98447,6,0,L|150:265,1,146.999995513916,4|0,3:2|0:0,0:0:0:0:
72,309,98758,1,0,0:0:0:0:
139,244,98861,6,0,L|201:254,1,62.9999980773926,0|0,3:0|0:0,0:0:0:0:
284,266,99068,2,0,L|346:276,1,62.9999980773926,0|0,0:0|0:0,0:0:0:0:
431,142,99274,6,0,B|489:199|489:199|320:174,1,252,8|0,0:0|0:0,0:0:0:0:
284,170,99688,2,0,P|274:134|273:98,1,73.4999977569581,0|0,3:0|0:0,0:0:0:0:
499,220,99895,2,0,P|498:256|488:291,1,73.4999977569581,0|0,3:0|0:0,0:0:0:0:
186,309,100102,6,0,P|224:292|266:292,1,84,0|0,0:0|0:0,0:0:0:0:
346,276,100309,2,0,P|307:292|265:292,1,84,0|0,0:0|0:0,0:0:0:0:
155,137,100516,1,0,3:0:0:0:
148,178,100619,1,0,3:0:0:0:
142,219,100723,1,0,3:0:0:0:
20,63,100929,6,0,B|54:95|54:95|66:48,1,94.499997116089,8|0,0:0|0:0,0:0:0:0:
284,170,101136,2,0,B|250:202|250:202|237:155,1,94.499997116089,0|0,0:0|0:0,0:0:0:0:
23,286,101343,2,0,B|57:318|57:318|69:271,1,94.499997116089,0|0,0:0|0:0,0:0:0:0:
232,26,101550,1,0,3:0:0:0:
241,239,101757,5,0,3:0:0:0:
416,102,101964,1,0,0:0:0:0:
385,95,102067,1,0,0:0:0:0:
353,88,102171,2,0,L|366:149,1,62.9999980773926,0|0,3:0|0:0,0:0:0:0:
510,185,102378,2,0,L|496:123,1,62.9999980773926,0|0,0:0|0:0,0:0:0:0:
298,261,102585,6,0,B|408:235|408:235|321:304,1,188.999994232178,8|0,0:0|0:0,0:0:0:0:
232,347,102998,2,0,L|218:285,1,62.9999980773926,0|0,0:0|0:0,0:0:0:0:
176,100,103205,2,0,L|190:162,1,62.9999980773926,0|0,3:0|0:0,0:0:0:0:
62,256,103412,6,0,L|154:234,1,94.499997116089,0|0,0:0|0:0,0:0:0:0:
232,347,103619,2,0,L|139:327,1,94.499997116089,0|0,3:0|0:0,0:0:0:0:
9,137,103826,2,0,L|101:157,1,94.499997116089,0|0,3:0|0:0,0:0:0:0:
299,237,104033,5,0,3:0:0:0:
281,161,104136,1,0,3:0:0:0:
265,88,104240,6,0,B|321:110|321:110|215:132,1,168,8|0,0:0|0:0,0:0:0:0:
154,235,104550,1,0,3:0:0:0:
134,272,104654,2,0,L|216:254,1,84,0|0,0:0|0:0,0:0:0:0:
381,219,104860,2,0,L|422:210,3,42,0|0|0|0,1:0|1:0|1:0|1:0,1:0:0:0:
447,286,105067,6,0,L|453:139,1,146.999995513916,4|0,3:2|0:0,0:0:0:0:
385,49,105378,1,0,0:0:0:0:
321,110,105481,2,0,L|247:113,1,73.4999977569581,0|0,3:0|0:0,0:0:0:0:
196,26,105688,2,0,L|269:29,1,73.4999977569581,0|0,0:0|0:0,0:0:0:0:
252,210,105895,6,0,P|151:245|156:139,1,252,8|0,0:0|0:0,0:0:0:0:
175,116,106309,6,0,P|140:125|103:125,1,73.4999977569581,0|0,3:0|0:0,0:0:0:0:
0,275,106516,2,0,P|36:272|72:279,1,73.4999977569581,0|0,3:0|0:0,0:0:0:0:
323,269,106723,6,0,P|340:231|340:189,1,84,0|0,0:0|0:0,0:0:0:0:
356,109,106930,2,0,P|340:148|340:190,1,84,0|0,0:0|0:0,0:0:0:0:
512,176,107136,1,0,3:0:0:0:
469,172,107240,1,0,3:0:0:0:
427,168,107343,1,0,3:0:0:0:
235,323,107550,6,0,B|208:363|208:363|286:350|286:350|312:360|342:359|365:349|365:349|413:328|469:347,1,315,8|0,0:0|3:0,0:0:0:0:
464,258,108378,6,0,P|422:252|380:255,1,84,0|0,3:0|0:0,0:0:0:0:
175,332,108585,2,0,P|208:305|246:287,1,84,0|0,0:0|0:0,0:0:0:0:
441,131,108792,2,0,P|400:139|365:162,1,84,0|0,3:0|0:0,0:0:0:0:
131,210,108999,2,0,P|170:196|212:199,1,84,0|0,0:0|0:0,0:0:0:0:
388,16,109205,6,0,P|352:37|317:76,1,84,8|0,0:0|0:0,0:0:0:0:
119,84,109412,2,0,P|160:85|210:101,1,84,0|0,0:0|0:0,0:0:0:0:
303,224,109619,1,0,3:0:0:0:
441,131,109826,2,0,L|493:123,3,42,0|0|0|0,1:0|1:0|1:0|1:0,1:0:0:0:
468,210,110033,5,0,1:0:0:0:
483,253,110136,1,0,1:0:0:0:
462,293,110239,1,0,1:0:0:0:
478,337,110343,1,0,1:0:0:0:
406,375,110447,6,0,L|343:365,3,62.9999980773926,0|0|0|0,1:0|0:0|0:0|0:0,0:0:0:0:
316,217,110860,5,0,1:0:0:0:
140,141,111067,5,8,0:3:0:0:
151,216,111171,1,8,0:3:0:0:
308,8,111378,5,8,0:3:0:0:
297,83,111482,1,4,0:3:0:0:
35,105,111688,6,0,B|75:90|96:45|96:45|115:98|167:131|225:128,1,252,4|0,3:2|0:0,0:0:0:0:
212,89,112102,6,0,P|172:78|142:49,1,84,0|0,3:0|0:0,0:0:0:0:
0,225,112309,2,0,P|30:197|71:186,1,84,0|0,0:0|0:0,0:0:0:0:
247,292,112516,6,0,L|132:305,1,84,8|0,0:0|0:0,0:0:0:0:
154,312,112929,6,0,L|237:302,1,84,0|0,3:0|0:0,0:0:0:0:
415,299,113136,2,0,L|332:309,1,84,0|0,3:0|0:0,0:0:0:0:
144,321,113343,2,0,L|227:311,1,84,0|0,0:0|0:0,0:0:0:0:
405,309,113550,2,0,L|322:319,1,84,0|0,0:0|0:0,0:0:0:0:
106,172,113757,5,0,3:0:0:0:
100,213,113860,1,0,3:0:0:0:
94,254,113964,1,0,3:0:0:0:
315,78,114171,6,0,B|330:64|330:64|268:74,1,84,8|0,0:0|0:0,0:0:0:0:
227,219,114378,2,0,B|232:239|232:239|255:181,1,84,0|0,0:0|0:0,0:0:0:0:
149,71,114585,2,0,B|129:66|129:66|169:115,1,84,0|0,0:0|0:0,0:0:0:0:
348,169,114792,1,0,3:0:0:0:
80,165,114998,6,0,B|112:233|66:300|66:300|119:279|172:303,1,252,0|0,3:0|0:0,0:0:0:0:
284,321,115412,6,0,P|243:319|203:331,1,84,0|0,3:0|0:0,0:0:0:0:
280,218,115619,2,0,P|323:225|360:252,1,89.2500017023087,0|0,0:0|0:0,0:0:0:0:
394,339,115826,2,0,P|370:298|360:252,1,94.499997116089,8|0,0:0|0:0,0:0:0:0:
486,157,116033,2,0,P|471:204|474:253,1,99.7499973363877,0|0,0:0|0:0,0:0:0:0:
338,86,116240,6,0,L|332:43,4,42,0|0|0|0|0,0:0|0:0|0:0|0:0|3:0,0:0:0:0:
360,252,116654,5,0,0:0:0:0:
169,91,116860,2,0,L|252:79,1,84,0|0,3:0|0:0,0:0:0:0:
502,44,117067,2,0,L|418:55,1,84,0|0,3:0|0:0,0:0:0:0:
265,181,117274,1,0,3:0:0:0:
348,169,117378,1,0,3:0:0:0:
431,157,117481,6,0,B|468:125|468:125|447:255,1,168,8|0,3:2|0:0,0:0:0:0:
429,324,117792,2,0,P|350:302|274:335,1,168,0|0,3:0|0:0,0:0:0:0:
197,382,118102,2,0,L|178:343,3,42,0|0|0|0,1:0|1:0|1:0|1:0,1:0:0:0:
98,317,118309,6,0,B|61:280|61:280|194:215|194:215|201:266,1,252,4|0,3:2|0:0,0:0:0:0:
238,275,118723,6,0,B|226:191,1,84,0|0,3:0|0:0,0:0:0:0:
22,292,118929,2,0,B|80:351,1,84,0|0,0:0|0:0,0:0:0:0:
131,150,119136,6,0,B|55:186,1,84,8|0,0:0|0:0,0:0:0:0:
44,177,119550,6,0,B|119:140,1,84,0|0,3:0|0:0,0:0:0:0:
316,114,119757,2,0,B|240:77,1,84,0|0,3:0|0:0,0:0:0:0:
32,167,119964,2,0,B|107:130,1,84,0|0,0:0|0:0,0:0:0:0:
327,104,120171,2,0,B|251:67,1,84,0|0,0:0|0:0,0:0:0:0:
14,2,120378,5,0,3:0:0:0:
18,43,120481,1,0,3:0:0:0:
23,84,120585,1,0,3:0:0:0:
258,198,120792,6,0,B|319:202|319:202|297:210,1,84,8|0,0:0|0:0,0:0:0:0:
135,231,120998,2,0,B|107:176|107:176|125:190,1,84,0|0,0:0|0:0,0:0:0:0:
226,322,121205,2,0,B|192:372|192:372|196:349,1,84,0|0,0:0|0:0,0:0:0:0:
198,121,121412,1,0,3:0:0:0:
424,148,121619,6,0,B|258:198|258:198|332:220,1,252,0|0,3:0|0:0,0:0:0:0:
438,231,122033,2,0,B|357:255,1,84,0|0,3:0|0:0,0:0:0:0:
226,322,122240,2,0,B|306:346,1,84,0|0,0:0|0:0,0:0:0:0:
452,314,122447,1,8,0:0:0:0:
258,198,122654,1,0,0:0:0:0:
435,1,122860,6,0,L|429:74,1,73.4999977569581,4|0,3:2|0:0,0:0:0:0:
315,133,123067,1,0,1:0:0:0:
294,123,123171,1,0,1:0:0:0:
272,116,123274,2,0,L|235:121,3,36.749998878479,0|0|0|0,1:0|1:0|1:0|1:0,0:0:0:0:
208,20,123481,1,0,0:0:0:0:
187,30,123585,1,0,1:0:0:0:
165,37,123688,2,0,L|128:32,3,36.749998878479,0|0|0|0,1:0|1:0|1:0|1:0,0:0:0:0:
44,145,123895,5,8,0:3:0:0:
39,107,123998,1,8,0:3:0:0:
34,70,124102,1,8,0:3:0:0:
59,258,124309,1,4,0:3:0:0:
294,248,124516,1,0,3:0:0:0:
251,232,124619,1,0,3:0:0:0:
206,239,124722,1,0,3:0:0:0:
169,265,124826,1,0,3:0:0:0:
148,306,124929,5,6,0:0:0:0:
324,281,125136,1,0,0:0:0:0:
217,144,125343,1,0,0:0:0:0:
241,328,125550,1,2,0:0:0:0:
422,219,125757,2,0,B|469:201|469:201|352:195,1,168,8|0,0:0|0:0,0:0:0:0:
134,94,126378,6,0,P|182:53|289:79,1,168,2|0,0:0|0:0,0:0:0:0:
294,248,126998,1,2,0:0:0:0:
217,144,127205,1,0,0:0:0:0:
241,328,127412,2,0,B|301:295|301:295|416:305,1,168,8|0,0:0|0:0,0:0:0:0:
104,217,128240,5,0,0:0:0:0:
57,343,128447,1,0,0:0:0:0:
21,187,128654,1,2,0:0:0:0:
187,247,128861,1,0,0:0:0:0:
165,101,129067,2,0,L|12:192,1,168,8|0,0:0|0:0,0:0:0:0:
262,128,129688,6,0,P|251:47|185:0,1,168,2|0,0:0|0:0,0:0:0:0:
191,198,130309,1,2,0:0:0:0:
359,117,130516,1,0,0:0:0:0:
335,283,130723,2,0,L|190:197,1,168,8|0,0:0|0:0,0:0:0:0:
482,37,131550,5,2,0:0:0:0:
387,217,131757,1,0,0:0:0:0:
357,60,131964,1,0,0:0:0:0:
512,194,132171,1,2,0:0:0:0:
335,283,132378,2,0,P|302:209|347:142,1,168,8|0,0:0|0:0,0:0:0:0:
502,298,132998,6,0,L|307:280,1,168,2|0,0:0|0:0,0:0:0:0:
239,184,133619,1,2,0:0:0:0:
268,368,133826,1,0,0:0:0:0:
102,294,134033,2,0,B|59:263|59:263|173:269,1,168,8|0,0:0|0:0,0:0:0:0:
334,282,134654,1,2,0:0:0:0:
423,104,134860,6,0,L|434:187,1,84,0|0,0:0|0:0,0:0:0:0:
286,111,135274,2,0,L|297:27,1,84,2|0,0:0|0:0,0:0:0:0:
434,187,135688,2,0,L|267:210,1,168,8|0,0:0|0:0,0:0:0:0:
119,133,136309,1,2,0:0:0:0:
252,293,136516,5,0,0:0:0:0:
286,111,136723,1,0,1:0:0:0:
265,113,136826,1,0,1:0:0:0:
244,116,136929,1,2,1:2:0:0:
158,240,137136,1,0,0:0:0:0:
38,146,137343,2,0,L|10:149,10,28,8|0|0|0|0|0|0|0|0|0|0,0:0|0:0|0:0|0:0|0:0|0:0|0:0|0:0|0:0|0:0|0:0,0:0:0:0:
79,67,138171,6,0,P|110:95|123:175,1,105,4|0,3:2|0:0,0:0:0:0:
13,324,138585,2,0,P|21:283|84:231,1,105,0|0,3:0|0:0,0:0:0:0:
242,278,138998,2,0,L|100:287,1,105,8|0,3:2|0:0,0:0:0:0:
122,306,139309,1,0,0:0:0:0:
107,327,139412,1,0,3:0:0:0:
325,319,139619,6,0,L|316:177,1,105,0|0,0:0|3:0,0:0:0:0:
206,85,140033,1,0,0:0:0:0:
229,96,140136,1,0,0:0:0:0:
253,108,140239,1,0,3:0:0:0:
465,47,140447,1,0,0:0:0:0:
491,176,140654,2,0,P|441:159|389:155,1,105,8|0,3:2|0:0,0:0:0:0:
216,235,141067,2,0,P|268:230|317:214,1,105,0|0,3:0|0:0,0:0:0:0:
133,158,141481,5,0,3:0:0:0:
16,298,141688,1,0,0:0:0:0:
2,139,141895,1,0,3:0:0:0:
147,317,142102,1,0,0:0:0:0:
147,317,142205,1,0,0:0:0:0:
147,316,142309,2,0,P|197:303|250:300,1,105,8|0,3:2|0:0,0:0:0:0:
473,206,142723,1,0,3:0:0:0:
439,328,142929,6,0,P|390:304|359:254,1,105,0|0,0:0|3:0,0:0:0:0:
374,138,143343,1,0,0:0:0:0:
348,142,143447,1,0,0:0:0:0:
322,146,143550,1,0,3:0:0:0:
473,206,143757,1,0,0:0:0:0:
512,34,143964,2,0,P|460:24|411:41,1,105,8|0,3:2|0:0,0:0:0:0:
322,146,144378,1,0,3:0:0:0:
187,61,144585,2,0,L|191:23,3,26.25,0|0|0|0,1:0|1:0|1:0|1:0,0:0:0:0:
140,121,144792,6,0,L|244:110,1,105,0|0,3:0|0:0,0:0:0:0:
400,130,145205,1,0,3:0:0:0:
296,4,145412,1,0,0:0:0:0:
288,217,145619,2,0,P|237:227|188:210,1,105,8|0,3:2|0:0,0:0:0:0:
49,132,146033,1,0,3:0:0:0:
84,342,146240,6,0,L|95:238,1,105,0|0,0:0|3:0,0:0:0:0:
116,46,146654,1,0,0:0:0:0:
244,138,146860,1,0,3:0:0:0:
95,237,147067,1,0,0:0:0:0:
244,40,147274,2,0,P|295:55|331:94,1,105,8|0,3:2|0:0,0:0:0:0:
357,279,147688,2,0,P|306:264|270:225,1,105,0|0,3:0|0:0,0:0:0:0:
139,131,148102,6,0,L|243:137,1,105,0|0,3:0|0:0,0:0:0:0:
461,285,148516,2,0,L|356:278,1,105,0|0,3:0|0:0,0:0:0:0:
192,229,148929,2,0,L|198:333,1,105,8|0,3:2|0:0,0:0:0:0:
408,187,149343,2,0,L|414:82,1,105,0|0,3:0|0:0,0:0:0:0:
340,24,149619,1,0,1:0:0:0:
329,39,149688,1,0,1:0:0:0:
319,54,149757,6,0,L|245:51,3,52.5,0|0|0|0,1:0|1:0|1:0|1:0,0:0:0:0:
238,143,150171,2,0,L|185:145,3,52.5,0|0|0|0,1:0|1:0|1:0|1:0,0:0:0:0:
127,69,150585,6,0,P|-16:163|141:230,1,420,8|0,0:3|0:0,0:0:0:0:
22,353,164654,6,0,L|126:344,1,105,0|0,1:0|0:0,0:0:0:0:
301,250,165067,2,0,L|197:241,1,105,0|0,1:0|0:0,0:0:0:0:
29,360,165481,1,0,1:0:0:0:
133,350,165688,1,0,1:0:0:0:
237,340,165895,2,0,L|341:331,1,105,0|0,1:0|0:0,0:0:0:0:
459,298,166205,1,0,1:0:0:0:
445,320,166309,6,0,L|436:216,1,105,0|0,1:0|0:0,0:0:0:0:
354,57,166723,2,0,L|345:161,1,105,0|0,1:0|0:0,0:0:0:0:
435,215,167033,1,0,1:0:0:0:
447,192,167136,1,0,1:0:0:0:
343,182,167343,1,0,1:0:0:0:
239,172,167550,2,0,L|135:163,1,105,0|0,1:0|0:0,0:0:0:0:
37,131,167860,1,0,1:0:0:0:
31,143,167912,1,0,0:0:0:0:
24,154,167964,6,0,L|42:257,1,105,0|0,1:0|0:0,0:0:0:0:
134,162,168378,2,0,L|153:59,1,105,0|0,1:0|0:0,0:0:0:0:
287,111,168792,1,0,1:0:0:0:
306,214,168998,1,0,1:0:0:0:
283,357,169205,2,0,P|328:330|380:334,1,105,0|0,1:0|0:0,0:0:0:0:
460,359,169516,1,0,1:0:0:0:
481,374,169619,5,0,1:0:0:0:
462,271,169825,1,0,1:0:0:0:
443,168,170033,1,0,1:0:0:0:
465,181,170136,1,0,1:0:0:0:
512,63,170343,1,0,1:0:0:0:
501,70,170395,1,0,1:0:0:0:
490,76,170447,6,0,L|311:55,1,157.5,0|0,1:0|0:0,0:0:0:0:
264,111,170860,1,0,1:0:0:0:
224,114,170963,1,0,1:0:0:0:
185,118,171066,1,0,1:0:0:0:
146,122,171170,1,0,1:0:0:0:
107,125,171273,5,0,1:0:0:0:
105,326,171481,1,0,1:0:0:0:
202,192,171687,5,0,1:0:0:0:
176,194,171791,1,0,1:0:0:0:
11,260,171998,1,0,1:0:0:0:
37,262,172102,1,0,1:0:0:0:
228,109,172308,5,0,1:0:0:0:
202,111,172412,1,0,1:0:0:0:
156,324,172618,1,0,1:0:0:0:
182,326,172722,1,0,1:0:0:0:
208,328,172825,1,0,1:0:0:0:
234,330,172929,1,0,1:0:0:0:
317,96,173136,1,0,1:0:0:0:
176,194,173343,5,0,1:0:0:0:
202,192,173447,1,0,1:0:0:0:
342,344,173653,1,0,1:0:0:0:
316,342,173757,1,0,1:0:0:0:
97,121,173963,5,0,1:0:0:0:
123,119,174067,1,0,1:0:0:0:
415,247,174273,1,0,1:0:0:0:
389,249,174377,1,0,1:0:0:0:
363,251,174480,1,0,1:0:0:0:
337,253,174584,5,0,1:0:0:0:
323,292,174687,1,0,1:0:0:0:
292,318,174792,1,0,1:0:0:0:
252,326,174894,1,0,1:0:0:0:
213,313,174997,1,0,1:0:0:0:
185,283,175101,1,0,1:0:0:0:
176,244,175204,1,0,1:0:0:0:
186,204,175308,1,0,1:0:0:0:
216,176,175412,5,0,1:0:0:0:
246,134,175515,1,0,1:0:0:0:
248,83,175618,1,0,1:0:0:0:
220,39,175722,1,0,1:0:0:0:
172,19,175825,1,0,1:0:0:0:
122,29,175929,1,0,1:0:0:0:
86,66,176032,1,0,1:0:0:0:
77,117,176136,1,0,1:0:0:0:
95,166,176240,6,0,L|106:201,1,26.25,0|0,1:0|1:0,1:0:0:0:
126,161,176343,2,0,L|127:197,1,26.25,0|0,1:0|1:0,1:0:0:0:
157,164,176447,2,0,L|149:199,1,26.25,0|0,1:0|1:0,1:0:0:0:
186,175,176550,2,0,L|169:207,1,26.25,0|0,1:0|1:0,1:0:0:0:
211,193,176654,2,0,L|186:220,1,26.25,0|0,1:0|1:0,1:0:0:0:
230,217,176757,2,0,L|199:236,1,26.25,0|0,1:0|1:0,1:0:0:0:
243,245,176861,2,0,L|207:255,1,26.25,0|0,1:0|1:0,1:0:0:0:
248,276,176964,2,0,L|211:277,1,26.25,0|0,1:0|1:0,1:0:0:0:
254,307,177067,6,0,B|370:315|370:315|434:248|434:248|362:270,1,283.499991348267,0|0,3:0|0:0,0:0:0:0:
254,307,177481,6,0,P|244:257|262:208,1,105,0|0,3:0|0:0,0:0:0:0:
397,90,177688,5,0,1:0:0:0:
402,110,177792,1,0,1:0:0:0:
471,153,177895,6,0,B|324:142,1,146.999995513916,4|0,3:2|0:0,0:0:0:0:
243,91,178205,1,0,0:0:0:0:
335,161,178309,6,0,B|397:165,1,62.9999980773926,0|0,3:0|0:0,0:0:0:0:
232,72,178516,2,0,B|170:68,1,62.9999980773926,0|0,0:0|0:0,0:0:0:0:
30,138,178723,6,0,B|74:197|74:197|50:-2,1,252,8|0,0:0|0:0,0:0:0:0:
87,18,179136,6,0,B|95:90,1,73.4999977569581,0|0,3:0|0:0,0:0:0:0:
108,199,179343,2,0,B|116:271,1,73.4999977569581,0|0,3:0|0:0,0:0:0:0:
256,352,179550,6,0,P|220:330|179:322,1,84,0|0,3:0|0:0,0:0:0:0:
0,384,179757,2,0,P|29:354|68:338,1,84,0|0,0:0|0:0,0:0:0:0:
238,143,179964,1,0,3:0:0:0:
236,184,180067,1,0,3:0:0:0:
234,226,180171,1,0,3:0:0:0:
496,29,180378,6,0,P|510:68|469:78,1,94.499997116089,8|0,0:0|0:0,0:0:0:0:
332,154,180585,2,0,P|317:193|358:203,1,94.499997116089,0|0,0:0|0:0,0:0:0:0:
496,275,180792,2,0,P|510:314|469:324,1,94.499997116089,0|0,0:0|0:0,0:0:0:0:
234,226,180998,1,0,3:0:0:0:
486,178,181205,5,0,3:0:0:0:
314,21,181412,1,0,0:0:0:0:
304,51,181516,1,0,0:0:0:0:
295,81,181619,2,0,L|232:73,1,62.9999980773926,0|0,3:0|0:0,0:0:0:0:
80,165,181826,2,0,L|142:172,1,62.9999980773926,0|0,0:0|0:0,0:0:0:0:
312,209,182033,6,0,P|300:270|184:290,1,188.999994232178,8|0,0:0|0:0,0:0:0:0:
52,255,182447,2,0,P|83:252|114:258,1,62.9999980773926,0|0,0:0|0:0,0:0:0:0:
196,375,182654,2,0,P|226:380|258:378,1,62.9999980773926,0|0,3:0|0:0,0:0:0:0:
390,192,182860,6,0,L|408:284,1,94.499997116089,0|0,0:0|0:0,0:0:0:0:
233,225,183067,2,0,L|215:133,1,94.499997116089,0|0,3:0|0:0,0:0:0:0:
371,99,183274,2,0,L|390:192,1,94.499997116089,0|0,3:0|0:0,0:0:0:0:
120,56,183481,5,0,3:0:0:0:
199,42,183585,1,0,3:0:0:0:
278,28,183688,6,0,B|310:71|310:71|199:42,1,168,8|0,0:0|0:0,0:0:0:0:
36,28,183998,1,0,3:0:0:0:
41,70,184102,2,0,L|50:153,1,84,0|0,0:0|0:0,0:0:0:0:
69,335,184309,2,0,L|74:376,2,42,0|0|0,1:0|1:0|1:0,0:0:0:0:
1,294,184516,6,0,L|146:320,1,146.999995513916,4|0,3:2|0:0,0:0:0:0:
225,373,184826,1,0,0:0:0:0:
305,321,184929,2,0,L|318:248,1,73.4999977569581,0|0,3:0|0:0,0:0:0:0:
158,247,185136,2,0,L|145:319,1,73.4999977569581,0|0,0:0|0:0,0:0:0:0:
47,48,185343,6,0,B|78:223|78:223|89:184|124:169,1,252,8|0,0:0|0:0,0:0:0:0:
158,247,185757,6,0,L|231:241,1,73.4999977569581,0|0,3:0|0:0,0:0:0:0:
339,232,185964,2,0,L|412:226,1,73.4999977569581,0|0,3:0|0:0,0:0:0:0:
512,118,186171,6,0,P|476:140|435:148,1,84,0|0,0:0|0:0,0:0:0:0:
256,86,186378,2,0,P|285:116|324:132,1,84,0|0,0:0|0:0,0:0:0:0:
400,0,186585,1,0,3:0:0:0:
394,40,186688,1,0,3:0:0:0:
388,82,186792,1,0,3:0:0:0:
427,361,186998,6,0,B|478:323|478:323|454:331|434:316|434:316|411:324|391:310|391:310|370:318|349:305|349:305|325:314|305:299|305:299|275:276|229:284,1,315,8|0,0:0|3:0,0:0:0:0:
231,203,187826,6,0,P|273:202|313:213,1,84,0|0,3:0|0:0,0:0:0:0:
494,236,188033,2,0,P|452:237|412:226,1,84,0|0,0:0|0:0,0:0:0:0:
241,114,188240,2,0,P|283:113|323:124,1,84,0|0,3:0|0:0,0:0:0:0:
504,147,188447,2,0,P|462:148|422:137,1,84,0|0,0:0|0:0,0:0:0:0:
251,25,188654,5,8,0:0:0:0:
231,203,188860,1,0,0:0:0:0:
313,212,188964,2,0,P|282:138|202:124,1,168,0|0,0:0|0:0,0:0:0:0:
148,213,189274,2,0,P|190:214|230:203,1,84,0|0,3:0|0:0,0:0:0:0:
421,136,189481,6,0,L|416:209,1,73.4999977569581,0|0,0:0|0:0,0:0:0:0:
301,367,189688,2,0,L|305:293,1,73.4999977569581,0|0,3:0|0:0,0:0:0:0:
421,136,189895,2,0,L|416:209,1,73.4999977569581,0|0,3:0|0:0,0:0:0:0:
184,155,190102,2,0,L|237:169,1,36.749998878479,0|0,3:0|0:0,0:0:0:0:
186,119,190205,2,0,L|241:119,1,36.749998878479,0|0,3:0|0:0,0:0:0:0:
184,86,190309,6,0,B|250:68|250:68|291:82|314:132|314:132|322:63|381:38,1,283.499991348267,8|0,3:2|0:0,0:0:0:0:
422,56,190723,6,0,P|347:165|477:193,1,315,0|0,3:0|0:0,0:0:0:0:
421,136,191136,6,0,L|273:127,1,146.999995513916,4|0,3:2|0:0,0:0:0:0:
195,78,191447,1,0,0:0:0:0:
116,120,191550,6,0,L|109:57,1,62.9999980773926,0|0,3:0|0:0,0:0:0:0:
185,229,191757,2,0,L|191:166,1,62.9999980773926,0|0,0:0|0:0,0:0:0:0:
103,302,191964,6,0,B|57:247|57:247|238:266,1,252,8|0,0:0|0:0,0:0:0:0:
258,236,192378,6,0,B|184:228,1,73.4999977569581,0|0,3:0|0:0,0:0:0:0:
74,216,192585,2,0,B|0:208,1,73.4999977569581,0|0,3:0|0:0,0:0:0:0:
14,106,192792,6,0,P|52:90|94:89,1,84,0|0,0:0|0:0,0:0:0:0:
246,0,192998,2,0,P|209:19|181:51,1,84,0|0,0:0|0:0,0:0:0:0:
381,119,193205,1,0,3:0:0:0:
382,77,193308,1,0,3:0:0:0:
369,37,193411,1,0,3:0:0:0:
239,219,193619,6,0,B|207:182|207:182|253:180,1,94.499997116089,8|0,0:0|0:0,0:0:0:0:
453,299,193826,2,0,B|484:262|484:262|438:260,1,94.499997116089,0|0,0:0|0:0,0:0:0:0:
239,379,194033,2,0,B|207:342|207:342|253:340,1,94.499997116089,0|0,0:0|0:0,0:0:0:0:
381,119,194240,5,0,3:0:0:0:
336,384,194447,1,0,3:0:0:0:
114,210,194654,1,0,0:0:0:0:
108,240,194757,1,0,0:0:0:0:
102,270,194860,2,0,L|164:261,1,62.9999980773926,0|0,3:0|0:0,0:0:0:0:
327,297,195067,2,0,L|216:282,1,62.9999980773926,0|0,0:0|0:0,0:0:0:0:
190,72,195274,6,0,P|229:153|321:92,1,188.999994232178,8|0,0:0|0:0,0:0:0:0:
341,144,195688,6,0,P|321:168|295:185,1,62.9999980773926,0|0,0:0|0:0,0:0:0:0:
155,118,195895,2,0,P|150:86|158:56,1,62.9999980773926,0|0,3:0|0:0,0:0:0:0:
374,46,196102,6,0,L|280:40,1,94.499997116089,0|0,0:0|0:0,0:0:0:0:
60,123,196309,2,0,L|154:117,1,94.499997116089,0|0,3:0|0:0,0:0:0:0:
389,190,196516,2,0,L|294:184,1,94.499997116089,0|0,3:0|0:0,0:0:0:0:
180,349,196723,5,0,3:0:0:0:
191,274,196826,1,0,3:0:0:0:
202,199,196929,6,0,B|158:166|158:166|190:274,1,168,8|0,0:0|0:0,0:0:0:0:
303,357,197240,1,0,3:0:0:0:
336,382,197343,2,0,L|341:298,1,84,0|0,0:0|0:0,0:0:0:0:
353,114,197550,2,0,L|355:72,3,42,0|0|0|0,1:0|1:0|1:0|1:0,0:0:0:0:
283,157,197757,6,0,L|428:139,1,146.999995513916,4|0,3:2|0:0,0:0:0:0:
478,60,198067,1,0,0:0:0:0:
498,151,198171,2,0,P|462:152|427:138,1,73.4999977569581,0|0,3:0|0:0,0:0:0:0:
340,48,198378,2,0,P|306:34|270:35,1,73.4999977569581,0|0,0:0|0:0,0:0:0:0:
106,88,198585,6,0,B|140:60|157:22|157:22|148:114|179:190,1,252,8|0,0:0|0:0,0:0:0:0:
247,240,198998,6,0,L|319:231,1,73.4999977569581,0|0,3:0|0:0,0:0:0:0:
438,215,199205,2,0,L|510:206,1,73.4999977569581,0|0,3:0|0:0,0:0:0:0:
450,353,199412,6,0,P|413:334|390:300,1,84,0|0,0:0|0:0,0:0:0:0:
415,76,199619,2,0,P|384:104|369:142,1,84,0|0,0:0|0:0,0:0:0:0:
510,205,199826,1,0,3:0:0:0:
474,210,199929,1,0,3:0:0:0:
438,215,200032,1,0,3:0:0:0:
204,77,200240,6,0,B|248:64|279:33|279:33|263:70|263:70|272:96|254:115|254:115|264:141|246:163|246:163|216:195|221:246,1,315,8|0,0:0|3:0,0:0:0:0:
395,199,201067,6,0,P|360:222|319:230,1,84,0|0,3:0|0:0,0:0:0:0:
65,167,201274,2,0,P|95:195|134:209,1,84,0|0,0:0|0:0,0:0:0:0:
391,343,201481,2,0,P|356:320|314:312,1,84,0|0,3:0|0:0,0:0:0:0:
44,308,201688,2,0,P|82:291|124:291,1,84,0|0,0:0|0:0,0:0:0:0:
377,76,201895,6,0,P|358:113|326:140,1,84,8|0,0:0|0:0,0:0:0:0:
104,48,202102,2,0,P|116:87|142:119,1,84,0|0,0:0|0:0,0:0:0:0:
220,243,202309,1,0,3:0:0:0:
242,60,202516,2,0,L|247:18,3,42,0|0|0|0,1:0|1:0|1:0|1:0,0:0:0:0:
334,91,202723,5,0,1:0:0:0:
377,76,202826,1,0,1:0:0:0:
417,97,202929,1,0,1:0:0:0:
461,81,203033,1,0,1:0:0:0:
505,161,203136,6,0,L|512:223,3,62.9999980773926,0|0|0|0,1:0|0:0|0:0|0:0,0:0:0:0:
429,329,203550,5,0,1:0:0:0:
281,177,203757,5,8,0:3:0:0:
271,251,203860,1,8,0:3:0:0:
125,381,204067,5,8,0:3:0:0:
115,307,204170,1,4,0:3:0:0:
45,102,204378,6,0,B|30:137|-11:166|-11:166|66:132|151:142,1,252,4|0,3:2|0:0,0:0:0:0:
145,178,204792,2,0,P|103:175|61:181,1,84,0|0,3:0|0:0,0:0:0:0:
7,25,204998,2,0,P|48:22|90:28,1,84,0|0,0:0|0:0,0:0:0:0:
236,110,205205,6,0,L|239:26,1,84,8|0,0:0|0:0,0:0:0:0:
249,36,205619,6,0,L|246:120,1,84,0|0,3:0|0:0,0:0:0:0:
254,299,205826,2,0,L|257:215,1,84,0|0,3:0|0:0,0:0:0:0:
259,46,206033,2,0,L|255:129,1,84,0|0,0:0|0:0,0:0:0:0:
263,308,206240,2,0,L|266:224,1,84,0|0,0:0|0:0,0:0:0:0:
86,185,206447,5,0,3:0:0:0:
127,186,206550,1,0,3:0:0:0:
169,188,206653,1,0,3:0:0:0:
431,18,206860,6,0,P|424:57|386:69,1,84,8|0,0:0|0:0,0:0:0:0:
493,175,207067,2,0,P|467:206|428:197,1,84,0|0,0:0|0:0,0:0:0:0:
468,341,207274,2,0,P|430:355|400:328,1,84,0|0,0:0|0:0,0:0:0:0:
331,179,207481,1,0,3:0:0:0:
135,337,207688,6,0,B|95:345|64:322|64:322|138:388|241:343,1,252,0|0,3:0|0:0,0:0:0:0:
328,259,208102,6,0,P|339:219|330:178,1,84,0|0,3:0|0:0,0:0:0:0:
115,161,208309,2,0,P|103:203|112:247,1,89.2500017023087,0|0,0:0|0:0,0:0:0:0:
275,111,208516,2,0,P|230:97|184:105,1,94.499997116089,8|0,0:0|0:0,0:0:0:0:
167,314,208723,2,0,P|214:328|263:321,1,99.7499973363877,0|0,0:0|0:0,0:0:0:0:
223,198,208929,6,0,L|221:239,4,42,0|0|0|0|0,0:0|0:0|0:0|0:0|3:0,0:0:0:0:
233,48,209343,1,0,0:0:0:0:
331,178,209550,6,0,P|339:218|328:258,1,84,0|0,3:0|0:0,0:0:0:0:
111,246,209757,2,0,P|103:206|114:166,1,84,0|0,3:0|0:0,0:0:0:0:
233,48,209964,5,0,3:0:0:0:
149,38,210067,1,0,3:0:0:0:
65,28,210171,2,0,B|40:25|19:11|19:11|40:65|33:127,1,168,8|0,3:2|0:0,0:0:0:0:
30,258,210481,2,0,P|111:246|179:292,1,168,0|0,3:0|0:0,0:0:0:0:
234,365,210792,2,0,L|266:338,3,42,0|0|0|0,1:0|1:0|1:0|1:0,0:0:0:0:
357,330,210998,6,0,B|332:168|332:168|295:262,1,252,4|0,3:2|0:0,0:0:0:0:
234,217,211412,6,0,B|264:138,1,84,0|0,3:0|0:0,0:0:0:0:
407,163,211619,2,0,B|376:241,1,84,0|0,0:0|0:0,0:0:0:0:
355,77,211826,6,0,B|438:64,1,84,8|0,0:0|0:0,0:0:0:0:
448,54,212240,6,0,B|364:66,1,84,0|0,3:0|0:0,0:0:0:0:
178,83,212447,2,0,B|261:70,1,84,0|0,3:0|0:0,0:0:0:0:
457,43,212654,2,0,B|373:55,1,84,0|0,0:0|0:0,0:0:0:0:
187,72,212861,2,0,B|270:59,1,84,0|0,0:0|0:0,0:0:0:0:
445,144,213067,5,0,3:0:0:0:
438,185,213171,1,0,3:0:0:0:
431,226,213274,1,0,3:0:0:0:
251,326,213481,6,0,B|287:303|287:303|327:309,1,84,8|0,0:0|0:0,0:0:0:0:
137,218,213688,2,0,B|179:216|179:216|211:242,1,84,0|0,0:0|0:0,0:0:0:0:
92,67,213895,2,0,B|129:86|129:86|144:125,1,84,0|0,0:0|0:0,0:0:0:0:
149,300,214102,1,0,3:0:0:0:
317,190,214309,6,0,L|49:206,1,252,0|0,3:0|0:0,0:0:0:0:
149,300,214723,2,0,L|136:217,1,84,0|0,3:0|0:0,0:0:0:0:
232,96,214929,2,0,L|244:179,1,84,0|0,0:0|0:0,0:0:0:0:
388,333,215136,1,8,0:0:0:0:
458,164,215343,1,0,0:0:0:0:
306,322,215550,6,0,B|189:308,1,73.4999977569581,4|0,3:2|0:0,0:0:0:0:
60,278,215757,1,0,1:0:0:0:
70,258,215860,1,0,1:0:0:0:
80,238,215964,2,0,L|55:182,3,36.749998878479,0|0|0|0,1:0|1:0|1:0|1:0,0:0:0:0:
153,155,216171,1,0,0:0:0:0:
143,135,216274,1,0,1:0:0:0:
133,115,216378,2,0,L|158:59,3,36.749998878479,0|0|0|0,1:0|1:0|1:0|1:0,0:0:0:0:
9,38,216585,5,8,0:3:0:0:
44,27,216688,1,8,0:3:0:0:
79,16,216792,1,8,0:3:0:0:
52,182,216998,1,4,0:3:0:0:
235,229,217205,1,0,3:0:0:0:
235,229,217309,1,0,3:0:0:0:
234,229,217412,2,0,P|265:208|300:197,1,73.4999977569581,0|0,3:0|3:0,0:0:0:0:
389,225,217619,6,0,P|302:151|376:65,1,252,4|0,3:2|0:0,0:0:0:0:
367,29,218033,6,0,P|327:41|294:67,1,84,0|0,3:0|0:0,0:0:0:0:
388,224,218240,2,0,P|428:212|461:186,1,84,0|0,0:0|0:0,0:0:0:0:
189,88,218447,6,0,L|105:85,1,84,8|0,0:0|0:0,0:0:0:0:
115,75,218861,6,0,L|199:78,1,84,0|0,3:0|0:0,0:0:0:0:
378,70,219068,2,0,L|294:67,1,84,0|0,3:0|0:0,0:0:0:0:
125,65,219275,2,0,L|208:69,1,84,0|0,0:0|0:0,0:0:0:0:
387,61,219482,2,0,L|303:58,1,84,0|0,0:0|0:0,0:0:0:0:
272,240,219688,5,0,3:0:0:0:
278,198,219792,1,0,3:0:0:0:
285,156,219895,1,0,3:0:0:0:
417,346,220102,6,0,B|398:308|398:308|403:263,1,84,8|0,0:0|0:0,0:0:0:0:
286,319,220309,2,0,B|267:281|267:281|271:239,1,84,0|0,0:0|0:0,0:0:0:0:
155,292,220516,2,0,B|136:254|136:254|141:213,1,84,0|0,0:0|0:0,0:0:0:0:
59,371,220723,1,0,3:0:0:0:
46,140,220929,6,0,B|116:128|154:80|154:80|184:134|249:157,1,252,0|0,3:0|0:0,0:0:0:0:
331,150,221343,6,0,P|290:160|249:157,1,84,0|0,3:0|0:0,0:0:0:0:
160,45,221550,2,0,P|203:35|247:40,1,89.2500017023087,0|0,0:0|0:0,0:0:0:0:
194,265,221757,2,0,P|148:275|101:267,1,94.499997116089,8|0,0:0|0:0,0:0:0:0:
21,160,221964,2,0,P|70:148|122:157,1,99.7499973363877,0|0,0:0|0:0,0:0:0:0:
299,254,222171,6,0,L|304:329,4,42,0|0|0|0|0,0:0|0:0|0:0|0:0|3:0,0:0:0:0:
285,64,222585,1,0,0:0:0:0:
382,248,222792,6,0,L|465:242,1,84,0|0,3:0|0:0,0:0:0:0:
216,260,222998,2,0,L|132:265,1,84,0|0,3:0|0:0,0:0:0:0:
223,9,223205,5,0,3:0:0:0:
285,64,223308,1,0,3:0:0:0:
348,119,223412,6,0,B|290:147|290:147|191:113,1,168,8|0,3:2|0:0,0:0:0:0:
107,82,223723,2,0,L|131:269,1,168,0|0,3:0|0:0,0:0:0:0:
71,333,224033,2,0,L|29:335,3,42,0|0|0|0,1:0|1:0|1:0|1:0,0:0:0:0:
186,376,224240,6,0,B|240:298|332:325|332:325|368:355|410:353,1,252,4|0,3:2|0:0,0:0:0:0:
426,318,224654,6,0,P|385:314|350:291,1,84,0|0,3:0|0:0,0:0:0:0:
220,212,224860,2,0,P|261:208|296:185,1,84,0|0,0:0|0:0,0:0:0:0:
427,105,225067,6,0,L|343:94,1,84,8|0,0:0|0:0,0:0:0:0:
333,84,225481,6,0,L|416:94,1,84,0|0,3:0|0:0,0:0:0:0:
512,224,225688,2,0,L|428:213,1,84,0|0,3:0|0:0,0:0:0:0:
322,73,225895,2,0,L|405:83,1,84,0|0,0:0|0:0,0:0:0:0:
501,213,226102,2,0,L|417:202,1,84,0|0,0:0|0:0,0:0:0:0:
204,63,226309,5,0,3:0:0:0:
215,103,226412,1,0,3:0:0:0:
226,143,226516,1,0,3:0:0:0:
17,64,226723,6,0,B|56:48|56:48|97:54,1,84,8|0,0:0|0:0,0:0:0:0:
34,189,226929,2,0,B|73:173|73:173|114:179,1,84,0|0,0:0|0:0,0:0:0:0:
51,314,227136,2,0,B|90:298|90:298|131:304,1,84,0|0,0:0|0:0,0:0:0:0:
296,351,227343,1,0,3:0:0:0:
327,136,227550,6,0,P|222:151|240:280,1,252,0|0,3:0|0:0,0:0:0:0:
401,269,227964,2,0,L|317:272,1,84,0|0,3:0|0:0,0:0:0:0:
413,145,228171,2,0,L|496:148,1,84,0|0,0:0|0:0,0:0:0:0:
471,357,228378,1,8,0:0:0:0:
327,136,228585,1,0,0:0:0:0:
174,348,228792,6,0,L|27:342,1,146.999995513916,4|0,3:2|0:0,0:0:0:0:
20,318,229067,1,0,1:0:0:0:
13,294,229136,1,0,1:0:0:0:
7,270,229205,5,0,1:0:0:0:
212,208,229412,1,0,1:0:0:0:
71,90,229619,1,8,0:3:0:0:
79,126,229722,1,8,0:3:0:0:
90,162,229826,2,0,L|165:142,1,73.4999977569581,4|4,0:3|0:3,0:0:0:0:
288,182,230033,6,0,L|363:162,3,73.4999977569581,0|0|0|0,1:0|1:0|1:0|1:0,0:0:0:0:
197,289,230447,1,0,3:0:0:0:
178,305,230516,2,0,L|131:293,2,48.9999985046387,0|0|0,1:0|1:0|1:0,0:0:0:0:
363,357,230860,5,0,0:0:0:0:
