osu file format v14

[General]
AudioFilename: audio.mp3
AudioLeadIn: 0
PreviewTime: 81617
Countdown: 0
SampleSet: Normal
StackLeniency: 0.7
Mode: 0
LetterboxInBreaks: 0
WidescreenStoryboard: 0

[Editor]
DistanceSpacing: 1.2
BeatDivisor: 4
GridSize: 4
TimelineZoom: 1.7

[Metadata]
Title:Lords Of Babylon
TitleUnicode:Lords Of Babylon
Artist:Torian
ArtistUnicode:Torian
Creator:DaniilLillifag
Version:Dawn
Source:
Tags:german power speed metal dawn album dragonforce
BeatmapID:1028417
BeatmapSetID:481915

[Difficulty]
HPDrainRate:6
CircleSize:4.2
OverallDifficulty:8.7
ApproachRate:9.4
SliderMultiplier:1.6
SliderTickRate:1

[Events]
//Background and Video events
0,0,"lords of babylon.jpg",0,0
//Break Periods
//Storyboard Layer 0 (Background)
//Storyboard Layer 1 (Fail)
//Storyboard Layer 2 (Pass)
//Storyboard Layer 3 (Foreground)
//Storyboard Sound Samples

[TimingPoints]
17,300,4,1,0,25,1,0
7217,-100,4,1,0,30,0,0
9617,-100,4,1,0,25,0,0
16817,-100,4,1,0,30,0,0
19217,-95.2380952380952,4,1,0,35,0,0
24017,-95.2380952380952,4,1,0,38,0,0
28817,-95.2380952380952,4,1,0,41,0,0
33617,-95.2380952380952,4,1,0,44,0,0
36017,-86.9565217391304,4,3,0,47,0,1
36092,-86.9565217391304,4,3,0,47,0,0
37217,-86.9565217391304,4,3,0,47,0,1
37292,-86.9565217391304,4,3,0,47,0,0
40817,-80,4,1,5,50,0,1
50417,-100,4,1,5,45,0,0
55217,-80,4,1,5,50,0,1
60017,-100,4,1,0,45,0,0
69617,-100,4,1,0,48,0,0
76517,-100,4,1,0,51,0,0
77717,-100,4,1,0,53,0,0
79217,-100,4,1,0,55,0,0
81017,-100,4,1,0,58,0,0
81617,-100,4,1,0,60,0,1
81692,-100,4,2,0,60,0,1
100817,-133.333333333333,4,2,0,30,0,0
105017,-100,4,2,0,40,0,0
105617,-80,4,1,5,50,0,1
115217,-86.9565217391304,4,1,5,45,0,0
122417,-80,4,1,5,55,0,1
124817,-86.9565217391304,4,1,5,45,0,0
131717,-86.9565217391304,4,1,5,47,0,0
132917,-86.9565217391304,4,1,5,50,0,0
134117,-86.9565217391304,4,1,5,53,0,0
135917,-86.9565217391304,4,1,5,56,0,0
136817,-100,4,1,5,60,0,1
136892,-100,4,2,0,60,0,1
156017,-133.333333333333,4,2,0,40,0,0
164717,-133.333333333333,4,2,0,42,0,0
165617,-133.333333333333,4,2,0,45,0,0
174917,-100,4,2,0,47,0,0
175217,-80,4,1,5,50,0,1
193817,-83.3333333333333,4,1,5,47,0,0
194417,-86.9565217391304,4,1,5,45,0,1
201617,-86.9565217391304,4,1,5,48,0,1
202817,-86.9565217391304,4,1,5,51,0,1
203567,-86.9565217391304,4,1,5,55,0,1
204017,-86.9565217391304,4,1,5,45,0,1
211217,-86.9565217391304,4,1,5,50,0,1
212567,-100,4,1,5,55,0,1
213617,-133.333333333333,4,2,0,30,0,0
213917,-133.333333333333,4,2,0,33,0,0
216317,-133.333333333333,4,2,0,30,0,0
217517,-133.333333333333,4,2,0,33,0,0
218717,-133.333333333333,4,2,0,30,0,0
219917,-133.333333333333,4,2,0,33,0,0
223217,-133.333333333333,4,2,0,36,0,0
228017,-133.333333333333,4,2,0,40,0,0
232817,-90.9090909090909,4,1,5,45,0,0
236417,-111.111111111111,4,1,5,45,0,0
236492,-90.9090909090909,4,1,5,45,0,0
237017,-100,4,1,5,45,0,0
237092,-90.9090909090909,4,1,5,45,0,0
241217,-125,4,1,5,45,0,0
241292,-90.9090909090909,4,1,5,45,0,0
241517,-76.9230769230769,4,1,5,45,0,0
241592,-90.9090909090909,4,1,5,45,0,0
241817,-100,4,1,5,45,0,0
241892,-90.9090909090909,4,1,5,45,0,0
246017,-125,4,1,5,45,0,0
246092,-90.9090909090909,4,1,5,45,0,0
246617,-105.263157894737,4,1,5,45,0,0
246692,-90.9090909090909,4,1,5,45,0,0
249017,-90.9090909090909,4,1,5,50,0,0
249167,-90.9090909090909,4,1,5,40,0,0
249467,-90.9090909090909,4,1,5,45,0,0
250517,-90.9090909090909,4,1,5,53,0,0
250817,-100,4,1,5,60,0,1
250892,-100,4,2,0,60,0,1
270017,-133.333333333333,4,2,0,40,0,0
278717,-133.333333333333,4,2,0,42,0,0
279617,-133.333333333333,4,2,0,45,0,0
288917,-100,4,2,0,47,0,0
289217,-100,4,2,0,50,0,1
289292,-100,4,1,0,50,0,1
308417,-133.333333333333,4,2,0,55,0,0
312617,-100,4,2,0,40,0,0
313217,-100,4,2,0,50,0,1
313292,-100,4,2,0,50,0,0

[Colours]
Combo1 : 255,128,128
Combo2 : 255,0,0
Combo3 : 126,126,1
Combo4 : 55,0,0
Combo5 : 101,236,19

[HitObjects]
72,120,17,6,0,P|124:144|164:136,1,80,4|0,0:0|0:0,0:0:0:0:
232,64,317,1,0,0:0:0:0:
291,225,467,2,0,P|251:189|247:149,1,80,0|8,0:0|0:0,0:0:0:0:
344,80,767,1,0,0:0:0:0:
488,152,917,2,0,P|432:152|400:136,1,80
370,248,1217,5,0,0:0:0:0:
344,80,1367,1,0,0:0:0:0:
245,165,1517,1,2,0:0:0:0:
484,244,1667,1,0,0:0:0:0:
392,328,1817,2,0,P|328:320|296:288,1,80,8|2,0:0|0:0,0:0:0:0:
262,168,2117,2,0,P|301:166|337:183,1,80
368,352,2417,2,0,P|317:312|306:268,1,80
420,112,2717,6,0,P|444:156|424:204,2,80,0|0|8,0:0|0:0|0:0,0:0:0:0:
304,36,3167,1,0,0:0:0:0:
262,168,3317,2,0,P|206:156|182:124,1,80
212,312,3617,6,0,P|175:268|176:228,1,80
296,244,3917,1,2,0:0:0:0:
380,348,4067,1,0,0:0:0:0:
388,144,4217,1,8,0:0:0:0:
388,144,4292,1,0,0:0:0:0:
388,144,4367,1,2,0:0:0:0:
480,276,4517,2,0,P|436:252|420:212,1,80
184,176,4817,6,0,L|288:176,1,80,4|0,0:0|0:0,0:0:0:0:
132,264,5117,1,0,0:0:0:0:
92,112,5267,1,0,0:0:0:0:
243,271,5417,1,8,0:0:0:0:
48,196,5567,1,0,0:0:0:0:
184,176,5717,2,0,P|244:160|280:132,1,80
372,256,6017,6,0,P|416:276|464:272,2,80,0|0|2,0:0|0:0|0:0,0:0:0:0:
432,160,6467,1,0,0:0:0:0:
320,88,6617,1,8,0:0:0:0:
320,88,6692,1,0,0:0:0:0:
320,88,6767,1,2,0:0:0:0:
132,56,6917,2,0,L|224:64,1,80
492,56,7217,2,0,L|400:64,1,80
288,216,7517,6,0,P|244:192|192:200,2,80,0|0|8,0:0|0:0|0:0,0:0:0:0:
376,300,7967,1,0,0:0:0:0:
260,328,8117,2,0,L|164:312,1,80
56,208,8417,6,0,P|112:200|140:156,1,80
72,84,8717,1,2,0:0:0:0:
184,36,8867,2,0,L|272:60,1,80,0|8,0:0|0:0,0:0:0:0:
288,72,9092,1,0,0:0:0:0:
312,92,9167,1,2,0:0:0:0:
396,244,9317,1,0,0:0:0:0:
436,64,9467,1,0,0:0:0:0:
472,284,9617,6,0,P|438:319|379:328,1,80,4|0,0:0|0:0,0:0:0:0:
300,312,9917,1,0,0:0:0:0:
380,160,10067,2,0,P|343:174|317:205,1,80,0|8,0:0|0:0,0:0:0:0:
188,220,10367,5,0,0:0:0:0:
104,124,10517,1,0,0:0:0:0:
32,248,10667,1,0,0:0:0:0:
84,100,10817,1,0,0:0:0:0:
216,72,10967,2,0,L|304:72,1,80,0|2,0:0|0:0,0:0:0:0:
380,160,11267,1,0,0:0:0:0:
280,280,11417,6,0,P|328:258|344:234,1,80,8|2,0:0|0:0,0:0:0:0:
456,36,11717,2,0,P|411:57|388:104,1,80
464,292,12017,2,0,P|463:242|431:200,1,80
220,72,12317,5,0,0:0:0:0:
128,212,12467,1,0,0:0:0:0:
136,96,12617,1,8,0:0:0:0:
44,240,12767,1,0,0:0:0:0:
232,64,12917,2,0,P|288:56|328:68,1,80
404,181,13217,6,0,P|348:189|308:177,1,80
212,156,13517,1,2,0:0:0:0:
336,304,13667,2,0,P|296:292|260:248,2,80,0|8|2,0:0|0:0|0:0,0:0:0:0:
464,280,14117,1,0,0:0:0:0:
312,88,14267,1,0,0:0:0:0:
404,181,14417,6,0,L|496:149,2,80,4|0|0,0:0|0:0|0:0,0:0:0:0:
288,180,14867,2,0,L|192:136,1,80,0|8,0:0|0:0,0:0:0:0:
108,88,15167,1,0,0:0:0:0:
60,240,15317,1,0,0:0:0:0:
152,176,15467,1,0,0:0:0:0:
32,56,15617,1,0,0:0:0:0:
152,264,15767,6,0,L|240:292,1,80,0|2,0:0|0:0,0:0:0:0:
312,208,16067,1,0,0:0:0:0:
368,332,16217,1,8,0:0:0:0:
400,320,16292,1,0,0:0:0:0:
424,292,16367,1,2,0:0:0:0:
492,168,16517,2,0,L|404:212,1,80
348,56,16817,2,0,L|348:136,1,80
128,268,17117,6,0,P|88:276|32:240,2,80,0|0|8,0:0|0:0|0:0,0:0:0:0:
252,224,17567,1,0,0:0:0:0:
196,124,17717,2,0,L|120:56,1,80
112,189,18017,6,0,L|132:289,1,80
216,344,18317,1,2,0:0:0:0:
252,224,18467,2,0,L|360:260,1,80,0|8,0:0|0:0,0:0:0:0:
327,249,18692,1,0,0:0:0:0:
327,249,18767,1,2,0:0:0:0:
400,116,18917,1,8,0:0:0:0:
132,24,19067,1,8,0:0:0:0:
252,224,19217,6,0,P|213:247|144:240,1,83.9999974365235,4|0,0:0|0:0,0:0:0:0:
56,184,19517,1,2,0:0:0:0:
172,108,19667,2,0,L|292:108,1,83.9999974365235,0|12,0:0|0:0,0:0:0:0:
360,188,19967,1,0,0:0:0:0:
472,56,20117,2,0,L|380:112,1,83.9999974365235,2|0,0:0|0:0,0:0:0:0:
360,188,20417,1,4,0:0:0:0:
188,252,20567,5,8,0:0:0:0:
44,176,20717,1,2,0:0:0:0:
136,324,20867,1,0,0:0:0:0:
112,124,21017,2,0,P|168:140|216:124,1,83.9999974365235,12|0,0:0|0:0,0:0:0:0:
248,20,21317,2,0,P|304:60|316:108,1,83.9999974365235,2|0,0:0|0:0,0:0:0:0:
332,160,21542,1,0,0:0:0:0:
332,160,21617,6,0,L|236:224,1,83.9999974365235,4|0,0:0|0:0,0:0:0:0:
168,280,21917,1,2,0:0:0:0:
288,316,22067,2,0,L|392:328,1,83.9999974365235,0|12,0:0|0:0,0:0:0:0:
448,224,22367,1,0,0:0:0:0:
332,160,22517,2,0,P|256:148|224:156,1,83.9999974365235,2|0,0:0|0:0,0:0:0:0:
24,300,22817,6,0,P|100:312|132:304,1,83.9999974365235,4|8,0:0|0:0,0:0:0:0:
212,224,23117,1,2,0:0:0:0:
116,76,23267,1,0,0:0:0:0:
76,232,23417,1,12,0:0:0:0:
208,60,23567,1,0,0:0:0:0:
292,176,23717,1,2,0:0:0:0:
320,192,23792,1,0,0:0:0:0:
361,200,23867,1,0,0:0:0:0:
402,200,23942,1,0,0:0:0:0:
432,188,24017,6,0,P|480:140|476:92,1,83.9999974365235,4|0,0:0|0:0,0:0:0:0:
368,56,24317,1,2,0:0:0:0:
292,176,24467,2,0,L|232:272,1,83.9999974365235,0|12,0:0|0:0,0:0:0:0:
300,352,24767,2,0,P|356:360|408:332,2,83.9999974365235,0|2|0,0:0|0:0|0:0,0:0:0:0:
168,328,25217,1,4,0:0:0:0:
56,192,25367,5,8,0:0:0:0:
152,56,25517,1,2,0:0:0:0:
72,200,25667,1,0,0:0:0:0:
260,144,25817,2,0,L|360:116,1,83.9999974365235,12|0,0:0|0:0,0:0:0:0:
328,244,26117,2,0,L|420:316,1,83.9999974365235,2|0,0:0|0:0,0:0:0:0:
452,232,26342,1,0,0:0:0:0:
452,232,26417,6,0,P|476:160|464:124,1,83.9999974365235,4|0,0:0|0:0,0:0:0:0:
384,53,26717,2,0,P|341:115|342:153,2,83.9999974365235,2|0|12,0:0|0:0|0:0,0:0:0:0:
220,112,27167,1,0,0:0:0:0:
64,32,27317,1,2,0:0:0:0:
152,208,27467,1,0,0:0:0:0:
152,208,27542,1,0,0:0:0:0:
152,208,27617,6,0,P|200:240|256:232,1,83.9999974365235,4|8,0:0|0:0,0:0:0:0:
312,160,27917,1,2,0:0:0:0:
376,328,28067,1,0,0:0:0:0:
392,104,28217,1,12,0:0:0:0:
304,288,28367,1,0,0:0:0:0:
424,208,28517,1,10,0:0:0:0:
456,196,28592,1,8,0:0:0:0:
484,176,28667,1,8,0:0:0:0:
500,148,28742,1,8,0:0:0:0:
508,116,28817,6,0,B|516:56|516:56|468:68,1,83.9999974365235,8|2,0:0|0:0,0:0:0:0:
392,104,29117,1,4,0:0:0:0:
325,52,29267,2,0,L|407:115,1,83.9999974365235,0|8,0:0|0:0,0:0:0:0:
296,172,29567,1,2,0:0:0:0:
192,80,29717,2,0,P|140:112|132:164,2,83.9999974365235,4|0|0,0:0|0:0|0:0,0:0:0:0:
104,224,30167,5,10,0:0:0:0:
260,320,30317,1,4,0:0:0:0:
208,156,30467,1,0,0:0:0:0:
344,256,30617,2,0,P|396:240|416:196,1,83.9999974365235,8|2,0:0|0:0,0:0:0:0:
376,108,30917,2,0,P|324:124|304:168,1,83.9999974365235,4|0,0:0|0:0,0:0:0:0:
468,116,31217,6,0,P|506:77|503:29,1,83.9999974365235,0|2,0:0|0:0,0:0:0:0:
376,108,31517,1,4,0:0:0:0:
212,32,31667,2,0,P|276:44|304:60,2,83.9999974365235,0|8|2,0:0|0:0|0:0,0:0:0:0:
144,136,32117,2,0,L|44:176,1,83.9999974365235,4|0,0:0|0:0,0:0:0:0:
224,208,32417,6,0,L|304:272,1,83.9999974365235,0|10,0:0|0:0,0:0:0:0:
144,328,32717,1,4,0:0:0:0:
66,167,32867,1,0,0:0:0:0:
64,368,33017,1,8,0:0:0:0:
140,236,33167,1,2,0:0:0:0:
275,299,33317,2,0,L|299:233,1,41.9999987182618,4|0,0:0|0:0,0:0:0:0:
368,248,33467,2,0,L|344:176,1,41.9999987182618
276,180,33617,6,0,P|228:152|200:96,1,83.9999974365235,0|2,0:0|0:0,0:0:0:0:
320,56,33917,1,4,0:0:0:0:
416,144,34067,2,0,P|472:144|512:116,2,83.9999974365235,0|8|2,0:0|0:0|0:0,0:0:0:0:
430,294,34517,2,0,P|382:274|366:242,1,83.9999974365235,4|0,0:0|0:0,0:0:0:0:
304,144,34817,1,0,0:0:0:0:
224,256,34967,5,10,0:0:0:0:
52,304,35117,1,4,0:0:0:0:
248,272,35267,1,0,0:0:0:0:
116,168,35417,2,0,P|152:132|200:120,1,83.9999974365235,8|2,0:0|0:0,0:0:0:0:
264,12,35717,2,0,P|304:44|308:88,1,83.9999974365235,4|0,0:0|0:0,0:0:0:0:
288,180,36017,5,14,0:0:0:0:
288,180,36092,1,0,0:0:0:0:
288,180,36167,1,0,0:0:0:0:
288,180,36242,1,0,0:0:0:0:
316,203,36317,1,0,0:0:0:0:
351,213,36392,1,0,0:0:0:0:
386,201,36467,1,0,0:0:0:0:
410,173,36542,1,0,0:0:0:0:
420,137,36617,6,0,L|412:77,1,46.0000008773804
303,28,36767,2,0,L|311:80,1,46.0000008773804
205,149,36917,2,0,L|250:140,1,46.0000008773804
323,224,37067,2,0,L|253:242,1,46.0000008773804
152,268,37217,5,14,0:0:0:0:
136,234,37292,1,0,0:0:0:0:
111,206,37367,1,0,0:0:0:0:
76,193,37442,1,0,0:0:0:0:
39,187,37517,1,0,0:0:0:0:
56,154,37592,1,0,0:0:0:0:
59,117,37667,1,0,0:0:0:0:
51,81,37742,1,0,0:0:0:0:
34,48,37817,6,0,L|94:48,3,46.0000008773804
152,107,38117,2,0,L|228:151,3,46.0000008773804
243,41,38417,5,8,0:0:0:0:
271,45,38492,1,8,0:0:0:0:
299,49,38567,1,8,0:0:0:0:
327,53,38642,1,0,0:0:0:0:
355,57,38717,2,0,L|419:65,1,46.0000008773804
432,176,38867,5,0,0:0:0:0:
432,176,38942,1,0,0:0:0:0:
432,176,39017,2,0,L|460:240,1,46.0000008773804
328,220,39167,1,0,0:0:0:0:
328,220,39242,1,0,0:0:0:0:
328,220,39317,2,0,L|280:280,1,46.0000008773804
200,200,39467,2,0,L|132:220,1,46.0000008773804
132,104,39617,5,8,0:0:0:0:
92,112,39692,1,8,0:0:0:0:
56,136,39767,1,8,0:0:0:0:
32,172,39842,1,8,0:0:0:0:
20,212,39917,2,0,B|8:268|48:308,1,92.0000017547608,4|0,0:0|0:0,0:0:0:0:
184,340,40217,6,0,L|248:312,3,46.0000008773804,8|8|8|0,0:0|0:0|0:0|0:0,0:0:0:0:
316,332,40517,1,0,0:0:0:0:
365,331,40592,1,0,0:0:0:0:
413,311,40667,1,8,0:0:0:0:
446,271,40742,1,8,0:0:0:0:
460,216,40817,6,0,L|460:112,1,100,6|8,0:0|0:0,0:0:0:0:
336,44,41117,2,0,P|280:72|260:108,1,100,2|8,0:0|0:0,0:0:0:0:
144,208,41417,2,0,P|200:236|240:232,1,100,2|8,0:0|0:0,0:0:0:0:
140,56,41717,1,2,0:0:0:0:
124,76,41792,1,0,0:0:0:0:
108,96,41867,1,8,0:0:0:0:
92,116,41942,1,0,0:0:0:0:
76,136,42017,6,0,L|4:220,1,100,2|8,0:0|0:0,0:0:0:0:
100,308,42317,1,2,0:0:0:0:
124,328,42392,1,0,0:0:0:0:
152,336,42467,1,8,0:0:0:0:
262,182,42617,1,2,0:0:0:0:
243,205,42692,1,0,0:0:0:0:
235,233,42767,1,8,0:0:0:0:
332,312,42917,2,0,L|404:364,1,50,2|0,0:0|0:0,0:0:0:0:
436,304,43067,2,0,L|516:316,1,50,8|0,0:0|0:0,0:0:0:0:
472,228,43217,6,0,P|492:176|436:120,1,100,2|8,0:0|0:0,0:0:0:0:
320,56,43517,1,2,0:0:0:0:
320,56,43592,1,0,0:0:0:0:
320,56,43667,1,8,0:0:0:0:
224,144,43817,1,0,0:0:0:0:
376,192,43967,1,8,0:0:0:0:
140,52,44117,1,2,0:0:0:0:
266,252,44267,1,8,0:0:0:0:
127,171,44417,6,0,L|251:135,1,100,2|8,0:0|0:0,0:0:0:0:
92,264,44717,2,0,L|-8:220,1,100,2|8,0:0|0:0,0:0:0:0:
216,252,45017,2,0,L|296:252,3,50,2|0|8|0,0:0|0:0|0:0|0:0,0:0:0:0:
340,304,45317,2,0,L|380:260,1,50,2|0,0:0|0:0,0:0:0:0:
480,268,45467,2,0,L|444:196,1,50,8|0,0:0|0:0,0:0:0:0:
496,140,45617,6,0,L|388:132,1,100,6|8,0:0|0:0,0:0:0:0:
144,48,45917,2,0,L|252:56,1,100,2|8,0:0|0:0,0:0:0:0:
272,84,46142,1,0,0:0:0:0:
284,120,46217,1,2,0:0:0:0:
284,160,46292,1,0,0:0:0:0:
272,200,46367,1,8,0:0:0:0:
160,280,46517,2,0,L|96:244,3,50,2|0|8|0,0:0|0:0|0:0|0:0,0:0:0:0:
100,220,46817,6,0,P|124:168|92:112,1,100,2|8,0:0|0:0,0:0:0:0:
88,104,47042,1,0,0:0:0:0:
88,104,47117,2,0,L|208:104,1,100,2|8,0:0|0:0,0:0:0:0:
228,92,47342,1,0,0:0:0:0:
264,72,47417,1,2,0:0:0:0:
276,188,47567,1,8,0:0:0:0:
276,188,47642,1,0,0:0:0:0:
276,188,47717,2,0,L|196:228,1,50,2|0,0:0|0:0,0:0:0:0:
278,305,47867,2,0,L|324:284,1,50,8|0,0:0|0:0,0:0:0:0:
372,208,48017,6,0,L|488:188,1,100,2|8,0:0|0:0,0:0:0:0:
504,164,48242,1,0,0:0:0:0:
504,164,48317,2,0,P|516:116|456:64,1,100,2|8,0:0|0:0,0:0:0:0:
356,32,48617,2,0,L|280:32,2,50,2|0|8,0:0|0:0|0:0,0:0:0:0:
292,168,48917,1,2,0:0:0:0:
244,188,48992,1,0,0:0:0:0:
196,180,49067,1,8,0:0:0:0:
64,68,49217,6,0,P|112:52|176:92,1,100,2|8,0:0|0:0,0:0:0:0:
100,164,49517,2,0,P|78:210|6:229,1,100,2|8,0:0|0:0,0:0:0:0:
172,288,49817,1,10,0:0:0:0:
172,288,49892,1,8,0:0:0:0:
172,288,49967,1,8,0:0:0:0:
244,188,50117,1,10,0:0:0:0:
292,220,50192,1,8,0:0:0:0:
348,236,50267,1,8,0:0:0:0:
408,240,50342,1,8,0:0:0:0:
464,228,50417,6,0,P|512:192|512:148,1,80,6|0,0:0|0:0,0:0:0:0:
428,104,50717,2,0,L|336:104,1,80,2|0,0:0|0:0,0:0:0:0:
368,195,51017,2,0,L|262:229,1,80,8|0,0:0|0:0,0:0:0:0:
232,120,51317,2,0,L|188:84,3,40
160,96,51617,6,0,P|108:104|72:140,1,80,2|0,0:0|0:0,0:0:0:0:
36,216,51917,2,0,L|136:216,1,80,2|0,0:0|0:0,0:0:0:0:
164,312,52217,2,0,P|216:292|240:248,1,80,8|0,0:0|0:0,0:0:0:0:
304,192,52517,1,0,0:0:0:0:
328,184,52592,1,0,0:0:0:0:
352,180,52667,1,0,0:0:0:0:
376,180,52742,1,0,0:0:0:0:
400,184,52817,6,0,L|484:200,1,80,6|0,0:0|0:0,0:0:0:0:
464,108,53042,1,0,0:0:0:0:
464,108,53117,2,0,P|412:92|392:48,1,80,2|0,0:0|0:0,0:0:0:0:
324,20,53342,1,0,0:0:0:0:
324,20,53417,2,0,P|272:48|272:96,1,80,8|0,0:0|0:0,0:0:0:0:
152,132,53717,6,0,P|200:152|244:136,1,80
225,146,53942,1,0,0:0:0:0:
225,146,54017,1,2,0:0:0:0:
324,232,54167,1,0,0:0:0:0:
412,108,54317,1,2,0:0:0:0:
364,312,54467,1,0,0:0:0:0:
318,125,54617,2,0,L|254:49,1,80,8|0,0:0|0:0,0:0:0:0:
324,232,54917,5,8,0:0:0:0:
296,248,54992,1,8,0:0:0:0:
268,260,55067,1,8,0:0:0:0:
236,268,55142,1,8,0:0:0:0:
196,272,55217,6,0,L|84:272,1,100,6|8,0:0|0:0,0:0:0:0:
0,152,55517,2,0,L|116:152,1,100,2|8,0:0|0:0,0:0:0:0:
132,132,55742,2,0,L|200:188,3,50,0|2|0|8,0:0|0:0|0:0|0:0,0:0:0:0:
268,260,56117,2,0,L|304:332,1,50,2|0,0:0|0:0,0:0:0:0:
368,268,56267,2,0,L|428:288,1,50,8|0,0:0|0:0,0:0:0:0:
412,196,56417,6,0,L|560:204,1,100,2|8,0:0|0:0,0:0:0:0:
320,152,56717,2,0,L|220:68,1,100,2|8,0:0|0:0,0:0:0:0:
204,72,56942,1,0,0:0:0:0:
164,68,57017,1,2,0:0:0:0:
72,204,57167,1,8,0:0:0:0:
72,204,57242,1,0,0:0:0:0:
72,204,57317,2,0,L|121:195,1,50,2|0,0:0|0:0,0:0:0:0:
68,284,57467,2,0,L|18:292,1,50,8|0,0:0|0:0,0:0:0:0:
116,352,57617,6,0,L|229:331,1,100,2|8,0:0|0:0,0:0:0:0:
256,200,57917,2,0,P|317:240|327:291,1,100,2|8,0:0|0:0,0:0:0:0:
153,226,58217,1,2,0:0:0:0:
121,194,58292,1,0,0:0:0:0:
105,150,58367,1,8,0:0:0:0:
232,84,58517,2,0,P|304:72|344:92,1,100,2|8,0:0|0:0,0:0:0:0:
360,112,58742,1,0,0:0:0:0:
384,152,58817,5,2,0:0:0:0:
325,262,58967,1,8,0:0:0:0:
480,96,59117,1,2,0:0:0:0:
456,260,59267,1,8,0:0:0:0:
268,172,59417,2,0,L|208:172,2,50,10|8|8,0:0|0:0|0:0,0:0:0:0:
325,262,59717,1,10,0:0:0:0:
273,294,59792,1,8,0:0:0:0:
213,302,59867,1,8,0:0:0:0:
153,290,59942,1,8,0:0:0:0:
113,254,60017,6,0,L|41:166,1,80,4|2,0:0|0:0,0:0:0:0:
116,84,60317,2,0,P|64:72|48:44,2,53.3333333333333,8|2|8,0:0|0:0|0:0,0:0:0:0:
200,56,60617,2,0,P|268:52|308:76,1,80,4|2,0:0|0:0,0:0:0:0:
348,172,60917,2,0,L|416:132,2,53.3333333333333,8|2|8,0:0|0:0|0:0,0:0:0:0:
264,144,61217,2,0,P|232:192|256:236,1,80,4|2,0:0|0:0,0:0:0:0:
300,312,61517,5,8,0:0:0:0:
351,315,61617,1,2,0:0:0:0:
403,300,61717,1,8,0:0:0:0:
449,269,61817,2,0,P|488:234|492:180,1,80,4|2,0:0|0:0,0:0:0:0:
393,144,62117,1,8,0:0:0:0:
373,96,62217,1,2,0:0:0:0:
329,64,62317,1,8,0:0:0:0:
277,52,62417,2,0,L|165:52,1,80,4|8,0:0|0:0,0:0:0:0:
52,184,62717,6,0,P|108:224|144:216,1,80,8|0,0:0|0:0,0:0:0:0:
180,320,63017,2,0,L|260:248,1,80,2|0,0:0|0:0,0:0:0:0:
332,192,63317,2,0,P|276:168|228:184,1,80,8|0,0:0|0:0,0:0:0:0:
348,292,63617,6,0,P|400:320|444:308,1,80,4|8,0:0|0:0,0:0:0:0:
500,228,63917,2,0,P|448:200|404:212,2,80,8|0|2,0:0|0:0|0:0,0:0:0:0:
384,92,64367,2,0,L|284:92,1,80,0|8,0:0|0:0,0:0:0:0:
180,124,64667,1,0,0:0:0:0:
280,204,64817,6,0,L|204:268,1,80,4|2,0:0|0:0,0:0:0:0:
80,240,65117,1,8,0:0:0:0:
56,188,65217,1,2,0:0:0:0:
52,128,65317,1,8,0:0:0:0:
64,72,65417,2,0,B|80:12|80:12|104:28,1,80,4|2,0:0|0:0,0:0:0:0:
180,124,65717,1,8,0:0:0:0:
236,144,65817,1,2,0:0:0:0:
296,144,65917,1,8,0:0:0:0:
352,124,66017,2,0,P|392:104|400:48,1,80,4|2,0:0|0:0,0:0:0:0:
312,28,66317,6,0,L|248:28,2,53.3333333333333,8|2|8,0:0|0:0|0:0,0:0:0:0:
404,72,66617,2,0,P|448:112|448:148,1,80,4|2,0:0|0:0,0:0:0:0:
380,236,66917,2,0,P|428:248|452:240,2,53.3333333333333,8|2|8,0:0|0:0|0:0,0:0:0:0:
284,212,67217,2,0,L|196:268,1,80,4|2,0:0|0:0,0:0:0:0:
104,204,67517,5,8,0:0:0:0:
120,140,67617,1,2,0:0:0:0:
148,84,67717,1,8,0:0:0:0:
192,40,67817,2,0,P|232:12|296:16,1,80,4|0,0:0|0:0,0:0:0:0:
284,104,68117,2,0,P|344:128|396:120,1,80,8|0,0:0|0:0,0:0:0:0:
388,260,68417,6,0,P|328:236|276:244,1,80,4|0,0:0|0:0,0:0:0:0:
200,264,68717,2,0,P|168:248|160:208,2,53.3333333333333,8|0|0,0:0|0:0|0:0,0:0:0:0:
264,344,69017,2,0,P|312:360|348:352,1,80,6|0,0:0|0:0,0:0:0:0:
388,260,69317,2,0,P|432:280|452:328,1,80,8|0,0:0|0:0,0:0:0:0:
280,160,69617,6,0,L|184:160,1,80,4|2,0:0|0:0,0:0:0:0:
128,96,69917,2,0,P|156:68|192:60,2,53.3333333333333,8|2|8,0:0|0:0|0:0,0:0:0:0:
76,184,70217,2,0,P|96:236|144:248,1,80,4|2,0:0|0:0,0:0:0:0:
200,312,70517,1,8,0:0:0:0:
260,296,70617,1,2,0:0:0:0:
312,256,70717,1,8,0:0:0:0:
348,204,70817,2,0,L|392:104,1,80,4|2,0:0|0:0,0:0:0:0:
368,332,71117,6,0,L|440:332,2,53.3333333333333,8|2|8,0:0|0:0|0:0,0:0:0:0:
260,296,71417,2,0,P|244:260|264:204,1,80,4|2,0:0|0:0,0:0:0:0:
176,96,71717,1,8,0:0:0:0:
123,129,71817,1,2,0:0:0:0:
90,182,71917,1,8,0:0:0:0:
77,245,72017,2,0,P|82:289|116:316,1,80,6|0,0:0|0:0,0:0:0:0:
220,324,72317,6,0,L|308:324,1,80,8|0,0:0|0:0,0:0:0:0:
251,221,72617,2,0,L|343:177,1,80,2|0,0:0|0:0,0:0:0:0:
372,280,72917,2,0,L|456:320,1,80,8|0,0:0|0:0,0:0:0:0:
436,204,73217,6,0,P|440:152|404:116,1,80,4|0,0:0|0:0,0:0:0:0:
328,72,73517,1,8,0:0:0:0:
232,136,73667,2,0,L|140:176,1,80,0|2,0:0|0:0,0:0:0:0:
120,68,73967,2,0,L|4:68,2,80,0|8|0,0:0|0:0|0:0,0:0:0:0:
76,168,74417,6,0,P|80:211|134:238,1,80,4|0,0:0|0:0,0:0:0:0:
168,304,74717,2,0,P|148:328|124:340,2,53.3333333333333,8|2|8,0:0|0:0|0:0,0:0:0:0:
196,216,75017,2,0,L|288:172,1,80,4|2,0:0|0:0,0:0:0:0:
348,88,75317,1,8,0:0:0:0:
376,148,75417,1,2,0:0:0:0:
376,212,75517,1,8,0:0:0:0:
352,272,75617,2,0,P|320:308|256:308,1,80,4|2,0:0|0:0,0:0:0:0:
168,304,75917,5,8,0:0:0:0:
112,264,76017,1,2,0:0:0:0:
92,196,76117,1,8,0:0:0:0:
88,128,76217,2,0,L|88:40,1,80,4|2,0:0|0:0,0:0:0:0:
240,160,76517,2,0,L|184:184,2,53.3333333333333,8|2|8,0:0|0:0|0:0,0:0:0:0:
328,112,76817,2,0,P|388:108|416:128,1,80,4|2,0:0|0:0,0:0:0:0:
356,220,77117,5,8,0:0:0:0:
300,264,77217,1,0,0:0:0:0:
232,284,77317,1,0,0:0:0:0:
164,276,77417,2,0,P|112:248|92:208,1,80,2|0,0:0|0:0,0:0:0:0:
140,116,77717,6,0,L|244:116,1,80,12|0,0:0|0:0,0:0:0:0:
336,32,78017,2,0,P|376:56|384:104,1,80,6|0,0:0|0:0,0:0:0:0:
324,208,78317,2,0,L|256:236,2,53.3333333333333,8|0|0,0:0|0:0|0:0,0:0:0:0:
416,220,78617,2,0,P|460:196|488:144,1,80,2|0,0:0|0:0,0:0:0:0:
386,85,78917,2,0,L|302:85,1,80,12|0,0:0|0:0,0:0:0:0:
108,164,79217,6,0,L|188:164,1,80,6|0,0:0|0:0,0:0:0:0:
344,232,79517,1,2,0:0:0:0:
284,276,79617,1,0,0:0:0:0:
212,292,79717,1,0,0:0:0:0:
136,284,79817,2,0,L|40:264,1,80,4|0,0:0|0:0,0:0:0:0:
188,164,80117,2,0,P|157:153|132:124,2,53.3333333333333,2|0|0,0:0|0:0|0:0,0:0:0:0:
236,68,80417,2,0,P|292:68|344:100,1,80,4|0,0:0|0:0,0:0:0:0:
364,240,80717,6,0,L|404:172,2,53.3333333333333,2|0|0,0:0|0:0|0:0,0:0:0:0:
264,308,81017,1,8,0:0:0:0:
141,139,81167,1,8,0:0:0:0:
168,344,81317,1,8,0:0:0:0:
256,84,81467,1,8,0:0:0:0:
116,248,81617,6,0,P|64:236|36:204,1,80,4|0,0:0|0:0,0:0:0:0:
224,224,81917,2,0,P|270:198|288:159,1,80,2|0,0:0|0:0,0:0:0:0:
420,108,82217,1,8,0:0:0:0:
316,12,82367,1,0,0:0:0:0:
256,84,82517,1,2,0:0:0:0:
416,8,82667,1,0,0:0:0:0:
374,215,82817,6,0,B|299:173|299:269|212:217,1,160,2|2,0:0|0:0,0:0:0:0:
128,148,83267,1,2,0:0:0:0:
8,344,83417,2,0,P|72:328|112:232,1,160,8|2,0:0|0:0,0:0:0:0:
128,148,83867,1,8,0:0:0:0:
212,72,84017,6,0,B|264:72|264:72|320:32|320:32|388:32,1,160,4|2,0:0|0:0,0:0:0:0:
424,116,84467,1,0,0:0:0:0:
328,168,84617,2,0,B|288:188|288:188|224:184,1,80,8|0,0:0|0:0,0:0:0:0:
211,72,84917,2,0,P|177:91|152:122,1,80,2|0,0:0|0:0,0:0:0:0:
76,276,85217,6,0,L|172:276,1,80,2|0,0:0|0:0,0:0:0:0:
264,332,85517,1,2,0:0:0:0:
344,132,85667,1,0,0:0:0:0:
400,268,85817,1,8,0:0:0:0:
280,48,85967,6,0,L|168:48,1,80,0|2,0:0|0:0,0:0:0:0:
408,36,86267,1,0,0:0:0:0:
408,36,86342,1,0,0:0:0:0:
408,36,86417,2,0,L|488:88,1,80,4|0,0:0|0:0,0:0:0:0:
345,113,86717,6,0,L|287:190,1,80,2|0,0:0|0:0,0:0:0:0:
369,214,87017,1,8,0:0:0:0:
253,108,87167,1,0,0:0:0:0:
426,153,87317,1,2,0:0:0:0:
222,187,87467,1,0,0:0:0:0:
200,48,87617,6,0,P|140:64|60:16,1,160,2|2,0:0|0:0,0:0:0:0:
47,137,88067,2,0,P|111:169|103:273,1,160,2|2,0:0|0:0,0:0:0:0:
222,187,88517,2,0,P|234:131|282:107,1,80,2|8,0:0|0:0,0:0:0:0:
328,192,88817,6,0,B|448:192|448:192|400:228,1,160,4|2,0:0|0:0,0:0:0:0:
336,312,89267,2,0,B|296:340|296:340|236:288|176:336,1,160,8|0,0:0|0:0,0:0:0:0:
100,249,89717,2,0,L|100:153,1,80,8|0,0:0|0:0,0:0:0:0:
175,76,90017,5,2,0:0:0:0:
320,207,90167,1,8,0:0:0:0:
410,16,90317,1,2,0:0:0:0:
340,236,90467,1,0,0:0:0:0:
447,122,90617,6,0,P|495:142|519:178,1,80,2|0,0:0|0:0,0:0:0:0:
420,236,90917,2,0,L|324:236,1,80,2|0,0:0|0:0,0:0:0:0:
124,320,91217,6,0,L|204:320,1,80,4|0,0:0|0:0,0:0:0:0:
52,240,91517,2,0,P|100:208|96:156,1,80,2|0,0:0|0:0,0:0:0:0:
228,124,91817,1,8,0:0:0:0:
88,48,91967,1,0,0:0:0:0:
224,224,92117,1,2,0:0:0:0:
276,32,92267,1,0,0:0:0:0:
336,156,92417,6,0,P|392:208|472:204,1,160,2|2,0:0|0:0,0:0:0:0:
428,112,92867,1,2,0:0:0:0:
496,40,93017,2,0,P|460:20|396:20,1,80,8|0,0:0|0:0,0:0:0:0:
284,40,93317,1,2,0:0:0:0:
284,40,93392,1,0,0:0:0:0:
284,40,93467,1,8,0:0:0:0:
200,156,93617,6,0,P|260:172|304:160,1,80,4|0,0:0|0:0,0:0:0:0:
112,204,93917,2,0,P|65:244|20:253,1,80,2|0,0:0|0:0,0:0:0:0:
208,272,94217,1,8,0:0:0:0:
208,272,94367,1,0,0:0:0:0:
424,276,94517,6,0,L|332:240,1,80,2|0,0:0|0:0,0:0:0:0:
432,168,94817,2,0,P|380:104|304:100,1,160,2|2,0:0|0:0,0:0:0:0:
212,32,95267,1,0,0:0:0:0:
183,162,95417,6,0,L|83:154,1,80,8|0,0:0|0:0,0:0:0:0:
256,236,95717,1,2,0:0:0:0:
232,256,95792,1,0,0:0:0:0:
204,272,95867,1,0,0:0:0:0:
176,284,95942,1,0,0:0:0:0:
144,292,96017,6,0,P|108:300|48:292,1,80,4|0,0:0|0:0,0:0:0:0:
1,193,96317,2,0,P|37:185|97:193,1,80,2|0,0:0|0:0,0:0:0:0:
148,88,96617,1,8,0:0:0:0:
216,228,96767,1,0,0:0:0:0:
296,36,96917,1,2,0:0:0:0:
128,100,97067,1,0,0:0:0:0:
296,164,97217,6,0,B|336:172|352:128|352:128|404:108|452:172,1,160,2|2,0:0|0:0,0:0:0:0:
456,248,97667,2,0,P|376:272|340:360,1,160,2|2,0:0|0:0,0:0:0:0:
208,304,98117,6,0,L|128:285,1,80,2|8,0:0|0:0,0:0:0:0:
70,165,98417,2,0,B|179:195|179:195|143:154|177:125,1,160,4|2,0:0|0:0,0:0:0:0:
256,92,98867,2,0,P|320:120|336:212,1,160,8|0,0:0|0:0,0:0:0:0:
296,296,99317,2,0,P|337:306|380:292,1,80,8|0,0:0|0:0,0:0:0:0:
440,116,99617,5,8,0:0:0:0:
304,16,99767,1,8,0:0:0:0:
339,202,99917,1,0,0:0:0:0:
412,16,100067,1,0,0:0:0:0:
256,128,100217,2,0,L|164:136,1,80,2|0,0:0|0:0,0:0:0:0:
192,240,100517,2,0,L|92:292,1,80,2|0,0:0|0:0,0:0:0:0:
280,280,100817,6,0,P|376:284|404:256,1,120.000004577637
384,180,101267,2,0,P|456:196|484:248,1,120.000004577637
292,148,101717,2,0,B|228:128|220:52|220:52|148:80|116:160|116:160|48:96,1,360.000013732911,2|0,0:0|0:0,0:0:0:0:
168,256,102917,5,0,0:0:0:0:
168,256,103067,1,0,0:0:0:0:
224,164,103217,2,0,L|356:136,1,120.000004577637,4|0,0:0|0:0,0:0:0:0:
395,66,103667,2,0,P|429:108|424:176,1,120.000004577637
458,245,104117,2,0,B|502:278|502:278|431:295|431:295|374:262|311:294,1,240.000009155274,2|0,0:0|0:0,0:0:0:0:
104,184,105017,5,8,0:0:0:0:
240,56,105167,1,8,0:0:0:0:
200,244,105317,1,8,0:0:0:0:
124,56,105467,1,8,0:0:0:0:
280,160,105617,6,0,L|392:148,1,100,14|2,0:0|0:0,0:0:0:0:
472,56,105917,1,10,0:0:0:0:
500,96,105992,1,0,0:0:0:0:
508,144,106067,1,2,0:0:0:0:
424,260,106217,2,0,L|480:308,2,50,10|0|2,0:0|0:0|0:0,0:0:0:0:
292,252,106517,2,0,L|236:300,1,50,10|0,0:0|0:0,0:0:0:0:
196,224,106667,2,0,L|128:236,1,50,10|0,0:0|0:0,0:0:0:0:
140,152,106817,6,0,L|36:112,1,100,2|10,0:0|0:0,0:0:0:0:
46,116,107042,1,0,0:0:0:0:
46,116,107117,1,2,0:0:0:0:
160,52,107267,1,10,0:0:0:0:
208,40,107342,1,0,0:0:0:0:
256,40,107417,1,2,0:0:0:0:
304,48,107492,1,0,0:0:0:0:
348,68,107567,1,10,0:0:0:0:
260,160,107717,2,0,L|316:192,3,50,2|0|10|0,0:0|0:0|0:0|0:0,0:0:0:0:
320,220,108017,6,0,P|392:232|428:220,1,100,10|2,0:0|0:0,0:0:0:0:
180,252,108317,2,0,P|229:305|265:318,1,100,10|2,0:0|0:0,0:0:0:0:
64,216,108617,2,0,L|72:276,1,50,10|0,0:0|0:0,0:0:0:0:
8,152,108767,2,0,L|0:92,1,50,2|0,0:0|0:0,0:0:0:0:
108,136,108917,1,10,0:0:0:0:
196,32,109067,1,10,0:0:0:0:
196,32,109142,1,0,0:0:0:0:
196,32,109217,6,0,P|260:48|296:88,1,100,2|10,0:0|0:0,0:0:0:0:
216,184,109517,2,0,P|280:200|344:180,1,100,2|10,0:0|0:0,0:0:0:0:
356,168,109742,1,0,0:0:0:0:
388,132,109817,1,2,0:0:0:0:
480,240,109967,1,10,0:0:0:0:
480,240,110042,1,0,0:0:0:0:
480,240,110117,2,0,L|472:300,1,50,2|0,0:0|0:0,0:0:0:0:
384,288,110267,2,0,L|336:332,1,50,10|0,0:0|0:0,0:0:0:0:
256,304,110417,6,0,L|136:304,1,100,14|2,0:0|0:0,0:0:0:0:
92,240,110642,1,0,0:0:0:0:
92,240,110717,2,0,P|136:208|192:204,1,100,10|2,0:0|0:0,0:0:0:0:
308,216,111017,2,0,L|340:160,1,50,10|0,0:0|0:0,0:0:0:0:
416,184,111167,2,0,L|424:96,1,50,2|0,0:0|0:0,0:0:0:0:
344,92,111317,2,0,L|312:28,3,50,10|0|10|0,0:0|0:0|0:0|0:0,0:0:0:0:
280,32,111617,6,0,P|224:32|176:72,1,100,2|10,0:0|0:0,0:0:0:0:
160,96,111842,1,0,0:0:0:0:
148,144,111917,1,2,0:0:0:0:
212,236,112067,2,0,P|285:231|319:205,1,100,10|2,0:0|0:0,0:0:0:0:
364,134,112367,1,10,0:0:0:0:
372,121,112442,1,0,0:0:0:0:
380,108,112517,1,2,0:0:0:0:
426,125,112592,1,0,0:0:0:0:
457,164,112667,1,10,0:0:0:0:
467,212,112742,1,0,0:0:0:0:
455,260,112817,6,0,P|432:304|380:329,1,100,10|2,0:0|0:0,0:0:0:0:
306,218,113117,2,0,L|392:207,2,50,10|0|2,0:0|0:0|0:0,0:0:0:0:
223,317,113417,1,10,0:0:0:0:
167,325,113492,1,0,0:0:0:0:
115,313,113567,1,2,0:0:0:0:
71,281,113642,1,0,0:0:0:0:
47,233,113717,2,0,L|103:181,1,50,10|0,0:0|0:0,0:0:0:0:
100,124,113867,2,0,L|176:128,1,50,10|0,0:0|0:0,0:0:0:0:
221,82,114017,6,0,P|241:127|204:191,1,100,2|10,0:0|0:0,0:0:0:0:
206,218,114242,1,0,0:0:0:0:
206,218,114317,2,0,L|318:218,1,100,2|10,0:0|0:0,0:0:0:0:
384,112,114617,1,10,0:0:0:0:
221,82,114767,1,8,0:0:0:0:
157,90,114842,1,8,0:0:0:0:
105,126,114917,1,8,0:0:0:0:
81,186,114992,1,8,0:0:0:0:
89,250,115067,1,8,0:0:0:0:
125,306,115142,1,8,0:0:0:0:
177,334,115217,6,0,L|277:354,1,92.0000017547608,6|8,0:0|0:0,0:0:0:0:
316,248,115517,2,0,L|268:224,3,46.0000008773804,2|0|8|0,0:0|0:0|0:0|0:0,0:0:0:0:
256,192,115817,2,0,P|244:104|260:88,1,92.0000017547608,2|8,0:0|0:0,0:0:0:0:
352,32,116117,2,0,P|364:120|348:136,1,92.0000017547608,2|8,0:0|0:0,0:0:0:0:
348,192,116342,1,0,0:0:0:0:
348,192,116417,6,0,L|232:192,1,92.0000017547608,2|8,0:0|0:0,0:0:0:0:
220,196,116642,1,0,0:0:0:0:
188,212,116717,1,2,0:0:0:0:
160,236,116792,1,0,0:0:0:0:
144,272,116867,1,8,0:0:0:0:
248,344,117017,2,0,P|296:356|340:336,1,92.0000017547608,2|8,0:0|0:0,0:0:0:0:
416,240,117317,2,0,L|468:236,1,46.0000008773804,2|0,0:0|0:0,0:0:0:0:
348,192,117467,2,0,L|296:196,1,46.0000008773804,8|0,0:0|0:0,0:0:0:0:
412,140,117617,6,0,L|524:132,1,92.0000017547608,2|8,0:0|0:0,0:0:0:0:
424,32,117917,1,2,0:0:0:0:
424,32,117992,1,0,0:0:0:0:
424,32,118067,2,0,L|356:72,1,46.0000008773804,8|0,0:0|0:0,0:0:0:0:
312,8,118217,2,0,L|276:108,1,92.0000017547608,2|8,0:0|0:0,0:0:0:0:
180,176,118517,2,0,P|104:168|80:148,1,92.0000017547608,2|8,0:0|0:0,0:0:0:0:
32,28,118817,6,0,P|108:36|132:56,1,92.0000017547608,2|8,0:0|0:0,0:0:0:0:
191,131,119117,2,0,L|175:191,1,46.0000008773804,2|0,0:0|0:0,0:0:0:0:
264,188,119267,2,0,L|280:248,1,46.0000008773804,8|0,0:0|0:0,0:0:0:0:
184,256,119417,2,0,L|156:358,1,92.0000017547608,2|8,0:0|0:0,0:0:0:0:
300,324,119717,1,8,0:0:0:0:
328,320,119792,1,8,0:0:0:0:
356,316,119867,1,8,0:0:0:0:
384,312,119942,1,8,0:0:0:0:
412,308,120017,6,0,L|512:292,1,92.0000017547608,6|8,0:0|0:0,0:0:0:0:
416,196,120317,2,0,L|376:160,3,46.0000008773804,2|0|8|0,0:0|0:0|0:0|0:0,0:0:0:0:
368,132,120617,2,0,P|359:77|387:37,1,92.0000017547608,2|8,0:0|0:0,0:0:0:0:
264,155,120917,2,0,P|218:153|180:115,1,92.0000017547608,2|8,0:0|0:0,0:0:0:0:
204,84,121142,1,0,0:0:0:0:
204,84,121217,6,0,L|76:84,1,92.0000017547608,2|8,0:0|0:0,0:0:0:0:
28,176,121517,2,0,L|112:244,1,92.0000017547608,2|8,0:0|0:0,0:0:0:0:
140,336,121817,2,0,L|220:272,1,92.0000017547608,2|8,0:0|0:0,0:0:0:0:
316,248,122117,2,0,L|224:152,1,92.0000017547608,2|8,0:0|0:0,0:0:0:0:
408,136,122417,5,14,0:0:0:0:
156,36,122567,1,10,0:0:0:0:
476,60,122717,1,10,0:0:0:0:
252,181,122867,1,10,0:0:0:0:
268,16,123017,5,14,0:0:0:0:
211,278,123167,1,10,0:0:0:0:
380,20,123317,1,10,0:0:0:0:
136,204,123467,1,10,0:0:0:0:
388,236,123617,6,10,P|328:256|284:244,1,100,14|10,0:0|0:0,0:0:0:0:
112,344,123917,2,10,P|61:306|45:263,1,100
260,88,124217,6,10,L|384:88,1,100,14|10,0:0|0:0,0:0:0:0:
100,138,124517,2,10,L|-16:138,1,100
208,180,124817,6,0,P|236:220|212:280,1,92.0000017547608,6|8,0:0|0:0,0:0:0:0:
334,304,125117,2,0,L|384:296,3,46.0000008773804,2|0|8|0,0:0|0:0|0:0|0:0,0:0:0:0:
424,320,125417,2,0,P|468:288|460:232,1,92.0000017547608,2|8,0:0|0:0,0:0:0:0:
456,220,125642,1,0,0:0:0:0:
432,192,125717,1,2,0:0:0:0:
408,168,125792,1,0,0:0:0:0:
380,152,125867,1,8,0:0:0:0:
348,144,125942,1,0,0:0:0:0:
316,144,126017,6,0,L|212:144,1,92.0000017547608,2|8,0:0|0:0,0:0:0:0:
256,272,126317,2,0,L|140:220,1,92.0000017547608,2|8,0:0|0:0,0:0:0:0:
140,212,126542,1,0,0:0:0:0:
116,180,126617,2,0,P|96:136|112:68,1,92.0000017547608,2|8,0:0|0:0,0:0:0:0:
192,28,126917,2,0,L|296:28,1,92.0000017547608,2|8,0:0|0:0,0:0:0:0:
480,36,127217,6,0,L|360:36,1,92.0000017547608,2|8,0:0|0:0,0:0:0:0:
336,128,127517,1,2,0:0:0:0:
336,128,127592,1,0,0:0:0:0:
336,128,127667,2,0,L|300:168,1,46.0000008773804,8|0,0:0|0:0,0:0:0:0:
388,208,127817,2,0,L|464:276,1,92.0000017547608,2|8,0:0|0:0,0:0:0:0:
324,300,128117,2,0,P|276:312|220:288,1,92.0000017547608,2|8,0:0|0:0,0:0:0:0:
188,240,128342,1,0,0:0:0:0:
188,240,128417,6,0,P|214:198|210:137,1,92.0000017547608,2|8,0:0|0:0,0:0:0:0:
132,12,128717,2,0,P|106:54|110:115,1,92.0000017547608,2|8,0:0|0:0,0:0:0:0:
216,156,129017,2,0,L|316:128,1,92.0000017547608,2|8,0:0|0:0,0:0:0:0:
344,32,129317,1,8,0:0:0:0:
390,60,129392,1,8,0:0:0:0:
418,107,129467,1,8,0:0:0:0:
421,162,129542,1,8,0:0:0:0:
408,216,129617,6,0,L|508:216,1,92.0000017547608,6|8,0:0|0:0,0:0:0:0:
300,232,129917,2,0,L|264:288,1,46.0000008773804,2|0,0:0|0:0,0:0:0:0:
196,248,130067,2,0,L|136:268,1,46.0000008773804,8|0,0:0|0:0,0:0:0:0:
76,260,130217,2,0,L|-4:208,1,92.0000017547608,2|8,0:0|0:0,0:0:0:0:
128,152,130517,1,2,0:0:0:0:
168,124,130592,1,0,0:0:0:0:
180,76,130667,1,8,0:0:0:0:
344,28,130817,6,0,P|400:20|428:24,2,46.0000008773804,2|0|8,0:0|0:0|0:0,0:0:0:0:
280,128,131117,2,0,P|328:156|396:156,1,92.0000017547608,2|8,0:0|0:0,0:0:0:0:
476,232,131417,1,2,0:0:0:0:
448,280,131492,1,0,0:0:0:0:
400,312,131567,1,12,0:0:0:0:
300,244,131717,6,0,B|232:244|232:244|180:276,1,92.0000017547608,6|0,0:0|0:0,0:0:0:0:
92,312,132017,2,0,L|92:208,1,92.0000017547608,14|0,0:0|0:0,0:0:0:0:
116,168,132242,1,0,0:0:0:0:
156,128,132317,1,2,0:0:0:0:
176,76,132392,1,0,0:0:0:0:
156,24,132467,1,0,0:0:0:0:
104,4,132542,1,0,0:0:0:0:
52,24,132617,1,2,0:0:0:0:
28,76,132692,1,0,0:0:0:0:
48,128,132767,1,0,0:0:0:0:
100,152,132842,1,0,0:0:0:0:
156,148,132917,6,0,L|256:148,1,92.0000017547608,14|0,0:0|0:0,0:0:0:0:
300,40,133217,2,0,L|396:104,1,92.0000017547608,6|0,0:0|0:0,0:0:0:0:
420,132,133442,1,0,0:0:0:0:
432,192,133517,1,2,0:0:0:0:
412,248,133592,1,0,0:0:0:0:
364,284,133667,1,0,0:0:0:0:
304,288,133742,1,0,0:0:0:0:
248,268,133817,1,2,0:0:0:0:
224,212,133892,1,0,0:0:0:0:
176,176,133967,1,0,0:0:0:0:
116,172,134042,1,0,0:0:0:0:
64,200,134117,6,0,P|32:240|52:304,1,92.0000017547608,14|0,0:0|0:0,0:0:0:0:
128,384,134417,2,0,P|160:344|140:280,1,92.0000017547608,6|0,0:0|0:0,0:0:0:0:
240,224,134717,1,2,0:0:0:0:
296,196,134792,1,0,0:0:0:0:
324,140,134867,1,0,0:0:0:0:
316,76,134942,1,0,0:0:0:0:
268,36,135017,6,0,L|384:36,1,92.0000017547608,6|0,0:0|0:0,0:0:0:0:
200,96,135317,2,0,L|108:152,1,92.0000017547608,2|0,0:0|0:0,0:0:0:0:
136,28,135617,2,0,L|20:28,1,92.0000017547608,4|0,0:0|0:0,0:0:0:0:
121,143,135917,5,8,0:0:0:0:
316,76,136067,1,8,0:0:0:0:
120,248,136217,1,8,0:0:0:0:
272,0,136367,1,8,0:0:0:0:
224,288,136517,1,8,0:0:0:0:
408,48,136667,1,8,0:0:0:0:
191,181,136817,6,0,L|111:137,1,80,4|0,0:0|0:0,0:0:0:0:
281,166,137117,2,0,L|361:122,1,80,2|0,0:0|0:0,0:0:0:0:
236,48,137417,1,8,0:0:0:0:
324,260,137567,1,0,0:0:0:0:
191,181,137717,1,2,0:0:0:0:
416,223,137867,1,0,0:0:0:0:
364,104,138017,6,0,P|288:68|208:88,1,160,2|2,0:0|0:0,0:0:0:0:
280,176,138467,1,2,0:0:0:0:
192,256,138617,2,0,P|268:292|348:272,1,160,8|2,0:0|0:0,0:0:0:0:
280,176,139067,1,8,0:0:0:0:
164,156,139217,6,0,B|116:165|76:132|76:132|84:171|60:224,1,160,4|2,0:0|0:0,0:0:0:0:
108,316,139667,1,0,0:0:0:0:
192,256,139817,2,0,P|245:256|279:275,1,80,8|0,0:0|0:0,0:0:0:0:
367,303,140117,2,0,P|385:267|388:228,1,80,2|0,0:0|0:0,0:0:0:0:
324,40,140417,6,0,P|306:76|303:115,1,80,2|0,0:0|0:0,0:0:0:0:
208,172,140717,1,2,0:0:0:0:
91,90,140867,1,0,0:0:0:0:
192,256,141017,1,8,0:0:0:0:
230,80,141167,6,0,L|322:124,1,80,0|2,0:0|0:0,0:0:0:0:
404,40,141467,1,0,0:0:0:0:
404,40,141542,1,0,0:0:0:0:
404,40,141617,2,0,P|432:80|420:128,1,80,4|0,0:0|0:0,0:0:0:0:
364,228,141917,5,2,0:0:0:0:
252,60,142067,1,0,0:0:0:0:
252,268,142217,1,8,0:0:0:0:
372,92,142367,1,0,0:0:0:0:
164,168,142517,1,2,0:0:0:0:
388,216,142667,1,0,0:0:0:0:
224,60,142817,6,2,B|160:80|112:40|112:40|76:104,1,160
120,180,143267,2,2,P|176:200|280:156,1,160
335,83,143717,2,0,L|439:119,1,80,2|8,0:0|0:0,0:0:0:0:
480,193,144017,6,0,B|453:225|449:283|449:283|431:248|383:249,1,160,4|2,0:0|0:0,0:0:0:0:
300,284,144467,2,0,P|233:313|119:286,1,160,8|0,0:0|0:0,0:0:0:0:
120,180,144917,2,0,P|162:190|199:240,1,80,8|0,0:0|0:0,0:0:0:0:
220,104,145217,5,2,0:0:0:0:
115,274,145367,1,8,0:0:0:0:
152,20,145517,1,2,0:0:0:0:
296,248,145667,1,0,0:0:0:0:
379,136,145817,6,0,L|496:138,1,80,2|0,0:0|0:0,0:0:0:0:
357,46,146117,2,0,L|450:-9,1,80,2|0,0:0|0:0,0:0:0:0:
276,92,146417,6,0,P|216:95|182:61,1,80,4|0,0:0|0:0,0:0:0:0:
140,12,146717,2,0,P|104:60|114:107,1,80,2|0,0:0|0:0,0:0:0:0:
211,191,147017,1,8,0:0:0:0:
59,187,147167,1,0,0:0:0:0:
280,115,147317,1,2,0:0:0:0:
134,254,147467,1,0,0:0:0:0:
184,82,147617,6,2,P|236:44|355:38,1,160,0|0,0:0|0:0,0:0:0:0:
438,66,148067,1,0,0:0:0:0:
294,148,148217,2,0,P|350:144|392:121,1,80,8|2,0:0|0:0,0:0:0:0:
450,229,148517,1,2,0:0:0:0:
450,229,148667,1,8,0:0:0:0:
353,294,148817,6,0,P|297:290|255:267,1,80,4|0,0:0|0:0,0:0:0:0:
125,214,149117,1,2,0:0:0:0:
315,140,149267,1,0,0:0:0:0:
166,46,149417,1,8,0:0:0:0:
190,294,149567,1,0,0:0:0:0:
292,173,149717,6,0,L|403:174,1,80,2|0,0:0|0:0,0:0:0:0:
448,240,150017,2,2,P|481:170|442:104,1,160
373,12,150467,1,0,0:0:0:0:
274,67,150617,6,0,L|180:68,1,80,8|0,0:0|0:0,0:0:0:0:
100,31,150917,1,2,0:0:0:0:
81,57,150992,1,0,0:0:0:0:
74,88,151067,1,0,0:0:0:0:
81,119,151142,1,0,0:0:0:0:
100,144,151217,6,0,P|135:174|199:179,1,80,6|0,0:0|0:0,0:0:0:0:
358,142,151517,1,2,0:0:0:0:
271,225,151667,1,0,0:0:0:0:
274,67,151817,1,8,0:0:0:0:
441,172,151967,1,0,0:0:0:0:
263,148,152117,1,2,0:0:0:0:
387,75,152267,1,0,0:0:0:0:
348,236,152417,6,2,B|307:274|307:274|250:225|187:301,1,160
116,209,152867,2,2,P|174:135|153:72,1,160
263,148,153317,6,0,L|374:148,1,80,2|8,0:0|0:0,0:0:0:0:
426,222,153617,2,0,B|465:251|465:251|465:127,1,160,4|2,0:0|0:0,0:0:0:0:
398,62,154067,2,0,B|340:38|340:38|304:73|244:38,1,160,8|0,0:0|0:0,0:0:0:0:
150,149,154517,1,8,0:0:0:0:
150,149,154592,1,0,0:0:0:0:
150,149,154667,1,0,0:0:0:0:
26,37,154817,5,8,0:0:0:0:
177,266,154967,1,8,0:0:0:0:
206,36,155117,1,8,0:0:0:0:
43,237,155267,1,8,0:0:0:0:
271,148,155417,2,0,L|376:147,1,80,2|0,0:0|0:0,0:0:0:0:
333,21,155717,2,0,L|412:70,1,80,2|0,0:0|0:0,0:0:0:0:
460,144,156017,6,0,P|484:192|444:260,1,120.000004577637
374,328,156467,2,0,P|350:280|390:212,1,120.000004577637
343,130,156917,2,0,B|287:86|231:122|231:122|175:102|199:38|199:38|151:70|103:46|103:46|75:98,1,360.000013732911,2|0,0:0|0:0,0:0:0:0:
140,288,158117,5,0,0:0:0:0:
140,288,158267,1,0,0:0:0:0:
224,216,158417,2,0,P|279:239|352:232,1,120.000004577637,4|0,0:0|0:0,0:0:0:0:
428,284,158867,2,0,P|440:224|404:156,1,120.000004577637
300,124,159317,2,0,B|284:72|184:68|184:68|184:12|184:12|108:24|68:44|72:120,1,360.000013732911,2|0,0:0|0:0,0:0:0:0:
184,212,160517,5,0,0:0:0:0:
292,236,160667,1,0,0:0:0:0:
372,172,160817,2,0,P|432:156|500:184,1,120.000004577637,4|0,0:0|0:0,0:0:0:0:
429,236,161267,2,0,B|429:316|429:316|405:296|377:292,1,120.000004577637
304,240,161717,2,0,B|232:308|232:308|196:256|196:224|196:224|284:136|284:136|224:136,1,360.000013732911,2|0,0:0|0:0,0:0:0:0:
40,60,162917,5,0,0:0:0:0:
120,24,163067,1,0,0:0:0:0:
204,52,163217,2,0,B|276:48|276:48|340:64,1,120.000004577637,4|0,0:0|0:0,0:0:0:0:
404,20,163667,2,0,P|420:84|372:136,1,120.000004577637
328,196,164117,2,0,P|364:212|412:212,2,60.0000022888184,2|0|8,0:0|0:0|0:0,0:0:0:0:
84,152,164717,5,8,0:0:0:0:
128,48,164867,1,8,0:0:0:0:
168,180,165017,1,8,0:0:0:0:
232,88,165167,2,8,L|316:88,2,60.0000022888184
68,168,165617,6,0,P|40:224|68:272,1,120.000004577637
144,220,166067,2,0,B|192:220|228:204|228:204|232:240,1,120.000004577637
268,324,166517,2,0,B|320:320|360:288|360:288|408:304|408:304|412:224|496:204|496:204|424:160,1,360.000013732911,2|0,0:0|0:0,0:0:0:0:
284,76,167717,6,0,L|204:80,1,60.0000022888184
140,32,168017,2,0,B|72:56|72:144,1,120.000004577637,4|0,0:0|0:0,0:0:0:0:
148,180,168467,2,0,P|212:196|284:180,1,120.000004577637
344,126,168917,2,0,B|406:88|465:131|465:131|456:204|386:217|386:217|403:258|403:258|362:258|335:296,1,360.000013732911,2|0,0:0|0:0,0:0:0:0:
188,344,170117,6,0,L|132:284,1,60.0000022888184
56,284,170417,2,0,P|96:224|164:208,1,120.000004577637,4|0,0:0|0:0,0:0:0:0:
232,184,170867,2,0,B|224:136|244:100|244:100|204:104|192:92,1,120.000004577637
311,155,171317,2,0,B|352:179|395:170|395:170|428:214|428:214|386:257|416:301|416:301|355:270|288:287,1,360.000013732911,2|0,0:0|0:0,0:0:0:0:
152,184,172517,5,0,0:0:0:0:
152,184,172667,1,0,0:0:0:0:
92,96,172817,2,0,P|156:84|212:100,1,120.000004577637,4|0,0:0|0:0,0:0:0:0:
295,80,173267,2,0,P|298:136|242:180,1,120.000004577637
208,264,173717,1,2,0:0:0:0:
208,264,173867,1,0,0:0:0:0:
112,264,174017,2,0,B|84:240|44:248|44:248|68:168|24:144,1,180.000006866455
120,80,174617,2,0,L|188:80,1,60.0000022888184,8|0,0:0|0:0,0:0:0:0:
281,35,174917,5,8,0:0:0:0:
295,80,174992,1,8,0:0:0:0:
310,125,175067,1,8,0:0:0:0:
324,170,175142,1,8,0:0:0:0:
272,256,175217,6,0,L|246:322,3,50,6|0|10|0,0:0|0:0|0:0|0:0,0:0:0:0:
145,296,175517,2,0,L|89:324,3,50,2|0|10|0,0:0|0:0|0:0|0:0,0:0:0:0:
104,196,175817,6,0,L|16:184,1,50,2|0,0:0|0:0,0:0:0:0:
88,96,175967,2,0,L|0:72,1,50,10|0,0:0|0:0,0:0:0:0:
164,40,176117,2,0,L|240:16,1,50,2|0,0:0|0:0,0:0:0:0:
208,128,176267,2,0,L|264:112,1,50,10|0,0:0|0:0,0:0:0:0:
320,40,176417,5,2,0:0:0:0:
356,24,176492,1,0,0:0:0:0:
396,20,176567,1,10,0:0:0:0:
436,32,176642,1,0,0:0:0:0:
464,60,176717,1,2,0:0:0:0:
476,96,176792,1,0,0:0:0:0:
472,136,176867,1,10,0:0:0:0:
452,172,176942,1,0,0:0:0:0:
464,216,177017,5,2,0:0:0:0:
496,248,177092,1,0,0:0:0:0:
508,292,177167,1,10,0:0:0:0:
500,336,177242,1,0,0:0:0:0:
460,360,177317,1,2,0:0:0:0:
416,352,177392,1,0,0:0:0:0:
388,320,177467,1,10,0:0:0:0:
376,276,177542,1,0,0:0:0:0:
384,232,177617,5,2,0:0:0:0:
384,232,177692,1,0,0:0:0:0:
384,232,177767,2,0,L|348:160,1,50,10|0,0:0|0:0,0:0:0:0:
448,108,177917,1,2,0:0:0:0:
448,108,177992,1,0,0:0:0:0:
448,108,178067,2,0,L|356:108,1,50,10|0,0:0|0:0,0:0:0:0:
360,24,178217,6,0,L|316:56,3,50,2|0|10|0,0:0|0:0|0:0|0:0,0:0:0:0:
228,20,178517,2,0,L|220:80,3,50,2|0|10|0,0:0|0:0|0:0|0:0,0:0:0:0:
88,72,178817,5,2,0:0:0:0:
113,111,178892,1,0,0:0:0:0:
145,144,178967,1,10,0:0:0:0:
183,167,179042,1,0,0:0:0:0:
226,179,179117,1,2,0:0:0:0:
273,175,179192,1,0,0:0:0:0:
314,164,179267,2,0,L|374:140,1,50,10|0,0:0|0:0,0:0:0:0:
376,44,179417,5,2,0:0:0:0:
420,52,179492,1,0,0:0:0:0:
456,80,179567,1,10,0:0:0:0:
472,124,179642,1,0,0:0:0:0:
472,168,179717,1,2,0:0:0:0:
456,212,179792,1,0,0:0:0:0:
424,244,179867,2,0,L|364:292,1,50,10|0,0:0|0:0,0:0:0:0:
293,218,180017,5,6,0:0:0:0:
293,218,180092,1,0,0:0:0:0:
293,218,180167,2,0,L|209:210,1,50,10|0,0:0|0:0,0:0:0:0:
245,137,180317,2,0,L|181:113,1,50,2|0,0:0|0:0,0:0:0:0:
332,96,180467,5,10,0:0:0:0:
332,96,180542,1,0,0:0:0:0:
332,96,180617,2,0,L|396:60,1,50,2|0,0:0|0:0,0:0:0:0:
248,56,180767,2,0,L|272:-8,1,50,10|0,0:0|0:0,0:0:0:0:
160,56,180917,5,2,0:0:0:0:
160,56,180992,1,0,0:0:0:0:
160,56,181067,2,0,L|84:48,1,50,10|0,0:0|0:0,0:0:0:0:
137,162,181217,6,0,L|49:194,5,50,2|0|10|0|2|0,0:0|0:0|0:0|0:0|0:0|0:0,0:0:0:0:
212,200,181667,6,0,L|220:272,5,50,10|0|2|0|10|0,0:0|0:0|0:0|0:0|0:0|0:0,0:0:0:0:
122,261,182117,6,0,L|78:309,3,50,2|0|10|0,0:0|0:0|0:0|0:0,0:0:0:0:
184,332,182417,5,2,0:0:0:0:
208,344,182492,1,0,0:0:0:0:
232,348,182567,1,10,0:0:0:0:
356,264,182717,1,2,0:0:0:0:
332,252,182792,1,0,0:0:0:0:
308,248,182867,1,10,0:0:0:0:
328,352,183017,5,2,0:0:0:0:
362,363,183092,1,0,0:0:0:0:
398,368,183167,1,10,0:0:0:0:
512,280,183317,1,2,0:0:0:0:
477,268,183392,1,0,0:0:0:0:
441,264,183467,1,10,0:0:0:0:
344,148,183617,6,0,L|388:80,2,50,2|0|10,0:0|0:0|0:0,0:0:0:0:
224,208,183917,2,0,L|148:176,2,50,2|0|10,0:0|0:0|0:0,0:0:0:0:
316,312,184217,5,8,0:0:0:0:
316,312,184292,1,8,0:0:0:0:
316,312,184367,1,8,0:0:0:0:
184,336,184517,1,8,0:0:0:0:
120,320,184592,1,8,0:0:0:0:
80,268,184667,1,8,0:0:0:0:
72,204,184742,1,8,0:0:0:0:
88,140,184817,6,0,B|116:8|160:60|160:60|208:20|208:20|248:116|312:120|312:120|316:20|360:72|360:72|416:88,1,500,6|10,0:0|0:0,0:0:0:0:
468,184,185717,1,2,0:0:0:0:
271,215,185867,1,10,0:0:0:0:
492,204,186017,1,2,0:0:0:0:
384,324,186167,2,0,B|304:360|208:316|208:316|272:216|272:216|136:216|128:144|128:144|176:120,1,500,10|2,0:0|0:0,0:0:0:0:
168,100,187067,1,10,0:0:0:0:
296,48,187217,5,2,0:0:0:0:
312,68,187292,1,0,0:0:0:0:
328,88,187367,1,10,0:0:0:0:
344,108,187442,1,0,0:0:0:0:
360,128,187517,2,0,L|400:176,1,50,2|0,0:0|0:0,0:0:0:0:
312,200,187667,2,0,L|284:272,1,50,10|0,0:0|0:0,0:0:0:0:
332,344,187817,6,0,P|388:348|432:324,2,100,2|10|2,0:0|0:0|0:0,0:0:0:0:
208,316,188267,1,10,0:0:0:0:
172,200,188417,2,0,P|168:144|192:100,2,100,2|10|2,0:0|0:0|0:0,0:0:0:0:
293,246,188867,1,10,0:0:0:0:
392,180,189017,2,0,P|432:96|292:120,1,300,2|10,0:0|0:0,0:0:0:0:
124,176,189617,5,6,0:0:0:0:
108,144,189692,1,0,0:0:0:0:
104,108,189767,1,10,0:0:0:0:
112,72,189842,1,0,0:0:0:0:
132,44,189917,2,0,L|240:44,1,100,2|10,0:0|0:0,0:0:0:0:
279,143,190217,6,0,L|223:179,3,50,2|0|10|0,0:0|0:0|0:0|0:0,0:0:0:0:
227,203,190517,2,0,P|167:223|123:203,1,100,2|10,0:0|0:0,0:0:0:0:
128,308,190817,6,0,L|148:368,1,50,2|0,0:0|0:0,0:0:0:0:
224,332,190967,2,0,L|284:372,1,50,10|0,0:0|0:0,0:0:0:0:
344,336,191117,2,0,L|456:336,1,100,2|10,0:0|0:0,0:0:0:0:
389,223,191417,5,2,0:0:0:0:
349,199,191492,1,0,0:0:0:0:
317,167,191567,1,10,0:0:0:0:
293,127,191642,1,0,0:0:0:0:
285,83,191717,2,0,B|285:3|285:3|333:27,1,100,2|10,0:0|0:0,0:0:0:0:
428,136,192017,6,0,L|460:176,3,50,2|0|10|0,0:0|0:0|0:0|0:0,0:0:0:0:
349,199,192317,2,0,L|317:239,3,50,2|0|10|0,0:0|0:0|0:0|0:0,0:0:0:0:
436,256,192617,6,0,L|484:320,1,50,2|0,0:0|0:0,0:0:0:0:
360,320,192767,2,0,L|364:380,1,50,10|0,0:0|0:0,0:0:0:0:
256,312,192917,2,0,L|208:368,1,50,2|0,0:0|0:0,0:0:0:0:
152,276,193067,2,0,L|76:284,1,50,10|0,0:0|0:0,0:0:0:0:
136,184,193217,6,0,L|24:144,1,100,2|10,0:0|0:0,0:0:0:0:
160,76,193517,1,2,0:0:0:0:
208,56,193592,1,0,0:0:0:0:
256,56,193667,1,10,0:0:0:0:
364,136,193817,6,8,L|408:108,2,47.9999985351563
288,248,194117,1,8,0:0:0:0:
236,268,194192,1,8,0:0:0:0:
180,268,194267,1,8,0:0:0:0:
128,248,194342,1,8,0:0:0:0:
88,212,194417,6,0,P|60:168|72:108,1,92.0000017547608,12|2,0:0|0:0,0:0:0:0:
68,104,194642,1,0,0:0:0:0:
84,80,194717,1,10,0:0:0:0:
184,16,194867,2,0,P|212:60|200:120,1,92.0000017547608,2|10,0:0|0:0,0:0:0:0:
296,208,195167,5,2,0:0:0:0:
360,92,195317,1,10,0:0:0:0:
200,280,195467,1,2,0:0:0:0:
424,200,195617,1,10,0:0:0:0:
160,180,195767,1,2,0:0:0:0:
408,292,195917,2,0,B|437:338|437:338|265:337|265:337|301:282,1,276.000005264282,10|2,0:0|0:0,0:0:0:0:
248,184,196517,5,10,0:0:0:0:
248,184,196667,1,2,0:0:0:0:
336,104,196817,2,0,P|404:108|432:128,1,92.0000017547608,10|2,0:0|0:0,0:0:0:0:
444,144,197042,1,0,0:0:0:0:
452,176,197117,1,10,0:0:0:0:
392,280,197267,2,0,L|292:280,1,92.0000017547608,2|10,0:0|0:0,0:0:0:0:
211,190,197567,5,2,0:0:0:0:
144,348,197717,1,10,0:0:0:0:
136,100,197867,1,2,0:0:0:0:
40,264,198017,1,10,0:0:0:0:
244,104,198167,1,2,0:0:0:0:
168,272,198317,2,0,B|240:276|272:244|272:244|308:276|308:276|352:236|424:260,1,276.000005264282,10|2,0:0|0:0,0:0:0:0:
440,147,198917,6,0,P|395:152|356:129,1,92.0000017547608,10|2,0:0|0:0,0:0:0:0:
408,28,199217,2,0,L|284:28,1,92.0000017547608,14|2,0:0|0:0,0:0:0:0:
288,40,199442,1,0,0:0:0:0:
264,64,199517,1,10,0:0:0:0:
172,156,199667,2,0,P|112:144|84:108,1,92.0000017547608,2|10,0:0|0:0,0:0:0:0:
272,224,199967,5,2,0:0:0:0:
112,256,200117,1,10,0:0:0:0:
376,172,200267,1,2,0:0:0:0:
236,344,200417,1,10,0:0:0:0:
264,108,200567,1,2,0:0:0:0:
360,292,200717,2,0,P|387:340|462:215,1,276.000005264282,10|2,0:0|0:0,0:0:0:0:
376,172,201317,6,0,L|268:172,1,92.0000017547608,10|2,0:0|0:0,0:0:0:0:
240,64,201617,2,0,P|176:76|140:128,1,92.0000017547608,14|2,0:0|0:0,0:0:0:0:
140,120,201842,1,0,0:0:0:0:
132,152,201917,1,10,0:0:0:0:
72,256,202067,2,0,L|184:256,1,92.0000017547608,2|10,0:0|0:0,0:0:0:0:
344,272,202367,6,0,P|396:284|452:252,2,92.0000017547608,2|10|2,0:0|0:0|0:0,0:0:0:0:
284,172,202817,2,0,P|328:144|392:140,1,92.0000017547608,10|2,0:0|0:0,0:0:0:0:
400,144,203042,1,0,0:0:0:0:
432,156,203117,1,10,0:0:0:0:
492,44,203267,2,0,L|380:44,1,92.0000017547608,2|10,0:0|0:0,0:0:0:0:
268,0,203567,5,8,0:0:0:0:
228,52,203642,1,8,0:0:0:0:
216,116,203717,1,8,0:0:0:0:
232,180,203792,1,8,0:0:0:0:
276,228,203867,1,8,0:0:0:0:
336,252,203942,1,8,0:0:0:0:
400,244,204017,5,6,0:0:0:0:
400,244,204092,1,0,0:0:0:0:
400,244,204167,2,0,L|472:220,1,46.0000008773804,10|0,0:0|0:0,0:0:0:0:
512,140,204317,2,0,L|440:164,1,46.0000008773804,2|0,0:0|0:0,0:0:0:0:
344,132,204467,5,10,0:0:0:0:
344,132,204542,1,0,0:0:0:0:
344,132,204617,2,0,L|417:113,1,46.0000008773804,2|0,0:0|0:0,0:0:0:0:
488,48,204767,2,0,L|414:66,1,46.0000008773804,10|0,0:0|0:0,0:0:0:0:
320,36,204917,5,2,0:0:0:0:
320,36,204992,1,0,0:0:0:0:
320,36,205067,2,0,L|392:16,1,46.0000008773804,10|0,0:0|0:0,0:0:0:0:
240,80,205217,5,2,0:0:0:0:
240,80,205292,1,0,0:0:0:0:
240,80,205367,2,0,L|168:100,1,46.0000008773804,10|0,0:0|0:0,0:0:0:0:
120,28,205517,2,0,L|92:96,1,46.0000008773804,2|0,0:0|0:0,0:0:0:0:
144,168,205667,5,10,0:0:0:0:
144,168,205742,1,0,0:0:0:0:
144,168,205817,1,2,0:0:0:0:
388,120,205967,1,10,0:0:0:0:
152,280,206117,1,2,0:0:0:0:
344,40,206267,1,10,0:0:0:0:
300,272,206417,5,2,0:0:0:0:
344,288,206492,1,0,0:0:0:0:
388,292,206567,1,10,0:0:0:0:
432,280,206642,1,0,0:0:0:0:
468,252,206717,2,0,L|492:184,1,46.0000008773804,2|0,0:0|0:0,0:0:0:0:
432,112,206867,5,10,0:0:0:0:
388,120,206942,1,0,0:0:0:0:
344,128,207017,1,2,0:0:0:0:
300,136,207092,1,0,0:0:0:0:
256,148,207167,2,0,L|172:168,1,46.0000008773804,10|0,0:0|0:0,0:0:0:0:
140,72,207317,5,2,0:0:0:0:
108,108,207392,1,0,0:0:0:0:
92,152,207467,2,0,L|76:240,1,46.0000008773804,10|0,0:0|0:0,0:0:0:0:
162,285,207617,5,2,0:0:0:0:
206,277,207692,1,0,0:0:0:0:
246,257,207767,1,10,0:0:0:0:
274,221,207842,1,0,0:0:0:0:
290,177,207917,2,0,L|306:101,1,46.0000008773804,2|0,0:0|0:0,0:0:0:0:
276,28,208067,5,10,0:0:0:0:
322,28,208142,1,0,0:0:0:0:
361,52,208217,1,2,0:0:0:0:
476,176,208367,1,10,0:0:0:0:
192,120,208517,1,2,0:0:0:0:
472,84,208667,1,10,0:0:0:0:
274,221,208817,6,0,L|216:268,1,46.0000008773804,6|0,0:0|0:0,0:0:0:0:
264,344,208967,2,0,L|320:304,1,46.0000008773804
184,308,209117,2,0,L|128:356,1,46.0000008773804
28,304,209267,6,0,L|92:252,1,46.0000008773804,10|0,0:0|0:0,0:0:0:0:
72,164,209417,2,0,L|16:208,1,46.0000008773804,2|0,0:0|0:0,0:0:0:0:
128,216,209567,2,0,L|180:172,1,46.0000008773804,10|0,0:0|0:0,0:0:0:0:
176,68,209717,6,0,L|136:100,3,46.0000008773804,2|0|10|0,0:0|0:0|0:0|0:0,0:0:0:0:
252,104,210017,6,0,L|308:52,1,46.0000008773804,2|0,0:0|0:0,0:0:0:0:
272,196,210167,2,0,L|224:236,1,46.0000008773804,10|0,0:0|0:0,0:0:0:0:
360,216,210317,2,0,L|408:172,1,46.0000008773804,2|0,0:0|0:0,0:0:0:0:
388,300,210467,6,0,L|336:348,2,46.0000008773804,10|0|2,0:0|0:0|0:0,0:0:0:0:
444,88,210767,1,10,0:0:0:0:
244,320,210917,1,2,0:0:0:0:
496,212,211067,1,10,0:0:0:0:
332,100,211217,5,2,0:0:0:0:
285,72,211292,1,0,0:0:0:0:
231,62,211367,1,10,0:0:0:0:
174,65,211442,1,0,0:0:0:0:
121,83,211517,2,0,L|49:113,1,46.0000008773804,2|0,0:0|0:0,0:0:0:0:
68,200,211667,5,10,0:0:0:0:
84,252,211742,1,0,0:0:0:0:
116,296,211817,1,2,0:0:0:0:
164,324,211892,1,0,0:0:0:0:
216,336,211967,2,0,L|276:340,1,46.0000008773804,10|0,0:0|0:0,0:0:0:0:
235,238,212117,5,2,0:0:0:0:
289,246,212192,1,0,0:0:0:0:
334,277,212267,2,0,L|386:313,1,46.0000008773804,10|0,0:0|0:0,0:0:0:0:
457,242,212417,6,0,L|430:175,1,46.0000008773804,2|0,0:0|0:0,0:0:0:0:
395,85,212567,1,10,0:0:0:0:
180,20,212717,1,8,0:0:0:0:
320,164,212867,1,8,0:0:0:0:
460,8,213017,1,8,0:0:0:0:
231,130,213167,1,8,0:0:0:0:
512,92,213317,1,8,0:0:0:0:
299,26,213467,1,8,0:0:0:0:
440,200,213617,6,0,P|404:212|360:196,1,60.0000022888184,6|0,0:0|0:0,0:0:0:0:
332,292,213917,2,0,P|302:267|292:222,1,60.0000022888184,2|0,0:0|0:0,0:0:0:0:
208,204,214217,2,0,P|145:200|100:136,1,120.000004577637,8|2,0:0|0:0,0:0:0:0:
24,104,214667,1,0,0:0:0:0:
108,48,214817,2,0,L|188:48,1,60.0000022888184,2|0,0:0|0:0,0:0:0:0:
264,104,215117,5,2,0:0:0:0:
264,104,215267,1,0,0:0:0:0:
336,32,215417,2,0,P|396:32|452:80,1,120.000004577637,8|2,0:0|0:0,0:0:0:0:
504,140,215867,1,0,0:0:0:0:
416,184,216017,2,0,P|384:192|352:184,1,60.0000022888184,2|0,0:0|0:0,0:0:0:0:
301,116,216317,6,0,L|240:147,1,60.0000022888184,2|0,0:0|0:0,0:0:0:0:
159,129,216617,2,0,P|156:184|213:222,1,120.000004577637,8|2,0:0|0:0,0:0:0:0:
280,272,217067,1,0,0:0:0:0:
352,212,217217,2,0,L|424:216,1,60.0000022888184,2|0,0:0|0:0,0:0:0:0:
488,128,217517,6,0,L|416:124,1,60.0000022888184,2|0,0:0|0:0,0:0:0:0:
388,40,217817,2,0,P|320:52|276:96,1,120.000004577637,8|2,0:0|0:0,0:0:0:0:
204,140,218267,1,0,0:0:0:0:
148,68,218417,2,0,P|116:44|84:40,1,60.0000022888184,6|0,0:0|0:0,0:0:0:0:
60,136,218717,6,0,L|60:200,1,60.0000022888184,2|0,0:0|0:0,0:0:0:0:
132,256,219017,2,0,B|180:276|180:276|208:232|264:256,1,120.000004577637,8|2,0:0|0:0,0:0:0:0:
256,340,219467,1,0,0:0:0:0:
328,284,219617,2,0,L|396:320,1,60.0000022888184,2|0,0:0|0:0,0:0:0:0:
468,268,219917,5,2,0:0:0:0:
420,184,220067,1,0,0:0:0:0:
324,173,220217,2,0,P|260:209|232:265,1,120.000004577637,8|2,0:0|0:0,0:0:0:0:
152,288,220667,1,0,0:0:0:0:
96,216,220817,2,0,B|100:144|160:116|160:116|140:64|140:64|224:36|276:80|276:80|300:40,1,360.000013732911,2|2,0:0|0:0,0:0:0:0:
436,176,222017,5,2,0:0:0:0:
248,252,222317,1,2,0:0:0:0:
392,72,222617,1,8,0:0:0:0:
356,312,222917,1,2,0:0:0:0:
260,144,223217,6,0,P|192:136|124:160,1,120.000004577637,6|2,0:0|0:0,0:0:0:0:
40,300,223817,1,8,0:0:0:0:
232,280,224117,2,0,B|300:252|364:284|364:284|408:236|376:188,1,240.000009155274,2|2,0:0|0:0,0:0:0:0:
232,72,225017,2,0,B|140:72|140:72|168:96,1,120.000004577637,8|2,0:0|0:0,0:0:0:0:
292,232,225617,6,0,P|232:260|204:320,1,120.000004577637,2|2,0:0|0:0,0:0:0:0:
384,368,226217,1,8,0:0:0:0:
468,196,226517,2,0,B|432:144|432:144|360:128|388:44|388:44|324:44,1,240.000009155274,2|2,0:0|0:0,0:0:0:0:
184,168,227417,2,0,B|152:168|152:168|104:188|104:188|64:188,1,120.000004577637,8|2,0:0|0:0,0:0:0:0:
256,312,228017,6,0,B|288:312|288:312|336:292|336:292|376:292,1,120.000004577637,6|2,0:0|0:0,0:0:0:0:
500,96,228617,1,8,0:0:0:0:
260,180,228917,2,0,B|188:192|160:156|160:156|108:168|72:132|72:132|72:52|148:32|148:32|192:32,1,360.000013732911,2|8,0:0|0:0,0:0:0:0:
420,120,230117,5,2,0:0:0:0:
496,216,230267,1,0,0:0:0:0:
404,300,230417,2,0,B|312:316|312:316|280:240|180:268,1,240.000009155274,2|8,0:0|0:0,0:0:0:0:
120,32,231317,5,2,0:0:0:0:
244,44,231467,1,0,0:0:0:0:
328,136,231617,2,0,P|352:180|320:256,1,120.000004577637,2|8,0:0|0:0,0:0:0:0:
232,344,232067,1,8,0:0:0:0:
128,248,232217,2,0,P|104:204|136:128,1,120.000004577637,2|0,0:0|0:0,0:0:0:0:
336,52,232817,6,0,P|387:51|424:72,1,88.000002685547,14|0,0:0|0:0,0:0:0:0:
488,172,233117,1,10,0:0:0:0:
384,260,233267,2,0,L|416:312,2,44.0000013427735,0|0|10,0:0|0:0|0:0,0:0:0:0:
264,176,233567,1,0,0:0:0:0:
240,184,233642,1,0,0:0:0:0:
216,192,233717,1,10,0:0:0:0:
192,200,233792,1,0,0:0:0:0:
168,208,233867,6,0,L|116:164,1,44.0000013427735
56,128,234017,2,0,L|140:88,1,88.000002685547,10|0,0:0|0:0,0:0:0:0:
240,0,234317,2,0,P|276:28|260:92,1,88.000002685547,10|0,0:0|0:0,0:0:0:0:
272,92,234542,1,0,0:0:0:0:
260,116,234617,1,10,0:0:0:0:
168,208,234767,2,0,L|204:248,3,44.0000013427735,0|0|10|0,0:0|0:0|0:0|0:0,0:0:0:0:
292,228,235067,5,0,0:0:0:0:
292,228,235142,1,0,0:0:0:0:
292,228,235217,2,0,P|368:236|404:220,1,88.000002685547,10|0,0:0|0:0,0:0:0:0:
476,136,235517,2,0,P|400:128|364:144,1,88.000002685547,10|0,0:0|0:0,0:0:0:0:
348,28,235742,1,0,0:0:0:0:
348,28,235817,2,0,P|296:52|276:112,1,88.000002685547,10|0,0:0|0:0,0:0:0:0:
172,144,236117,1,10,0:0:0:0:
272,236,236267,6,0,L|224:260,1,44.0000013427735
206,343,236417,2,0,P|148:304|146:227,1,143.999995605469,10|10,0:0|0:0,0:0:0:0:
52,136,236867,1,0,0:0:0:0:
52,136,236942,1,0,0:0:0:0:
52,136,237017,2,0,B|116:152|140:104|140:104|204:104,1,160,10|10,0:0|0:0,0:0:0:0:
296,160,237467,1,0,0:0:0:0:
436,80,237617,6,0,L|340:80,1,88.000002685547,14|0,0:0|0:0,0:0:0:0:
484,212,237917,1,10,0:0:0:0:
372,284,238067,1,0,0:0:0:0:
372,284,238142,1,0,0:0:0:0:
372,284,238217,1,10,0:0:0:0:
228,220,238367,2,0,L|172:240,1,44.0000013427735
116,292,238517,1,10,0:0:0:0:
64,112,238667,6,0,L|128:96,1,44.0000013427735
164,36,238817,2,0,L|264:68,1,88.000002685547,10|0,0:0|0:0,0:0:0:0:
318,166,239117,2,0,L|214:206,1,88.000002685547,10|0,0:0|0:0,0:0:0:0:
206,210,239342,1,0,0:0:0:0:
186,234,239417,1,10,0:0:0:0:
288,308,239567,1,0,0:0:0:0:
332,308,239642,1,0,0:0:0:0:
376,308,239717,1,10,0:0:0:0:
420,308,239792,1,0,0:0:0:0:
464,308,239867,6,0,L|528:264,1,44.0000013427735
428,224,240017,2,0,L|348:156,1,88.000002685547,10|0,0:0|0:0,0:0:0:0:
235,197,240317,1,10,0:0:0:0:
136,120,240467,2,0,P|176:96|232:96,1,88.000002685547,0|10,0:0|0:0,0:0:0:0:
324,24,240767,1,0,0:0:0:0:
324,24,240842,1,0,0:0:0:0:
324,24,240917,2,0,L|352:88,1,44.0000013427735,10|0,0:0|0:0,0:0:0:0:
440,32,241067,6,0,L|416:92,1,44.0000013427735
504,136,241217,2,0,L|424:164,1,64,4|0,0:0|0:0,0:0:0:0:
320,288,241517,2,0,L|428:248,1,103.999995239258,12|0,0:0|0:0,0:0:0:0:
268,184,241817,2,0,L|184:212,1,80,4|0,0:0|0:0,0:0:0:0:
300,68,242117,1,8,0:0:0:0:
348,52,242192,1,8,0:0:0:0:
400,48,242267,1,8,0:0:0:0:
452,60,242342,1,8,0:0:0:0:
496,88,242417,6,0,L|496:184,1,88.000002685547,6|8,0:0|0:0,0:0:0:0:
424,288,242717,1,2,0:0:0:0:
368,168,242867,1,8,0:0:0:0:
368,168,242942,1,0,0:0:0:0:
368,168,243017,1,2,0:0:0:0:
296,320,243167,2,0,L|188:292,1,88.000002685547,8|2,0:0|0:0,0:0:0:0:
56,164,243467,6,0,L|140:144,1,44.0000013427735,8|0,0:0|0:0,0:0:0:0:
168,88,243617,2,0,P|196:120|188:180,1,88.000002685547,2|8,0:0|0:0,0:0:0:0:
248,32,243917,2,0,P|287:48|341:22,1,88.000002685547,2|8,0:0|0:0,0:0:0:0:
328,35,244142,1,0,0:0:0:0:
328,35,244217,1,2,0:0:0:0:
432,144,244367,1,8,0:0:0:0:
432,144,244442,1,0,0:0:0:0:
432,144,244517,1,2,0:0:0:0:
460,172,244592,1,0,0:0:0:0:
460,212,244667,5,8,0:0:0:0:
436,244,244742,1,0,0:0:0:0:
400,256,244817,2,0,L|300:256,1,88.000002685547,2|8,0:0|0:0,0:0:0:0:
228,172,245117,1,2,0:0:0:0:
360,64,245267,2,0,L|264:64,1,88.000002685547,8|2,0:0|0:0,0:0:0:0:
272,64,245492,1,0,0:0:0:0:
272,64,245567,1,8,0:0:0:0:
144,20,245717,1,2,0:0:0:0:
104,156,245867,5,8,0:0:0:0:
104,156,245942,1,0,0:0:0:0:
104,156,246017,2,0,B|108:196|84:240|84:240|116:223|144:224,1,128,2|2,0:0|0:0,0:0:0:0:
236,136,246467,2,0,L|300:176,1,44.0000013427735,8|0,0:0|0:0,0:0:0:0:
284,252,246617,2,0,P|348:204|356:120,1,151.999995941162,2|2,0:0|0:0,0:0:0:0:
416,40,247067,1,8,0:0:0:0:
480,140,247217,6,0,P|488:192|520:224,1,88.000002685547,6|8,0:0|0:0,0:0:0:0:
436,316,247517,2,0,L|324:316,1,88.000002685547,2|8,0:0|0:0,0:0:0:0:
308,328,247742,1,0,0:0:0:0:
276,352,247817,1,2,0:0:0:0:
180,252,247967,2,0,L|196:184,2,44.0000013427735,8|0|2,0:0|0:0|0:0,0:0:0:0:
60,328,248267,5,8,0:0:0:0:
52,280,248342,1,0,0:0:0:0:
60,232,248417,2,0,L|80:136,1,88.000002685547,2|8,0:0|0:0,0:0:0:0:
168,48,248717,1,2,0:0:0:0:
280,112,248867,2,0,L|396:136,1,88.000002685547,8|10,0:0|0:0,0:0:0:0:
408,160,249092,1,0,0:0:0:0:
424,212,249167,1,8,0:0:0:0:
412,228,249242,1,0,0:0:0:0:
400,244,249317,1,0,0:0:0:0:
388,260,249392,1,0,0:0:0:0:
376,276,249467,6,0,L|348:312,1,44.0000013427735
276,264,249617,2,0,L|168:228,1,88.000002685547
140,132,249917,1,0,0:0:0:0:
272,96,250067,1,0,0:0:0:0:
272,96,250142,1,0,0:0:0:0:
272,96,250217,2,0,P|320:136|384:136,1,88.000002685547
472,108,250517,1,8,0:0:0:0:
344,288,250667,1,8,0:0:0:0:
424,40,250817,6,0,P|472:24|516:40,1,80,6|0,0:0|0:0,0:0:0:0:
320,24,251117,2,0,P|272:8|228:24,1,80,2|0,0:0|0:0,0:0:0:0:
108,128,251417,1,8,0:0:0:0:
288,216,251567,1,0,0:0:0:0:
272,96,251717,1,2,0:0:0:0:
208,300,251867,1,0,0:0:0:0:
364,160,252017,6,2,P|408:180|432:292,1,160
368,360,252467,1,2,0:0:0:0:
284,296,252617,2,2,P|208:328|112:300,1,160,8|2,0:0|0:0,0:0:0:0:
64,212,253067,1,8,0:0:0:0:
160,156,253217,6,0,B|216:148|248:176|248:176|292:112,1,160,4|2,0:0|0:0,0:0:0:0:
216,40,253667,1,0,0:0:0:0:
324,24,253817,2,0,P|376:32|416:68,1,80,8|0,0:0|0:0,0:0:0:0:
484,88,254117,2,0,P|446:124|393:134,1,80,2|0,0:0|0:0,0:0:0:0:
448,256,254417,5,2,0:0:0:0:
256,140,254567,1,0,0:0:0:0:
360,296,254717,1,2,0:0:0:0:
285,120,254867,1,0,0:0:0:0:
248,312,255017,1,8,0:0:0:0:
116,272,255167,6,0,P|80:232|80:184,1,80,0|2,0:0|0:0,0:0:0:0:
80,168,255392,1,0,0:0:0:0:
92,132,255467,1,0,0:0:0:0:
112,96,255542,1,0,0:0:0:0:
140,68,255617,2,0,L|224:68,1,80,4|0,0:0|0:0,0:0:0:0:
296,180,255917,5,2,0:0:0:0:
408,64,256067,1,0,0:0:0:0:
340,296,256217,1,8,0:0:0:0:
200,208,256367,1,0,0:0:0:0:
432,160,256517,1,2,0:0:0:0:
280,360,256667,1,0,0:0:0:0:
320,168,256817,6,0,P|268:124|168:140,1,160,2|0,0:0|0:0,0:0:0:0:
124,220,257267,2,2,B|104:256|112:296|112:296|72:264|28:276,1,160
12,168,257717,2,0,L|12:64,1,80,2|8,0:0|0:0,0:0:0:0:
112,24,258017,6,0,B|112:136|112:136|164:84,1,160,6|2,0:0|0:0,0:0:0:0:
244,48,258467,2,0,P|328:24|408:48,1,160,8|0,0:0|0:0,0:0:0:0:
364,136,258917,2,0,P|325:147|286:142,1,80,8|0,0:0|0:0,0:0:0:0:
140,248,259217,5,2,0:0:0:0:
212,56,259367,1,8,0:0:0:0:
244,304,259517,1,2,0:0:0:0:
72,136,259667,1,0,0:0:0:0:
332,240,259817,6,0,P|396:248|432:232,1,80,2|0,0:0|0:0,0:0:0:0:
244,168,260117,2,0,P|180:160|144:176,1,80,2|0,0:0|0:0,0:0:0:0:
76,280,260417,6,0,L|164:280,1,80,6|0,0:0|0:0,0:0:0:0:
208,372,260717,2,0,L|300:316,1,80,2|0,0:0|0:0,0:0:0:0:
344,184,261017,1,8,0:0:0:0:
456,320,261167,1,0,0:0:0:0:
400,120,261317,1,2,0:0:0:0:
360,280,261467,1,0,0:0:0:0:
484,176,261617,6,2,P|504:132|460:28,1,160
364,0,262067,1,2,0:0:0:0:
288,80,262217,2,0,L|204:80,1,80,8|0,0:0|0:0,0:0:0:0:
124,160,262517,1,2,0:0:0:0:
124,160,262667,1,8,0:0:0:0:
220,224,262817,6,0,L|332:224,1,80,4|0,0:0|0:0,0:0:0:0:
436,132,263117,1,2,0:0:0:0:
380,324,263267,1,0,0:0:0:0:
488,204,263417,1,8,0:0:0:0:
256,312,263567,1,0,0:0:0:0:
356,80,263717,6,0,P|320:72|272:100,1,80,2|0,0:0|0:0,0:0:0:0:
288,176,264017,2,0,P|208:144|192:60,1,160,2|2,0:0|0:0,0:0:0:0:
92,24,264467,1,0,0:0:0:0:
40,136,264617,6,0,L|40:216,1,80,8|0,0:0|0:0,0:0:0:0:
124,284,264917,1,2,0:0:0:0:
156,292,264992,1,0,0:0:0:0:
188,292,265067,1,0,0:0:0:0:
220,284,265142,1,0,0:0:0:0:
248,268,265217,6,0,P|284:236|288:200,1,80,4|0,0:0|0:0,0:0:0:0:
252,124,265517,2,0,P|308:117|358:147,1,80,2|0,0:0|0:0,0:0:0:0:
408,20,265817,1,8,0:0:0:0:
384,256,265967,1,0,0:0:0:0:
296,24,266117,1,2,0:0:0:0:
480,176,266267,1,0,0:0:0:0:
252,124,266417,6,0,P|188:152|88:128,1,160,2|2,0:0|0:0,0:0:0:0:
36,48,266867,2,0,P|100:20|200:44,1,160,2|2,0:0|0:0,0:0:0:0:
276,140,267317,6,0,L|372:140,1,80,2|8,0:0|0:0,0:0:0:0:
428,76,267617,2,0,P|468:132|420:208,1,160,6|2,0:0|0:0,0:0:0:0:
352,292,268067,2,0,B|304:252|304:252|260:292|196:260,1,160,8|0,0:0|0:0,0:0:0:0:
100,180,268517,2,0,P|144:168|188:184,1,80,8|0,0:0|0:0,0:0:0:0:
276,96,268817,5,8,0:0:0:0:
448,240,268967,1,8,0:0:0:0:
352,28,269117,1,8,0:0:0:0:
352,292,269267,1,8,0:0:0:0:
432,104,269417,2,0,L|520:80,1,80,2|0,0:0|0:0,0:0:0:0:
368,184,269717,2,0,L|268:212,1,80,2|0,0:0|0:0,0:0:0:0:
224,288,270017,6,0,P|184:240|196:168,1,120.000004577637,4|0,0:0|0:0,0:0:0:0:
232,104,270467,2,0,B|192:92|148:104|148:104|168:68,1,120.000004577637
244,8,270917,2,0,B|324:8|324:8|356:56|436:48|436:48|388:120|432:164|432:164|476:164,1,360.000013732911,2|0,0:0|0:0,0:0:0:0:
312,280,272117,6,0,P|272:264|236:272,1,60.0000022888184
192,320,272417,2,0,P|152:336|72:312,1,120.000004577637,4|0,0:0|0:0,0:0:0:0:
136,248,272867,2,0,B|136:160|136:160|154:175|188:184,1,120.000004577637
252,132,273317,2,0,B|304:108|308:56|308:56|368:52|388:120|388:120|448:68|504:96|504:144,1,360.000013732911,2|0,0:0|0:0,0:0:0:0:
376,272,274517,5,0,0:0:0:0:
300,224,274667,1,0,0:0:0:0:
228,276,274817,2,0,P|184:296|96:268,1,120.000004577637,4|0,0:0|0:0,0:0:0:0:
96,184,275267,2,0,B|136:176|168:208|168:208|168:160,1,120.000004577637
112,80,275717,2,0,B|176:56|264:88|264:88|296:44|296:44|356:64|368:108|368:108|420:68,1,360.000013732911,2|0,0:0|0:0,0:0:0:0:
264,200,276917,6,0,L|336:216,1,60.0000022888184
380,288,277217,2,0,P|412:248|408:180,1,120.000004577637,4|0,0:0|0:0,0:0:0:0:
456,116,277667,2,0,B|412:88|364:116|364:116|332:84,1,120.000004577637
292,24,278117,2,0,P|328:8|356:8,2,60.0000022888184,2|0|8,0:0|0:0|0:0,0:0:0:0:
216,164,278717,5,8,0:0:0:0:
160,72,278867,1,8,0:0:0:0:
132,204,279017,1,8,0:0:0:0:
76,128,279167,2,8,L|12:128,2,60.0000022888184
232,188,279617,6,0,P|296:200|352:176,1,120.000004577637,4|0,0:0|0:0,0:0:0:0:
372,92,280067,2,0,P|416:116|444:192,1,120.000004577637
400,252,280517,2,0,B|344:316|344:316|280:280|280:280|232:320|144:284|144:284|180:228,1,360.000013732911,2|0,0:0|0:0,0:0:0:0:
288,84,281717,6,0,L|232:56,1,60.0000022888184
180,132,282017,2,0,B|88:132|88:132|116:160,1,120.000004577637,4|0,0:0|0:0,0:0:0:0:
168,224,282467,2,0,P|236:244|296:208,1,120.000004577637
288,128,282917,2,0,B|356:120|380:80|380:80|448:120|444:156|444:156|496:152|496:152|520:216|476:256,1,360.000013732911,2|0,0:0|0:0,0:0:0:0:
312,320,284117,5,0,0:0:0:0:
312,320,284267,1,0,0:0:0:0:
280,228,284417,2,0,P|204:228|156:268,1,120.000004577637,4|0,0:0|0:0,0:0:0:0:
148,336,284867,2,0,B|88:336|56:352|56:352|76:312,1,120.000004577637
84,244,285317,2,0,B|20:204|56:128|56:128|120:144|120:144|160:80|228:120|228:120|256:88,1,360.000013732911,2|0,0:0|0:0,0:0:0:0:
432,36,286517,5,0,0:0:0:0:
492,112,286667,1,0,0:0:0:0:
432,184,286817,2,0,P|416:224|336:248,1,120.000004577637,4|0,0:0|0:0,0:0:0:0:
320,340,287267,2,0,P|260:316|236:244,1,120.000004577637
280,184,287717,1,2,0:0:0:0:
280,184,287867,1,0,0:0:0:0:
208,120,288017,2,0,B|136:144|136:144|120:84|60:84,1,180.000006866455,8|0,0:0|0:0,0:0:0:0:
28,168,288617,2,0,L|28:228,1,60.0000022888184,8|0,0:0|0:0,0:0:0:0:
136,288,288917,5,8,0:0:0:0:
208,120,289067,1,8,0:0:0:0:
300,256,289217,6,0,P|340:260|392:240,1,80,4|0,0:0|0:0,0:0:0:0:
468,140,289517,2,0,P|428:136|376:156,1,80,8|0,0:0|0:0,0:0:0:0:
316,24,289817,1,2,0:0:0:0:
176,156,289967,1,0,0:0:0:0:
300,172,290117,1,8,0:0:0:0:
156,64,290267,1,0,0:0:0:0:
208,252,290417,6,0,P|252:280|356:276,1,160,2|8,0:0|0:0,0:0:0:0:
444,201,290867,1,0,0:0:0:0:
388,117,291017,2,0,P|319:77|241:86,1,160,2|8,0:0|0:0,0:0:0:0:
140,150,291467,1,0,0:0:0:0:
140,150,291542,1,0,0:0:0:0:
140,150,291617,6,0,B|136:202|112:242|112:242|151:228|192:246,1,160,2|8,0:0|0:0,0:0:0:0:
267,183,292067,1,0,0:0:0:0:
304,284,292217,2,0,L|392:284,1,80,2|0,0:0|0:0,0:0:0:0:
484,188,292517,2,0,L|380:188,1,80,8|0,0:0|0:0,0:0:0:0:
336,44,292817,5,2,0:0:0:0:
267,183,292967,1,0,0:0:0:0:
133,19,293117,1,8,0:0:0:0:
304,113,293267,1,0,0:0:0:0:
40,100,293417,1,2,0:0:0:0:
228,24,293567,1,0,0:0:0:0:
112,184,293717,1,8,0:0:0:0:
100,220,293792,1,0,0:0:0:0:
100,256,293867,1,0,0:0:0:0:
116,288,293942,1,0,0:0:0:0:
144,312,294017,6,0,P|212:344|268:316,1,120,2|0,0:0|0:0,0:0:0:0:
272,312,294317,2,0,L|360:356,1,80,8|0,0:0|0:0,0:0:0:0:
420,188,294617,1,2,0:0:0:0:
472,356,294767,1,0,0:0:0:0:
500,132,294917,1,8,0:0:0:0:
356,264,295067,1,0,0:0:0:0:
412,76,295217,6,0,P|344:64|264:104,1,160,2|8,0:0|0:0,0:0:0:0:
184,200,295667,1,0,0:0:0:0:
144,76,295817,2,0,P|96:96|56:224,1,160,2|8,0:0|0:0,0:0:0:0:
120,288,296267,1,0,0:0:0:0:
216,224,296417,6,0,B|264:196|304:232|304:232|344:236|352:192,1,160,2|8,0:0|0:0,0:0:0:0:
300,96,296867,1,0,0:0:0:0:
404,44,297017,2,0,L|492:44,1,80,2|0,0:0|0:0,0:0:0:0:
444,136,297317,2,0,L|512:196,1,80,8|0,0:0|0:0,0:0:0:0:
424,268,297617,6,0,B|384:320|328:320|328:320|300:256|200:268,1,240,2|8,0:0|0:0,0:0:0:0:
160,152,298217,2,0,P|232:144|256:116,1,80,2|0,0:0|0:0,0:0:0:0:
272,64,298442,1,0,0:0:0:0:
272,64,298517,2,0,L|360:64,1,80,8|0,0:0|0:0,0:0:0:0:
352,168,298817,6,0,P|412:196|424:264,1,120,2|0,0:0|0:0,0:0:0:0:
412,276,299117,2,0,L|320:276,1,80,8|0,0:0|0:0,0:0:0:0:
180,172,299417,1,2,0:0:0:0:
240,348,299567,1,0,0:0:0:0:
276,148,299717,1,8,0:0:0:0:
112,244,299867,1,0,0:0:0:0:
376,192,300017,6,0,B|412:232|412:232|412:104,1,160,2|8,0:0|0:0,0:0:0:0:
340,36,300467,1,0,0:0:0:0:
260,128,300617,2,0,P|208:128|164:108,1,80,2|0,0:0|0:0,0:0:0:0:
68,216,300917,2,0,P|120:216|164:236,1,80,8|0,0:0|0:0,0:0:0:0:
192,296,301142,1,0,0:0:0:0:
192,296,301217,6,0,L|280:296,1,80,2|0,0:0|0:0,0:0:0:0:
376,192,301517,1,8,0:0:0:0:
240,164,301667,1,0,0:0:0:0:
488,152,301817,1,2,0:0:0:0:
388,304,301967,1,0,0:0:0:0:
348,84,302117,6,0,P|280:68|244:80,1,80,8|0,0:0|0:0,0:0:0:0:
240,164,302417,2,0,P|192:132|180:24,1,160,2|8,0:0|0:0,0:0:0:0:
72,76,302867,1,0,0:0:0:0:
44,180,303017,2,0,P|64:228|112:248,1,80,2|0,0:0|0:0,0:0:0:0:
184,304,303317,1,8,0:0:0:0:
228,300,303392,1,0,0:0:0:0:
268,280,303467,1,0,0:0:0:0:
296,244,303542,1,0,0:0:0:0:
308,200,303617,6,0,L|308:84,1,80,2|0,0:0|0:0,0:0:0:0:
208,160,303917,2,0,L|165:92,1,80,8|0,0:0|0:0,0:0:0:0:
44,180,304217,1,2,0:0:0:0:
208,20,304367,1,0,0:0:0:0:
120,252,304517,1,8,0:0:0:0:
44,76,304667,1,0,0:0:0:0:
224,184,304817,6,0,L|328:184,1,80,2|0,0:0|0:0,0:0:0:0:
392,84,305117,2,0,L|308:84,1,80,8|0,0:0|0:0,0:0:0:0:
232,16,305417,2,0,P|184:48|176:80,1,80,2|0,0:0|0:0,0:0:0:0:
169,234,305717,2,0,P|217:202|225:170,1,80,8|0,0:0|0:0,0:0:0:0:
244,308,306017,6,0,B|340:308|340:308|372:264|420:284|420:284|388:224|404:204,1,240,2|0,0:0|0:0,0:0:0:0:
352,128,306617,2,0,P|396:120|456:144,1,80,2|0,0:0|0:0,0:0:0:0:
272,48,306917,1,8,0:0:0:0:
272,48,306992,1,0,0:0:0:0:
272,48,307067,1,0,0:0:0:0:
176,120,307217,2,0,P|132:112|72:136,1,80,2|0,0:0|0:0,0:0:0:0:
36,212,307517,5,8,0:0:0:0:
192,340,307667,1,8,0:0:0:0:
268,168,307817,2,0,P|328:156|368:168,1,80
444,256,308117,2,0,P|384:268|344:256,1,80
268,336,308417,6,0,P|216:316|176:240,1,120.000004577637,4|0,0:0|0:0,0:0:0:0:
108,200,308867,2,0,B|80:220|80:220|80:128,1,120.000004577637
160,72,309317,2,0,B|244:64|272:88|272:88|328:48|328:48|336:116|408:120|408:120|364:160,1,360.000013732911,2|0,0:0|0:0,0:0:0:0:
208,256,310517,5,0,0:0:0:0:
208,256,310667,1,0,0:0:0:0:
256,344,310817,2,0,P|324:332|360:280,1,120.000004577637,4|0,0:0|0:0,0:0:0:0:
340,208,311267,2,0,P|404:216|444:276,1,120.000004577637
256,168,311717,2,0,B|208:104|136:136|136:136|136:72|136:72|84:92,1,240.000009155274,2|0,0:0|0:0,0:0:0:0:
216,288,312617,5,8,0:0:0:0:
432,156,312767,1,8,0:0:0:0:
188,100,312917,1,8,0:0:0:0:
360,312,313067,1,8,0:0:0:0:
324,44,313217,1,14,0:0:0:0:
