osu file format v14

[General]
AudioFilename: audio.mp3
AudioLeadIn: 0
PreviewTime: 78168
Countdown: 1
SampleSet: Normal
StackLeniency: 0.2
Mode: 0
LetterboxInBreaks: 0
WidescreenStoryboard: 0

[Editor]
Bookmarks: 65610,66308,67005,87935,88633,89331,111656,145145,145668,146191,147063,147587,148459,148982,149156,149854,150377,150726,151249,151773,152645,153168,153517,154040,154563,154912,155610,156308,161889
DistanceSpacing: 1.4
BeatDivisor: 4
GridSize: 32
TimelineZoom: 1

[Metadata]
Title:The Monolith
TitleUnicode:The Monolith
Artist:Torcht
ArtistUnicode:Torcht
Creator:Zuisho
Version:Overload
Source:
Tags:
BeatmapID:2106975
BeatmapSetID:1006771

[Difficulty]
HPDrainRate:3
CircleSize:4
OverallDifficulty:8
ApproachRate:9
SliderMultiplier:2.1
SliderTickRate:1

[Events]
//Background and Video events
0,0,"maxresdefault (1).jpg",0,0
//Break Periods
2,67205,71638
2,72787,76173
2,123019,144545
//Storyboard Layer 0 (Background)
//Storyboard Layer 1 (Fail)
//Storyboard Layer 2 (Pass)
//Storyboard Layer 3 (Foreground)
//Storyboard Sound Samples

[TimingPoints]
29,348.837209302326,4,1,0,100,1,0
11191,-250,4,1,0,100,0,0
16773,-166.666666666667,4,1,0,100,0,0
20959,-125,4,1,0,100,0,0
22354,-100,4,1,0,100,0,0
41889,-125,4,1,0,100,0,0
44505,-125,4,1,0,5,0,0
44680,-111.111111111111,4,1,0,100,0,0
55406,-166.666666666666,4,1,0,100,0,0
55842,-166.666666666666,4,1,0,100,0,1
65610,-142.857142857142,4,1,0,100,0,1
66308,-125,4,1,0,100,0,1
67005,-125,4,1,0,100,0,0
77732,-166.666666666667,4,1,0,100,0,0
78168,-166.666666666667,4,1,0,100,0,1
87935,-142.857142857143,4,1,0,100,0,1
88633,-125,4,1,0,100,0,1
89331,-125,4,1,0,100,0,0
99796,-166.666666666667,4,1,0,100,0,0
100494,-166.666666666667,4,1,0,100,0,1
108866,-125,4,1,0,100,0,1
111656,-100,4,1,0,100,0,1
122819,-166.666666666667,4,1,0,100,0,0
155610,-125,4,1,0,100,0,0
156308,-166.666666666667,4,1,0,100,0,1
164680,-125,4,1,0,100,0,1
165726,-100,4,1,0,100,0,1
166075,-100,4,1,0,100,0,0

[HitObjects]
114,296,11191,6,0,B|147:180|147:180|250:155,1,210
402,213,12587,2,0,B|335:178|335:178|224:258,1,210
172,88,13982,2,0,B|269:62|269:62|319:98|319:98|308:165,1,210
276,318,15377,2,0,B|266:233|266:233|218:189|218:189|253:122,1,210
271,122,16337,5,0,0:0:0:0:
271,122,16424,1,0,0:0:0:0:
296,137,16511,1,0,0:0:0:0:
306,164,16598,1,0,0:0:0:0:
310,192,16685,1,0,0:0:0:0:
310,221,16773,6,0,B|257:264|257:264|210:230|210:230|116:264|116:264|41:196,1,314.999990386963
270,58,18168,2,0,B|294:109|294:109|373:124|373:124|330:211|330:211|423:271,1,314.999990386963
135,223,19563,2,0,B|211:217|211:217|237:162|237:162|315:169|315:169|372:108|372:108|411:101,1,314.999990386963
37,62,20959,6,0,B|178:88|178:88|216:230|216:230|285:209|285:209,1,336
341,132,21918,1,0,0:0:0:0:
223,133,22180,1,0,0:0:0:0:
86,80,22354,5,0,0:0:0:0:
231,59,22529,1,0,0:0:0:0:
184,198,22703,2,0,P|247:180|283:143,1,105
396,69,23052,1,0,0:0:0:0:
468,197,23226,1,0,0:0:0:0:
421,336,23401,2,0,P|374:297|358:258,1,105
304,119,23749,1,0,0:0:0:0:
178,42,23924,1,0,0:0:0:0:
33,72,24098,2,0,P|103:147|134:155,1,105
246,115,24447,1,0,0:0:0:0:
351,216,24622,2,0,L|436:300,2,105
89,331,25319,5,0,0:0:0:0:
89,331,25406,1,0,0:0:0:0:
89,331,25494,2,0,P|92:248|109:208,1,105
190,113,25842,1,0,0:0:0:0:
332,74,26017,2,0,P|330:147|310:207,1,105
229,292,26366,1,0,0:0:0:0:
112,202,26540,2,0,P|173:165|222:158,1,105
339,98,26889,1,0,0:0:0:0:
385,237,27063,2,0,P|302:227|246:205,1,105
163,133,27412,1,0,0:0:0:0:
25,80,27587,2,0,P|40:166|76:209,1,105
334,111,28110,6,0,L|438:55,2,105
189,80,28633,1,0,0:0:0:0:
204,226,28808,1,0,0:0:0:0:
349,244,28982,2,0,P|329:157|286:117,1,105
173,148,29331,1,0,0:0:0:0:
206,290,29505,1,0,0:0:0:0:
64,330,29680,2,0,P|47:234|57:184,1,105
192,197,30029,1,0,0:0:0:0:
246,333,30203,1,0,0:0:0:0:
307,200,30377,2,0,P|382:250|404:290,1,105
145,94,30901,5,0,0:0:0:0:
145,94,30988,1,0,0:0:0:0:
145,94,31075,2,0,P|202:102|248:119,1,105
302,254,31424,1,0,0:0:0:0:
302,254,31511,1,0,0:0:0:0:
302,254,31598,2,0,P|243:222|208:189,1,105
82,261,31947,1,0,0:0:0:0:
82,261,32034,1,0,0:0:0:0:
82,261,32122,2,0,P|115:193|144:163,1,105
276,136,32470,1,0,0:0:0:0:
276,136,32558,1,0,0:0:0:0:
276,136,32645,2,0,P|242:189|197:228,1,105
345,278,32994,1,0,0:0:0:0:
345,278,33081,1,0,0:0:0:0:
345,278,33168,2,0,P|413:231|452:223,1,105
389,70,33866,6,0,P|378:153|338:201,1,105
79,226,34389,2,0,P|155:183|181:162,1,105
424,26,34912,2,0,L|397:137,1,105
293,231,35261,2,0,P|253:193|227:135,1,105
91,101,35610,1,0,0:0:0:0:
224,41,35784,1,0,0:0:0:0:
368,71,35959,2,0,P|426:122|445:174,1,105
379,294,36308,5,0,0:0:0:0:
85,289,36656,1,0,0:0:0:0:
295,83,37005,1,0,0:0:0:0:
380,364,37354,1,0,0:0:0:0:
108,250,37703,1,0,0:0:0:0:
387,157,38052,1,0,0:0:0:0:
187,373,38401,1,0,0:0:0:0:
191,79,38749,1,0,0:0:0:0:
477,144,39098,5,0,0:0:0:0:
378,250,39273,1,0,0:0:0:0:
267,153,39447,1,0,0:0:0:0:
372,49,39622,1,0,0:0:0:0:
427,95,39796,1,0,0:0:0:0:
318,208,39970,1,0,0:0:0:0:
321,102,40145,1,0,0:0:0:0:
428,197,40319,1,0,0:0:0:0:
425,149,40494,1,0,0:0:0:0:
318,155,40668,1,0,0:0:0:0:
371,105,40842,1,0,0:0:0:0:
373,202,41017,1,0,0:0:0:0:
279,315,41191,2,0,P|214:280|175:250,1,105
251,128,41540,2,0,P|325:165|349:197,1,105
421,303,41889,5,0,0:0:0:0:
366,282,41976,1,0,0:0:0:0:
336,231,42063,1,0,0:0:0:0:
323,172,42151,1,0,0:0:0:0:
286,125,42238,1,0,0:0:0:0:
231,102,42325,1,0,0:0:0:0:
172,105,42412,1,0,0:0:0:0:
118,128,42499,1,0,0:0:0:0:
86,178,42587,1,0,0:0:0:0:
70,234,42674,1,0,0:0:0:0:
73,292,42761,1,0,0:0:0:0:
91,347,42848,1,0,0:0:0:0:
145,367,42935,1,0,0:0:0:0:
204,369,43023,1,0,0:0:0:0:
261,359,43110,1,0,0:0:0:0:
311,329,43197,1,0,0:0:0:0:
256,192,43284,12,0,44505,0:0:0:0:
153,226,44680,6,0,B|183:189|183:189|171:100|171:100|221:75,1,188.999994232178
349,79,45203,1,0,0:0:0:0:
399,200,45377,1,0,0:0:0:0:
305,293,45552,2,0,B|256:332|256:332|205:289,1,94.499997116089
102,243,45901,1,0,0:0:0:0:
102,243,45988,1,0,0:0:0:0:
102,243,46075,1,0,0:0:0:0:
146,118,46249,1,0,0:0:0:0:
146,118,46337,1,0,0:0:0:0:
146,118,46424,1,0,0:0:0:0:
266,69,46598,6,0,B|329:112|329:112|333:170,1,94.499997116089
342,262,46947,1,0,0:0:0:0:
223,320,47122,1,0,0:0:0:0:
129,227,47296,1,0,0:0:0:0:
126,95,47470,2,0,B|209:63|209:63|245:84,1,94.499997116089
342,97,47819,1,0,0:0:0:0:
456,164,47994,1,0,0:0:0:0:
344,234,48168,1,0,0:0:0:0:
442,322,48342,1,0,0:0:0:0:
312,349,48517,2,0,B|258:359|258:359|204:318,1,94.499997116089
116,261,48866,6,0,B|136:195|136:195|237:144|237:144|291:198|291:198|313:261,1,283.499991348267
384,322,49563,1,0,0:0:0:0:
443,203,49738,2,0,B|404:88|404:88|292:77|292:77,1,188.999994232178
205,60,50261,6,0,B|186:111|186:111|242:157|242:157|223:222,1,188.999994232178
326,301,50784,1,0,0:0:0:0:
447,246,50959,1,0,0:0:0:0:
336,173,51133,1,0,0:0:0:0:
437,86,51308,2,0,B|397:53|397:53|316:50,1,94.499997116089
222,55,51656,1,0,0:0:0:0:
98,104,51831,1,0,0:0:0:0:
206,178,52005,2,0,B|155:228|155:228|189:270,1,94.499997116089
290,300,52354,5,0,0:0:0:0:
358,186,52529,1,0,0:0:0:0:
232,45,52703,1,0,0:0:0:0:
61,125,52877,1,0,0:0:0:0:
117,244,53052,2,0,B|173:200|173:200|294:199,1,188.999994232178
209,304,53575,1,0,0:0:0:0:
340,316,53749,2,0,B|390:260|390:260|401:145,1,188.999994232178
299,59,54273,5,0,0:0:0:0:
167,46,54447,2,0,B|124:106|124:106|176:137|176:137|114:203,1,188.999994232178
245,255,54970,1,0,0:0:0:0:
372,291,55145,2,0,B|409:239|409:239|357:191|357:191|357:186,1,94.499997116089
350,193,55406,1,0,0:0:0:0:
313,167,55494,1,0,0:0:0:0:
269,158,55581,1,0,0:0:0:0:
225,160,55668,1,0,0:0:0:0:
185,178,55755,1,0,0:0:0:0:
181,221,55842,2,0,L|203:265,5,31.4999990386963
313,262,56366,5,0,0:0:0:0:
326,220,56453,1,0,0:0:0:0:
330,176,56540,1,0,0:0:0:0:
322,132,56627,1,0,0:0:0:0:
300,93,56715,1,0,0:0:0:0:
264,66,56802,1,0,0:0:0:0:
221,55,56889,1,0,0:0:0:0:
177,61,56976,2,0,L|120:72,5,31.4999990386963
98,208,57499,5,0,0:0:0:0:
136,228,57587,1,0,0:0:0:0:
178,242,57674,1,0,0:0:0:0:
221,243,57761,1,0,0:0:0:0:
264,236,57848,1,0,0:0:0:0:
304,219,57935,1,0,0:0:0:0:
340,193,58023,1,0,0:0:0:0:
362,154,58110,2,0,L|388:106,5,31.4999990386963
253,55,58633,5,0,0:0:0:0:
232,94,58720,1,0,0:0:0:0:
235,137,58808,1,0,0:0:0:0:
247,179,58895,1,0,0:0:0:0:
244,223,58982,1,0,0:0:0:0:
228,264,59069,1,0,0:0:0:0:
242,305,59156,1,0,0:0:0:0:
276,332,59244,2,0,L|313:353,5,31.4999990386963
394,277,59767,5,0,0:0:0:0:
360,248,59854,1,0,0:0:0:0:
351,204,59941,1,0,0:0:0:0:
347,160,60029,1,0,0:0:0:0:
325,121,60116,1,0,0:0:0:0:
288,96,60203,1,0,0:0:0:0:
244,85,60290,1,0,0:0:0:0:
200,79,60377,2,0,L|140:90,5,31.4999990386963
34,115,60901,5,0,0:0:0:0:
50,155,60988,1,0,0:0:0:0:
52,198,61075,1,0,0:0:0:0:
64,240,61162,1,0,0:0:0:0:
95,271,61249,1,0,0:0:0:0:
136,287,61337,1,0,0:0:0:0:
179,292,61424,1,0,0:0:0:0:
221,279,61511,1,0,0:0:0:0:
256,252,61598,1,0,0:0:0:0:
279,214,61685,1,0,0:0:0:0:
304,177,61773,1,0,0:0:0:0:
340,152,61860,1,0,0:0:0:0:
383,149,61947,1,0,0:0:0:0:
423,166,62034,1,0,0:0:0:0:
453,198,62122,1,0,0:0:0:0:
474,236,62209,2,0,L|498:288,5,31.4999990386963
347,337,62732,5,0,0:0:0:0:
361,295,62819,1,0,0:0:0:0:
384,257,62906,1,0,0:0:0:0:
397,214,62994,1,0,0:0:0:0:
391,170,63081,1,0,0:0:0:0:
376,128,63168,1,0,0:0:0:0:
344,96,63255,1,0,0:0:0:0:
306,72,63342,1,0,0:0:0:0:
264,57,63430,1,0,0:0:0:0:
220,60,63517,1,0,0:0:0:0:
181,80,63604,1,0,0:0:0:0:
146,107,63691,1,0,0:0:0:0:
122,144,63779,1,0,0:0:0:0:
108,185,63866,1,0,0:0:0:0:
98,227,63953,1,0,0:0:0:0:
93,270,64040,2,0,L|78:328,5,31.4999990386963
228,328,64563,5,0,0:0:0:0:
201,292,64651,1,0,0:0:0:0:
170,259,64738,1,0,0:0:0:0:
151,219,64825,1,0,0:0:0:0:
145,175,64912,1,0,0:0:0:0:
157,132,64999,1,0,0:0:0:0:
188,100,65087,1,0,0:0:0:0:
236,75,65174,1,0,0:0:0:0:
279,69,65261,1,0,0:0:0:0:
322,77,65348,1,0,0:0:0:0:
356,104,65435,1,0,0:0:0:0:
381,140,65523,1,0,0:0:0:0:
392,182,65610,5,0,0:0:0:0:
379,231,65697,1,0,0:0:0:0:
340,265,65784,1,0,0:0:0:0:
292,284,65872,1,0,0:0:0:0:
240,287,65959,1,0,0:0:0:0:
189,276,66046,1,0,0:0:0:0:
149,243,66133,1,0,0:0:0:0:
129,195,66220,1,0,0:0:0:0:
132,135,66308,5,0,0:0:0:0:
162,84,66395,1,0,0:0:0:0:
212,53,66482,1,0,0:0:0:0:
270,53,66569,1,0,0:0:0:0:
326,69,66656,1,0,0:0:0:0:
367,111,66744,1,0,0:0:0:0:
385,166,66831,1,0,0:0:0:0:
388,224,66918,1,0,0:0:0:0:
371,280,67005,1,0,0:0:0:0:
169,136,72238,5,0,0:0:0:0:
386,226,72587,1,0,0:0:0:0:
418,101,76773,6,0,B|333:81|333:81|237:139,1,168
170,194,77296,1,0,0:0:0:0:
85,275,77470,2,0,B|136:321|136:321|183:311,1,84
195,313,77732,1,0,0:0:0:0:
235,295,77819,1,0,0:0:0:0:
258,257,77906,1,0,0:0:0:0:
262,212,77994,1,0,0:0:0:0:
255,168,78081,1,0,0:0:0:0:
227,133,78168,2,0,L|186:98,5,31.4999990386963
307,53,78691,5,0,0:0:0:0:
331,89,78778,1,0,0:0:0:0:
346,130,78866,1,0,0:0:0:0:
347,173,78953,1,0,0:0:0:0:
339,216,79040,1,0,0:0:0:0:
323,257,79127,1,0,0:0:0:0:
291,287,79214,1,0,0:0:0:0:
255,313,79302,2,0,L|208:341,5,31.4999990386963
139,282,79825,5,0,0:0:0:0:
182,279,79912,1,0,0:0:0:0:
224,266,79999,1,0,0:0:0:0:
262,244,80086,1,0,0:0:0:0:
305,239,80173,1,0,0:0:0:0:
348,245,80261,1,0,0:0:0:0:
387,263,80348,1,0,0:0:0:0:
424,285,80435,2,0,L|465:309,5,31.4999990386963
450,141,80959,5,0,0:0:0:0:
413,165,81046,1,0,0:0:0:0:
375,189,81134,1,0,0:0:0:0:
332,200,81221,1,0,0:0:0:0:
288,202,81308,1,0,0:0:0:0:
244,193,81395,1,0,0:0:0:0:
203,175,81482,1,0,0:0:0:0:
165,151,81570,2,0,L|120:119,5,31.4999990386963
116,260,82092,5,0,0:0:0:0:
153,235,82180,1,0,0:0:0:0:
190,212,82267,1,0,0:0:0:0:
232,200,82354,1,0,0:0:0:0:
275,203,82441,1,0,0:0:0:0:
313,225,82529,1,0,0:0:0:0:
346,253,82616,1,0,0:0:0:0:
378,282,82703,2,0,L|414:316,5,31.4999990386963
454,187,83226,5,0,0:0:0:0:
437,146,83313,1,0,0:0:0:0:
404,115,83401,1,0,0:0:0:0:
363,96,83488,1,0,0:0:0:0:
320,85,83575,1,0,0:0:0:0:
276,87,83662,1,0,0:0:0:0:
233,98,83749,1,0,0:0:0:0:
200,128,83837,1,0,0:0:0:0:
176,165,83924,1,0,0:0:0:0:
168,208,84011,1,0,0:0:0:0:
168,251,84098,1,0,0:0:0:0:
191,288,84185,1,0,0:0:0:0:
228,312,84273,1,0,0:0:0:0:
270,323,84360,1,0,0:0:0:0:
313,322,84447,1,0,0:0:0:0:
356,316,84534,2,0,L|412:303,5,31.4999990386963
422,214,85058,5,0,0:0:0:0:
380,228,85145,1,0,0:0:0:0:
338,241,85232,1,0,0:0:0:0:
294,247,85319,1,0,0:0:0:0:
250,242,85406,1,0,0:0:0:0:
206,234,85494,1,0,0:0:0:0:
167,212,85581,1,0,0:0:0:0:
139,177,85668,1,0,0:0:0:0:
123,135,85755,1,0,0:0:0:0:
125,91,85842,1,0,0:0:0:0:
146,52,85930,1,0,0:0:0:0:
183,29,86017,1,0,0:0:0:0:
226,21,86104,1,0,0:0:0:0:
268,31,86191,1,0,0:0:0:0:
295,65,86279,1,0,0:0:0:0:
310,106,86366,2,0,L|326:157,5,31.4999990386963
431,184,86889,5,0,0:0:0:0:
393,207,86976,1,0,0:0:0:0:
352,224,87063,1,0,0:0:0:0:
307,218,87151,1,0,0:0:0:0:
268,197,87238,1,0,0:0:0:0:
233,169,87325,1,0,0:0:0:0:
198,141,87412,1,0,0:0:0:0:
154,136,87499,1,0,0:0:0:0:
112,152,87587,1,0,0:0:0:0:
85,187,87674,1,0,0:0:0:0:
76,230,87761,1,0,0:0:0:0:
74,273,87848,1,0,0:0:0:0:
110,309,87935,5,0,0:0:0:0:
160,322,88023,1,0,0:0:0:0:
206,300,88110,1,0,0:0:0:0:
230,254,88197,1,0,0:0:0:0:
240,203,88284,1,0,0:0:0:0:
255,153,88372,1,0,0:0:0:0:
291,116,88459,1,0,0:0:0:0:
340,103,88546,1,0,0:0:0:0:
393,126,88633,5,0,0:0:0:0:
428,172,88720,1,0,0:0:0:0:
438,230,88808,1,0,0:0:0:0:
421,286,88895,1,0,0:0:0:0:
376,324,88982,1,0,0:0:0:0:
317,328,89069,1,0,0:0:0:0:
263,303,89156,1,0,0:0:0:0:
232,252,89244,1,0,0:0:0:0:
219,194,89331,5,0,0:0:0:0:
431,74,89680,1,0,0:0:0:0:
118,120,90029,1,0,0:0:0:0:
431,294,90377,1,0,0:0:0:0:
265,46,90726,1,0,0:0:0:0:
273,313,91075,1,0,0:0:0:0:
187,68,91424,1,0,0:0:0:0:
137,312,91773,1,0,0:0:0:0:
328,108,92122,6,0,B|422:71|422:71|421:169,3,168
272,279,93517,2,0,B|218:317|218:317|175:215,3,168
168,142,94912,1,0,0:0:0:0:
334,284,95261,1,0,0:0:0:0:
265,100,95610,1,0,0:0:0:0:
156,261,95959,1,0,0:0:0:0:
393,181,96308,1,0,0:0:0:0:
100,188,96656,1,0,0:0:0:0:
376,61,97005,1,0,0:0:0:0:
86,257,97354,1,0,0:0:0:0:
416,224,97703,1,0,0:0:0:0:
91,104,98052,1,0,0:0:0:0:
335,91,98401,6,0,B|428:122|428:122|358:179,3,168
292,273,99796,1,0,0:0:0:0:
163,288,99970,1,0,0:0:0:0:
142,248,100058,1,0,0:0:0:0:
135,204,100145,1,0,0:0:0:0:
145,161,100232,1,0,0:0:0:0:
171,125,100319,1,0,0:0:0:0:
209,104,100406,1,0,0:0:0:0:
252,112,100494,6,0,L|311:123,5,31.4999990386963
343,205,101017,2,0,L|306:228,5,31.4999990386963
169,225,101540,2,0,L|199:193,7,31.4999990386963
222,171,102238,5,0,0:0:0:0:
256,143,102325,1,0,0:0:0:0:
296,125,102412,1,0,0:0:0:0:
339,132,102499,1,0,0:0:0:0:
376,155,102587,1,0,0:0:0:0:
405,187,102674,1,0,0:0:0:0:
419,228,102761,1,0,0:0:0:0:
410,271,102848,1,0,0:0:0:0:
383,305,102935,1,0,0:0:0:0:
342,323,103023,1,0,0:0:0:0:
298,326,103110,1,0,0:0:0:0:
255,315,103197,1,0,0:0:0:0:
226,281,103284,1,0,0:0:0:0:
222,236,103372,1,0,0:0:0:0:
235,194,103459,1,0,0:0:0:0:
247,151,103546,5,0,0:0:0:0:
245,107,103633,1,0,0:0:0:0:
217,72,103720,1,0,0:0:0:0:
175,55,103808,1,0,0:0:0:0:
131,56,103895,1,0,0:0:0:0:
93,78,103982,1,0,0:0:0:0:
65,112,104069,1,0,0:0:0:0:
54,154,104156,1,0,0:0:0:0:
49,198,104244,1,0,0:0:0:0:
59,240,104331,1,0,0:0:0:0:
85,274,104418,1,0,0:0:0:0:
123,295,104505,1,0,0:0:0:0:
166,290,104592,1,0,0:0:0:0:
198,259,104680,1,0,0:0:0:0:
214,218,104767,1,0,0:0:0:0:
223,174,104854,5,0,0:0:0:0:
233,131,104941,1,0,0:0:0:0:
267,103,105029,1,0,0:0:0:0:
309,90,105116,1,0,0:0:0:0:
352,91,105203,1,0,0:0:0:0:
390,112,105290,2,0,L|421:135,5,31.4999990386963
402,253,105813,2,0,L|347:235,5,31.4999990386963
329,229,106337,5,0,0:0:0:0:
285,220,106424,1,0,0:0:0:0:
241,224,106511,1,0,0:0:0:0:
198,234,106598,1,0,0:0:0:0:
154,235,106685,1,0,0:0:0:0:
112,218,106773,1,0,0:0:0:0:
83,184,106860,1,0,0:0:0:0:
73,140,106947,1,0,0:0:0:0:
96,102,107034,1,0,0:0:0:0:
134,80,107122,1,0,0:0:0:0:
176,68,107209,1,0,0:0:0:0:
219,76,107296,1,0,0:0:0:0:
256,99,107383,1,0,0:0:0:0:
284,132,107470,1,0,0:0:0:0:
308,169,107558,1,0,0:0:0:0:
328,208,107645,5,0,0:0:0:0:
346,248,107732,1,0,0:0:0:0:
373,282,107819,1,0,0:0:0:0:
415,294,107906,1,0,0:0:0:0:
459,288,107994,1,0,0:0:0:0:
482,250,108081,1,0,0:0:0:0:
488,206,108168,1,0,0:0:0:0:
487,162,108255,1,0,0:0:0:0:
482,118,108342,1,0,0:0:0:0:
451,86,108430,1,0,0:0:0:0:
412,64,108517,1,0,0:0:0:0:
369,51,108604,1,0,0:0:0:0:
325,44,108691,1,0,0:0:0:0:
280,44,108779,1,0,0:0:0:0:
236,50,108866,1,0,0:0:0:0:
180,68,108953,5,0,0:0:0:0:
131,100,109040,1,0,0:0:0:0:
98,148,109127,1,0,0:0:0:0:
82,205,109215,1,0,0:0:0:0:
93,262,109302,1,0,0:0:0:0:
126,310,109389,1,0,0:0:0:0:
176,339,109476,1,0,0:0:0:0:
233,347,109563,1,0,0:0:0:0:
290,333,109651,1,0,0:0:0:0:
340,302,109738,1,0,0:0:0:0:
378,258,109825,1,0,0:0:0:0:
405,205,109912,1,0,0:0:0:0:
420,148,109999,1,0,0:0:0:0:
428,89,110087,1,0,0:0:0:0:
400,37,110174,1,0,0:0:0:0:
342,26,110261,5,0,0:0:0:0:
285,42,110348,1,0,0:0:0:0:
261,95,110435,1,0,0:0:0:0:
256,154,110523,1,0,0:0:0:0:
264,212,110610,1,0,0:0:0:0:
242,266,110697,1,0,0:0:0:0:
195,301,110784,1,0,0:0:0:0:
135,306,110872,1,0,0:0:0:0:
84,276,110959,1,0,0:0:0:0:
49,228,111046,1,0,0:0:0:0:
39,170,111133,1,0,0:0:0:0:
61,115,111220,1,0,0:0:0:0:
106,76,111308,1,0,0:0:0:0:
164,67,111395,1,0,0:0:0:0:
207,105,111482,1,0,0:0:0:0:
231,158,111569,1,0,0:0:0:0:
268,221,111656,6,0,L|321:304,5,52.5
411,179,112180,2,0,L|378:100,5,52.5
327,94,112703,1,0,0:0:0:0:
257,70,112790,1,0,0:0:0:0:
183,64,112877,1,0,0:0:0:0:
111,85,112965,1,0,0:0:0:0:
63,140,113052,1,0,0:0:0:0:
46,211,113139,1,0,0:0:0:0:
54,283,113226,1,0,0:0:0:0:
96,342,113313,1,0,0:0:0:0:
168,358,113401,1,0,0:0:0:0:
231,321,113488,1,0,0:0:0:0:
275,262,113575,1,0,0:0:0:0:
283,189,113662,1,0,0:0:0:0:
251,122,113749,1,0,0:0:0:0:
182,93,113837,5,0,0:0:0:0:
108,87,113924,1,0,0:0:0:0:
46,126,114011,1,0,0:0:0:0:
25,196,114098,1,0,0:0:0:0:
30,269,114185,1,0,0:0:0:0:
79,324,114273,1,0,0:0:0:0:
150,337,114360,1,0,0:0:0:0:
221,322,114447,1,0,0:0:0:0:
286,288,114534,1,0,0:0:0:0:
342,239,114622,1,0,0:0:0:0:
384,178,114709,1,0,0:0:0:0:
422,115,114796,6,0,L|458:63,5,52.5
333,41,115319,2,0,L|261:69,5,52.5
222,99,115842,1,0,0:0:0:0:
182,161,115930,1,0,0:0:0:0:
178,234,116017,1,0,0:0:0:0:
204,302,116104,1,0,0:0:0:0:
263,344,116191,1,0,0:0:0:0:
336,353,116279,1,0,0:0:0:0:
408,340,116366,1,0,0:0:0:0:
456,284,116453,1,0,0:0:0:0:
480,215,116540,1,0,0:0:0:0:
486,141,116627,1,0,0:0:0:0:
443,79,116715,1,0,0:0:0:0:
377,45,116802,1,0,0:0:0:0:
303,46,116889,1,0,0:0:0:0:
232,66,116976,5,0,0:0:0:0:
197,130,117063,1,0,0:0:0:0:
189,203,117151,1,0,0:0:0:0:
207,273,117238,1,0,0:0:0:0:
259,324,117325,1,0,0:0:0:0:
330,340,117412,1,0,0:0:0:0:
401,322,117499,1,0,0:0:0:0:
438,258,117587,1,0,0:0:0:0:
433,184,117674,1,0,0:0:0:0:
377,136,117761,1,0,0:0:0:0:
303,134,117848,1,0,0:0:0:0:
242,175,117935,1,0,0:0:0:0:
208,241,118023,1,0,0:0:0:0:
203,314,118110,1,0,0:0:0:0:
149,364,118197,1,0,0:0:0:0:
75,361,118284,5,0,0:0:0:0:
23,307,118372,1,0,0:0:0:0:
13,234,118459,1,0,0:0:0:0:
15,160,118546,1,0,0:0:0:0:
44,92,118633,1,0,0:0:0:0:
112,65,118720,1,0,0:0:0:0:
185,73,118808,1,0,0:0:0:0:
245,114,118895,1,0,0:0:0:0:
265,184,118982,1,0,0:0:0:0:
259,257,119069,1,0,0:0:0:0:
218,318,119156,1,0,0:0:0:0:
148,344,119244,1,0,0:0:0:0:
74,340,119331,1,0,0:0:0:0:
29,281,119418,1,0,0:0:0:0:
20,208,119505,1,0,0:0:0:0:
68,153,119592,5,0,0:0:0:0:
138,131,119680,1,0,0:0:0:0:
211,134,119767,1,0,0:0:0:0:
259,189,119854,1,0,0:0:0:0:
279,259,119941,1,0,0:0:0:0:
299,330,120029,1,0,0:0:0:0:
364,362,120116,1,0,0:0:0:0:
437,362,120203,1,0,0:0:0:0:
480,303,120290,1,0,0:0:0:0:
490,230,120377,1,0,0:0:0:0:
487,155,120465,1,0,0:0:0:0:
444,95,120552,1,0,0:0:0:0:
380,58,120639,1,0,0:0:0:0:
309,37,120726,1,0,0:0:0:0:
235,35,120813,1,0,0:0:0:0:
161,44,120901,5,0,0:0:0:0:
105,91,120988,1,0,0:0:0:0:
70,155,121075,1,0,0:0:0:0:
78,227,121162,1,0,0:0:0:0:
120,286,121249,1,0,0:0:0:0:
194,288,121337,1,0,0:0:0:0:
245,236,121424,1,0,0:0:0:0:
255,163,121511,1,0,0:0:0:0:
208,106,121598,1,0,0:0:0:0:
136,88,121685,1,0,0:0:0:0:
78,135,121773,1,0,0:0:0:0:
70,207,121860,1,0,0:0:0:0:
90,277,121947,1,0,0:0:0:0:
144,325,122034,1,0,0:0:0:0:
217,337,122122,1,0,0:0:0:0:
290,338,122209,5,0,0:0:0:0:
353,300,122296,1,0,0:0:0:0:
398,242,122383,1,0,0:0:0:0:
421,172,122470,1,0,0:0:0:0:
419,97,122558,1,0,0:0:0:0:
379,35,122645,1,0,0:0:0:0:
307,18,122732,1,0,0:0:0:0:
263,17,122819,1,0,0:0:0:0:
318,86,145145,5,0,0:0:0:0:
318,86,145232,1,0,0:0:0:0:
318,86,145319,1,0,0:0:0:0:
318,86,145406,1,0,0:0:0:0:
318,86,145494,1,0,0:0:0:0:
318,86,145581,1,0,0:0:0:0:
327,138,145668,5,0,0:0:0:0:
327,138,145755,1,0,0:0:0:0:
327,138,145842,1,0,0:0:0:0:
327,138,145930,1,0,0:0:0:0:
327,138,146017,1,0,0:0:0:0:
327,138,146104,1,0,0:0:0:0:
359,199,146191,5,0,0:0:0:0:
359,199,146279,1,0,0:0:0:0:
359,199,146366,1,0,0:0:0:0:
359,199,146453,1,0,0:0:0:0:
359,199,146540,1,0,0:0:0:0:
359,199,146627,1,0,0:0:0:0:
359,199,146715,1,0,0:0:0:0:
359,199,146802,1,0,0:0:0:0:
359,199,146889,1,0,0:0:0:0:
359,199,146976,1,0,0:0:0:0:
359,242,147063,5,0,0:0:0:0:
333,278,147151,1,0,0:0:0:0:
291,292,147238,1,0,0:0:0:0:
247,292,147325,1,0,0:0:0:0:
205,276,147412,1,0,0:0:0:0:
172,246,147499,1,0,0:0:0:0:
208,177,147587,5,0,0:0:0:0:
208,177,147674,1,0,0:0:0:0:
208,177,147761,1,0,0:0:0:0:
208,177,147848,1,0,0:0:0:0:
208,177,147935,1,0,0:0:0:0:
208,177,148023,1,0,0:0:0:0:
208,177,148110,1,0,0:0:0:0:
208,177,148197,1,0,0:0:0:0:
208,177,148284,1,0,0:0:0:0:
208,177,148372,1,0,0:0:0:0:
260,206,148459,5,0,0:0:0:0:
260,206,148546,1,0,0:0:0:0:
260,206,148633,1,0,0:0:0:0:
260,206,148720,1,0,0:0:0:0:
260,206,148808,1,0,0:0:0:0:
260,206,148895,1,0,0:0:0:0:
263,238,148982,5,0,0:0:0:0:
263,238,149069,1,0,0:0:0:0:
320,260,149156,5,0,0:0:0:0:
320,260,149244,1,0,0:0:0:0:
320,260,149331,1,0,0:0:0:0:
320,260,149418,1,0,0:0:0:0:
320,260,149505,1,0,0:0:0:0:
320,260,149592,1,0,0:0:0:0:
320,260,149680,1,0,0:0:0:0:
320,260,149767,1,0,0:0:0:0:
318,303,149854,5,0,0:0:0:0:
282,329,149941,1,0,0:0:0:0:
237,330,150029,1,0,0:0:0:0:
198,308,150116,1,0,0:0:0:0:
164,279,150203,1,0,0:0:0:0:
145,239,150290,1,0,0:0:0:0:
188,159,150377,5,0,0:0:0:0:
188,159,150465,1,0,0:0:0:0:
188,159,150552,1,0,0:0:0:0:
188,159,150639,1,0,0:0:0:0:
247,183,150726,5,0,0:0:0:0:
247,183,150813,1,0,0:0:0:0:
247,183,150901,1,0,0:0:0:0:
247,183,150988,1,0,0:0:0:0:
247,183,151075,1,0,0:0:0:0:
247,183,151162,1,0,0:0:0:0:
294,202,151249,5,0,0:0:0:0:
294,202,151337,1,0,0:0:0:0:
294,202,151424,1,0,0:0:0:0:
294,202,151511,1,0,0:0:0:0:
294,202,151598,1,0,0:0:0:0:
294,202,151685,1,0,0:0:0:0:
363,233,151773,5,0,0:0:0:0:
363,233,151860,1,0,0:0:0:0:
363,233,151947,1,0,0:0:0:0:
363,233,152034,1,0,0:0:0:0:
363,233,152122,1,0,0:0:0:0:
363,233,152209,1,0,0:0:0:0:
363,233,152296,1,0,0:0:0:0:
363,233,152383,1,0,0:0:0:0:
363,233,152470,1,0,0:0:0:0:
363,233,152558,1,0,0:0:0:0:
367,276,152645,5,0,0:0:0:0:
336,308,152732,1,0,0:0:0:0:
292,313,152819,1,0,0:0:0:0:
250,297,152906,1,0,0:0:0:0:
212,273,152994,1,0,0:0:0:0:
188,235,153081,1,0,0:0:0:0:
71,161,153168,5,0,0:0:0:0:
71,161,153255,1,0,0:0:0:0:
71,161,153342,1,0,0:0:0:0:
71,161,153430,1,0,0:0:0:0:
73,215,153517,5,0,0:0:0:0:
73,215,153604,1,0,0:0:0:0:
73,215,153691,1,0,0:0:0:0:
73,215,153779,1,0,0:0:0:0:
73,215,153866,1,0,0:0:0:0:
73,215,153953,1,0,0:0:0:0:
82,268,154040,5,0,0:0:0:0:
82,268,154127,1,0,0:0:0:0:
82,268,154215,1,0,0:0:0:0:
82,268,154302,1,0,0:0:0:0:
82,268,154389,1,0,0:0:0:0:
82,268,154476,1,0,0:0:0:0:
94,308,154563,5,0,0:0:0:0:
94,308,154651,1,0,0:0:0:0:
94,308,154738,1,0,0:0:0:0:
94,308,154825,1,0,0:0:0:0:
147,340,154912,5,0,0:0:0:0:
147,340,154999,1,0,0:0:0:0:
147,340,155087,1,0,0:0:0:0:
147,340,155174,1,0,0:0:0:0:
147,340,155261,1,0,0:0:0:0:
147,340,155348,1,0,0:0:0:0:
147,340,155435,1,0,0:0:0:0:
147,340,155523,1,0,0:0:0:0:
204,350,155610,5,0,0:0:0:0:
261,338,155697,1,0,0:0:0:0:
299,293,155784,1,0,0:0:0:0:
321,237,155872,1,0,0:0:0:0:
323,178,155959,1,0,0:0:0:0:
298,124,156046,1,0,0:0:0:0:
248,93,156133,1,0,0:0:0:0:
189,84,156220,1,0,0:0:0:0:
137,113,156308,6,0,L|103:143,5,31.4999990386963
115,264,156831,2,0,L|170:271,5,31.4999990386963
189,273,157354,1,0,0:0:0:0:
232,276,157441,1,0,0:0:0:0:
276,273,157529,1,0,0:0:0:0:
318,263,157616,1,0,0:0:0:0:
351,233,157703,1,0,0:0:0:0:
379,199,157790,1,0,0:0:0:0:
395,158,157877,1,0,0:0:0:0:
395,113,157965,1,0,0:0:0:0:
358,88,158052,1,0,0:0:0:0:
314,94,158139,1,0,0:0:0:0:
289,130,158226,1,0,0:0:0:0:
257,160,158313,1,0,0:0:0:0:
215,175,158401,1,0,0:0:0:0:
171,180,158488,1,0,0:0:0:0:
127,177,158575,1,0,0:0:0:0:
84,167,158662,2,0,L|34:151,5,31.4999990386963
42,268,159185,5,0,0:0:0:0:
74,298,159273,1,0,0:0:0:0:
112,318,159360,1,0,0:0:0:0:
154,328,159447,1,0,0:0:0:0:
197,326,159534,1,0,0:0:0:0:
241,321,159622,1,0,0:0:0:0:
282,305,159709,1,0,0:0:0:0:
320,284,159796,1,0,0:0:0:0:
356,260,159883,1,0,0:0:0:0:
357,216,159970,1,0,0:0:0:0:
328,181,160058,1,0,0:0:0:0:
284,187,160145,1,0,0:0:0:0:
245,207,160232,1,0,0:0:0:0:
204,223,160319,1,0,0:0:0:0:
161,233,160406,1,0,0:0:0:0:
116,237,160494,5,0,0:0:0:0:
72,230,160581,1,0,0:0:0:0:
46,194,160668,1,0,0:0:0:0:
56,151,160755,1,0,0:0:0:0:
96,134,160842,1,0,0:0:0:0:
140,129,160930,1,0,0:0:0:0:
182,117,161017,1,0,0:0:0:0:
224,107,161104,1,0,0:0:0:0:
267,101,161191,1,0,0:0:0:0:
311,95,161279,1,0,0:0:0:0:
354,100,161366,1,0,0:0:0:0:
385,131,161453,1,0,0:0:0:0:
395,173,161540,1,0,0:0:0:0:
366,206,161627,1,0,0:0:0:0:
322,214,161715,1,0,0:0:0:0:
279,225,161802,1,0,0:0:0:0:
235,230,161889,5,0,0:0:0:0:
235,230,162063,1,0,0:0:0:0:
103,140,162238,1,0,0:0:0:0:
103,140,162412,1,0,0:0:0:0:
243,58,162587,5,0,0:0:0:0:
422,162,162761,1,0,0:0:0:0:
129,66,162936,1,0,0:0:0:0:
348,274,163110,1,0,0:0:0:0:
333,57,163284,1,0,0:0:0:0:
95,224,163459,1,0,0:0:0:0:
434,189,163633,1,0,0:0:0:0:
176,307,163808,1,0,0:0:0:0:
340,142,163982,1,0,0:0:0:0:
187,224,164156,1,0,0:0:0:0:
310,285,164331,1,0,0:0:0:0:
229,69,164505,1,0,0:0:0:0:
386,79,164680,5,0,0:0:0:0:
392,137,164767,1,0,0:0:0:0:
385,195,164854,1,0,0:0:0:0:
356,246,164941,1,0,0:0:0:0:
302,271,165029,1,0,0:0:0:0:
245,285,165116,1,0,0:0:0:0:
186,286,165203,1,0,0:0:0:0:
134,258,165290,1,0,0:0:0:0:
99,210,165377,1,0,0:0:0:0:
88,151,165465,1,0,0:0:0:0:
108,95,165552,1,0,0:0:0:0:
163,76,165639,1,0,0:0:0:0:
229,107,165726,1,0,0:0:0:0:
252,176,165813,1,0,0:0:0:0:
242,249,165901,1,0,0:0:0:0:
192,303,165988,1,0,0:0:0:0:
