osu file format v14

[General]
AudioFilename: audio.mp3
AudioLeadIn: 0
PreviewTime: 95143
Countdown: 0
SampleSet: Soft
StackLeniency: 0.2
Mode: 0
LetterboxInBreaks: 0
WidescreenStoryboard: 1

[Editor]
Bookmarks: 22286,36000,63429,94286,96000,123429,130286,135429,137143,162857,164572,192000,193714,213964,231643,250286,274666
DistanceSpacing: 1.4
BeatDivisor: 8
GridSize: 8
TimelineZoom: 2.599999

[Metadata]
Title:Kokoro
TitleUnicode:ココロ
Artist:Toraboruta
ArtistUnicode:トラボルタ
Creator:Yooh
Version:Mysterious Heart
Source:
Tags:Heart VOCALOID トラボルタ-P Toraboruta-P ToraborutaP 鏡音リン Kagamine Rin Travolta Novelty Japanese smokelind rock pop
BeatmapID:2361716
BeatmapSetID:1130622

[Difficulty]
HPDrainRate:6
CircleSize:4.5
OverallDifficulty:8.5
ApproachRate:9
SliderMultiplier:1.4
SliderTickRate:1

[Events]
//Background and Video events
0,0,"Kagamine.Rin.full.234104.jpg",0,0
//Break Periods
2,91056,93472
//Storyboard Layer 0 (Background)
//Storyboard Layer 1 (Fail)
//Storyboard Layer 2 (Pass)
//Storyboard Layer 3 (Foreground)
//Storyboard Layer 4 (Overlay)
//Storyboard Sound Samples

[TimingPoints]
8572,428.571428571429,4,2,1,50,1,0
8572,-117.647058823529,4,2,1,50,0,0
15429,-95.2380952380952,4,2,1,50,0,0
21322,-95.2380952380952,4,2,1,70,0,0
22286,-80,4,3,1,70,0,0
25393,-80,4,3,2,5,0,0
25500,-80,4,3,1,70,0,0
32250,-80,4,3,2,70,0,0
32357,-80,4,3,1,70,0,0
37393,-80,4,3,2,5,0,0
37500,-80,4,3,1,70,0,0
40822,-80,4,3,2,5,0,0
40929,-80,4,3,1,70,0,0
44250,-80,4,3,2,5,0,0
44357,-80,4,3,1,70,0,0
45964,-80,4,3,2,5,0,0
46072,-80,4,3,1,70,0,0
51107,-80,4,3,2,5,0,0
51214,-80,4,3,1,70,0,0
54536,-80,4,3,2,5,0,0
54643,-80,4,3,1,70,0,0
57964,-80,4,3,2,5,0,0
58072,-80,4,3,1,70,0,0
58393,-80,4,3,2,5,0,0
58500,-80,4,3,1,70,0,0
59250,-80,4,3,2,5,0,0
59357,-80,4,3,1,70,0,0
59679,-80,4,3,2,5,0,0
59786,-80,4,3,1,70,0,0
63429,-95.2380952380952,4,2,1,50,0,0
74250,-95.2380952380952,4,2,2,5,0,0
74357,-95.2380952380952,4,2,1,50,0,0
74893,-95.2380952380952,4,2,2,5,0,0
75000,-95.2380952380952,4,2,1,50,0,0
75536,-95.2380952380952,4,2,2,5,0,0
75643,-95.2380952380952,4,2,1,50,0,0
77464,-95.2380952380952,4,2,2,5,0,0
77572,-95.2380952380952,4,2,1,50,0,0
80893,-95.2380952380952,4,2,2,5,0,0
81000,-95.2380952380952,4,2,1,50,0,0
84322,-95.2380952380952,4,2,2,5,0,0
84429,-95.2380952380952,4,2,1,50,0,0
87429,-68.9655172413793,4,2,1,50,0,0
87964,-68.9655172413793,4,2,2,5,0,0
88072,-68.9655172413793,4,2,1,50,0,0
88607,-68.9655172413793,4,2,2,5,0,0
88714,-181.818181818182,4,2,1,50,0,0
90857,-80,4,2,1,50,0,0
94929,-117.647058823529,4,2,1,70,0,0
95143,-74.0740740740741,4,2,1,70,0,0
96000,-74.0740740740741,4,3,1,80,0,1
123429,-117.64705882353,4,2,1,60,0,0
124179,-117.64705882353,4,2,2,5,0,0
124286,-117.64705882353,4,2,1,60,0,0
125036,-117.64705882353,4,2,2,5,0,0
125143,-117.64705882353,4,2,1,60,0,0
130286,-105.263157894737,4,3,1,70,0,0
137143,-80.0000000000001,4,3,1,70,0,0
153857,-64.5161290322581,4,3,1,70,0,0
154286,-74.0740740740741,4,3,1,70,0,0
155250,-74.0740740740741,4,3,2,5,0,0
155357,-74.0740740740741,4,3,1,70,0,0
156214,-68.9655172413793,4,3,1,70,0,0
156536,-68.9655172413793,4,3,2,5,0,0
156643,-68.9655172413793,4,3,1,70,0,0
156964,-68.9655172413793,4,3,2,5,0,0
157072,-68.9655172413793,4,3,1,70,0,0
159214,-74.0740740740741,4,3,1,70,0,0
159964,-74.0740740740741,4,3,2,5,0,0
160072,-68.9655172413793,4,3,1,70,0,0
160822,-68.9655172413793,4,3,2,5,0,0
160929,-64.5161290322581,4,3,1,70,0,0
164464,-64.5161290322581,4,3,2,70,0,0
164572,-117.647058823529,4,2,1,50,0,0
191893,-117.647058823529,4,2,2,5,0,0
192000,-222.222222222222,4,2,1,50,0,0
192750,-95.2380952380952,4,2,1,70,0,0
192857,-86.9565217391302,4,2,1,70,0,0
193714,-74.0740740740739,4,3,1,80,0,1
207429,-68.9655172413793,4,3,1,80,0,1
246857,-222.222222222222,4,3,1,80,0,0
246964,-222.222222222222,4,2,1,74,0,0
247286,-222.222222222222,4,2,1,68,0,0
247714,-222.222222222222,4,2,1,62,0,0
248143,-222.222222222222,4,2,1,56,0,0
248572,-222.222222222222,4,2,1,50,0,0
249000,-222.222222222222,4,2,1,44,0,0
249429,-222.222222222222,4,2,1,38,0,0
249857,-222.222222222222,4,2,1,32,0,0
250179,-222.222222222222,4,3,2,5,0,0
250286,-285.714285714286,4,2,1,30,0,0
270000,-285.714285714286,4,2,1,30,0,0
270770,428.571428571429,4,2,1,30,1,0
270877,460.652591170825,4,2,1,30,1,0
270877,-285.714285714286,4,2,1,30,0,0
271337,436.363636363636,4,2,1,30,1,0
271773,-285.714285714286,4,2,1,30,0,0
272209,452.830188679245,4,2,1,30,1,0
272661,472.44094488189,4,2,1,30,1,0
272661,-285.714285714286,4,2,1,30,0,0
273133,454.545454545455,4,2,1,30,1,0
273586,409.556313993174,4,2,1,30,1,0
274405,485.82995951417,4,2,1,30,1,0
274647,441.176470588235,4,2,1,30,1,0
274647,-285.714285714286,4,2,1,30,0,0
274702,-285.714285714286,4,2,1,5,0,0
276852,-285.714285714286,4,2,1,15,0,0

[Colours]
Combo1 : 123,145,123
Combo2 : 165,58,64
Combo3 : 228,223,154

[HitObjects]
64,343,8571,5,10,0:0:0:0:
77,333,8786,2,0,L|86:253,2,59.5000011348725,0|2|0,0:0|0:0|0:0,0:0:0:0:
182,200,9643,2,0,L|191:279,2,59.5000011348725,0|2|0,0:0|0:0|0:0,0:0:0:0:
295,136,10500,2,0,L|285:215,2,59.5000011348725,0|2|0,0:0|0:0|0:0,0:0:0:0:
399,141,11357,2,0,L|389:61,2,59.5000011348725,0|2|0,0:0|0:0|0:0,0:0:0:0:
429,245,12000,5,8,0:0:0:0:
417,234,12214,2,0,P|390:219|336:226,2,59.5000011348725,0|2|0,0:0|0:0|0:0,0:0:0:0:
330,346,13072,2,0,P|353:328|368:302,2,59.5000011348725,0|2|0,0:0|0:0|0:0,0:0:0:0:
229,279,13929,2,0,L|289:273,2,59.5000011348725,0|2|0,0:0|0:0|0:0,0:0:0:0:
114,359,14786,2,0,L|44:350,2,59.5000011348725
193,301,15429,5,10,0:0:0:0:
206,291,15644,2,0,L|195:211,1,73.4999977569581,0|2,0:0|0:0,0:0:0:0:
60,145,16072,1,0,0:0:0:0:
61,162,16500,6,0,P|101:185|151:184,1,73.4999977569581,0|2,0:0|0:0,0:0:0:0:
231,166,16929,1,0,0:0:0:0:
237,149,17357,6,0,P|271:136|307:138,1,73.4999977569581,0|2,0:0|0:0,0:0:0:0:
430,68,17786,1,0,0:0:0:0:
446,56,18000,6,0,P|431:102|411:212,1,146.999995513916,2|0,0:0|0:0,0:0:0:0:
365,263,18643,1,0,0:0:0:0:
446,283,18857,1,10,0:0:0:0:
460,272,19072,6,0,B|493:278|509:257|509:257|494:249|473:256,2,73.4999977569581,0|2|0,0:0|0:0|0:0,0:0:0:0:
354,250,19929,2,0,B|321:244|305:265|305:265|320:273|341:266,2,73.4999977569581,0|2|0,0:0|0:0|0:0,0:0:0:0:
384,343,20572,5,8,0:0:0:0:
264,324,20786,2,0,P|251:346|246:372,1,36.749998878479
178,345,21000,2,0,P|177:370|186:395,1,36.749998878479
37,309,21214,1,0,0:0:0:0:
37,309,21322,2,0,P|29:295|17:285,1,18.3749994392395
18,282,21429,5,8,0:0:0:0:
27,239,21536,1,2,0:0:0:0:
51,206,21643,1,2,0:0:0:0:
82,187,21750,1,2,0:0:0:0:
114,182,21857,1,8,0:0:0:0:
143,186,21964,1,0,0:0:0:0:
165,198,22072,1,0,0:0:0:0:
182,211,22179,1,0,0:0:0:0:
194,223,22286,6,0,P|245:249|290:238,1,87.5,12|2,0:0|2:0,0:0:0:0:
330,196,22714,2,0,P|278:169|233:180,1,87.5,0|0,0:0|2:0,0:0:0:0:
332,354,23143,2,0,L|344:250,1,87.5,8|2,0:0|2:0,0:0:0:0:
400,220,23572,2,0,L|486:230,1,87.5,0|0,0:0|2:0,0:0:0:0:
440,302,24000,5,8,0:0:0:0:
458,147,24214,1,2,2:0:0:0:
486,230,24429,1,0,0:0:0:0:
467,60,24643,1,2,2:0:0:0:
464,43,24857,6,0,P|369:27|369:123,1,218.75,8|0,0:0|0:0,0:0:0:0:
301,168,25500,1,2,2:0:0:0:
283,165,25714,6,0,L|195:154,1,87.5,8|2,0:0|2:0,0:0:0:0:
175,79,26143,2,0,L|262:89,1,87.5,0|0,0:0|2:0,0:0:0:0:
166,2,26572,2,0,P|116:29|97:92,1,87.5,8|2,0:0|2:0,0:0:0:0:
36,25,27000,2,0,P|34:81|80:129,1,87.5,0|0,0:0|2:0,0:0:0:0:
122,137,27429,5,8,0:0:0:0:
0,168,27643,1,2,2:0:0:0:
73,284,27857,2,0,B|80:238|80:238|71:187,2,87.5,0|0|8,0:0|2:0|0:0,0:0:0:0:
123,344,28500,1,2,2:0:0:0:
195,315,28714,2,0,B|202:269|202:269|226:224,1,87.5,0|0,0:0|2:0,0:0:0:0:
278,296,29000,5,0,0:0:0:0:
278,296,29072,1,0,0:0:0:0:
278,296,29143,2,0,P|334:308|375:286,1,87.5,12|2,0:0|2:0,0:0:0:0:
402,234,29572,2,0,P|345:221|304:243,1,87.5,0|0,0:0|2:0,0:0:0:0:
441,377,30000,2,0,L|454:265,1,87.5,8|2,0:0|2:0,0:0:0:0:
402,234,30429,2,0,L|388:122,1,87.5,0|0,0:0|2:0,0:0:0:0:
456,44,30857,5,8,0:0:0:0:
332,87,31072,1,2,2:0:0:0:
469,119,31286,1,0,0:0:0:0:
380,26,31501,1,2,2:0:0:0:
369,12,31714,2,0,P|305:8|272:145,1,218.75,8|0,0:0|0:0,0:0:0:0:
189,155,32357,5,2,2:0:0:0:
176,142,32572,2,0,L|165:229,1,87.5,8|2,0:0|2:0,0:0:0:0:
92,219,33000,2,0,L|102:131,1,87.5,0|0,0:0|2:0,0:0:0:0:
15,228,33429,2,0,P|42:278|105:297,1,87.5,8|2,0:0|2:0,0:0:0:0:
88,364,33857,2,0,P|123:338|140:299,1,87.5,0|0,0:0|2:0,0:0:0:0:
286,269,34286,5,8,0:0:0:0:
314,272,34393,1,0,0:0:0:0:
343,276,34500,1,2,0:0:0:0:
372,279,34607,1,0,0:0:0:0:
401,283,34714,2,0,L|415:163,1,87.5,8|2,0:0|0:0,0:0:0:0:
377,107,35143,5,8,0:0:0:0:
404,67,35250,1,2,0:0:0:0:
445,54,35357,1,2,0:0:0:0:
482,66,35464,1,2,0:0:0:0:
504,93,35572,1,8,0:0:0:0:
511,122,35679,1,0,0:0:0:0:
506,147,35786,1,2,0:0:0:0:
494,165,35893,1,2,0:0:0:0:
481,176,36000,1,12,0:0:0:0:
322,52,36429,5,0,0:0:0:0:
310,148,36643,1,2,2:0:0:0:
214,136,36857,1,0,0:0:0:0:
226,40,37072,2,0,P|169:52|119:124,1,131.25,2|0,2:0|0:0,0:0:0:0:
61,141,37500,6,0,L|72:236,1,87.5,2|0,2:0|0:0,0:0:0:0:
18,301,37929,2,0,P|56:333|110:321,1,87.5,2|0,2:0|0:0,0:0:0:0:
182,342,38358,2,0,P|190:293|153:252,1,87.5,2|0,2:0|0:0,0:0:0:0:
135,180,38786,2,0,P|88:196|71:249,2,87.5,0|0|0,2:0|0:0|2:0,0:0:0:0:
171,262,39429,1,2,0:0:0:0:
484,348,39857,5,0,0:0:0:0:
338,364,40071,1,2,2:0:0:0:
484,348,40285,1,0,0:0:0:0:
338,364,40500,2,0,B|326:339|326:339|331:289|323:223,1,131.25,2|0,2:0|0:0,0:0:0:0:
391,210,40929,6,0,L|402:115,1,87.5,2|0,2:0|0:0,0:0:0:0:
348,50,41357,2,0,P|386:18|440:30,1,87.5,2|0,2:0|0:0,0:0:0:0:
512,9,41786,2,0,P|520:58|483:99,1,87.5,2|0,2:0|0:0,0:0:0:0:
465,171,42214,2,0,P|418:155|401:102,1,87.5,2|0,2:0|0:0,0:0:0:0:
348,50,42643,1,2,0:0:0:0:
348,50,42714,1,2,0:0:0:0:
348,50,42786,1,2,0:0:0:0:
348,50,42858,1,2,0:0:0:0:
65,153,43286,5,0,0:0:0:0:
54,56,43500,1,2,2:0:0:0:
122,0,43714,1,0,0:0:0:0:
133,97,43929,2,0,B|140:160|140:160|120:236,1,131.25,2|0,2:0|0:0,0:0:0:0:
105,293,44357,1,2,2:0:0:0:
263,384,44786,6,0,L|363:358,1,87.5,2|0,2:0|0:0,0:0:0:0:
437,292,45214,2,0,L|336:266,1,87.5,2|0,2:0|0:0,0:0:0:0:
261,202,45643,2,0,L|411:164,1,131.25,2|0,2:0|0:0,0:0:0:0:
445,210,46072,1,2,2:0:0:0:
463,96,46286,2,0,P|442:52|415:23,1,87.5,0|0,0:0|2:0,0:0:0:0:
301,55,46714,2,0,P|342:68|377:94,2,87.5,0|0|0,0:0|2:0|0:0,0:0:0:0:
198,92,47357,2,0,L|102:80,1,87.5,0|0,2:0|0:0,0:0:0:0:
14,2,47786,5,2,2:0:0:0:
32,152,48000,1,0,0:0:0:0:
51,303,48214,1,2,2:0:0:0:
192,328,48429,6,0,L|181:370,1,43.75
111,358,48643,2,0,L|121:315,1,43.75,2|0,0:0|0:0,0:0:0:0:
252,273,48857,2,0,L|262:315,1,43.75
333,303,49072,2,0,L|322:260,1,43.75,2|0,0:0|0:0,0:0:0:0:
373,169,49286,5,0,0:0:0:0:
382,202,49393,1,2,0:0:0:0:
391,240,49500,1,2,0:0:0:0:
402,282,49607,1,2,0:0:0:0:
414,328,49714,2,0,L|456:317,2,43.75,2|0|2,0:0|0:0|0:0,0:0:0:0:
373,169,50143,5,0,0:0:0:0:
470,180,50357,1,2,2:0:0:0:
500,81,50572,1,0,0:0:0:0:
403,92,50786,2,0,B|355:97|355:97|324:109|324:109|261:117,1,131.25,2|0,2:0|0:0,0:0:0:0:
266,184,51214,6,0,L|178:194,1,87.5,2|0,2:0|0:0,0:0:0:0:
101,244,51643,2,0,P|84:196|41:157,1,87.5,2|0,2:0|0:0,0:0:0:0:
151,156,52072,2,0,P|121:114|71:86,1,87.5,2|0,2:0|0:0,0:0:0:0:
41,19,52500,2,0,P|13:52|0:93,2,87.5,0|0|0,2:0|0:0|2:0,0:0:0:0:
91,94,53143,1,2,0:0:0:0:
0,362,53572,5,0,0:0:0:0:
145,345,53786,1,2,2:0:0:0:
0,362,54000,1,0,0:0:0:0:
144,345,54214,2,0,P|184:268|232:279,1,131.25,2|0,2:0|0:0,0:0:0:0:
256,327,54643,6,0,L|351:315,1,87.5,2|0,2:0|0:0,0:0:0:0:
411,370,55072,2,0,P|428:322|471:283,1,87.5,2|0,2:0|0:0,0:0:0:0:
361,282,55500,2,0,P|391:240|441:212,1,87.5,2|0,2:0|0:0,0:0:0:0:
471,145,55929,2,0,P|499:178|512:219,1,87.5,2|0,2:0|0:0,0:0:0:0:
420,220,56357,1,2,0:0:0:0:
420,220,56429,1,2,0:0:0:0:
420,220,56500,1,2,0:0:0:0:
420,220,56572,1,2,0:0:0:0:
245,153,57000,5,0,0:0:0:0:
256,56,57214,1,2,2:0:0:0:
173,0,57429,1,0,0:0:0:0:
184,97,57643,2,0,P|127:101|78:174,1,131.25,2|0,2:0|0:0,0:0:0:0:
22,94,58072,2,0,P|-3:145|35:224,1,131.25,2|0,2:0|0:0,0:0:0:0:
81,313,58500,2,0,L|95:193,1,87.5,2|0,2:0|0:0,0:0:0:0:
184,97,58929,6,0,L|326:114,1,131.25,2|0,2:0|0:0,0:0:0:0:
387,154,59357,2,0,P|397:97|340:31,1,131.25,2|0,2:0|0:0,0:0:0:0:
314,112,59786,1,2,2:0:0:0:
353,245,60000,5,0,0:0:0:0:
474,136,60214,1,2,2:0:0:0:
405,315,60429,1,0,0:0:0:0:
387,154,60643,1,2,2:0:0:0:
508,251,60857,6,0,L|455:230,1,43.75
370,200,61072,2,0,L|317:179,1,43.75,2|0,0:0|0:0,0:0:0:0:
405,315,61286,2,0,L|352:294,1,43.75
247,264,61500,1,2,0:0:0:0:
247,264,61572,1,2,0:0:0:0:
247,264,61643,1,2,0:0:0:0:
247,264,61714,2,0,L|254:327,1,43.75
182,316,61929,2,0,L|177:273,1,43.75,2|0,0:0|0:0,0:0:0:0:
42,211,62143,2,0,L|37:255,1,43.75
107,264,62357,2,0,L|112:220,1,43.75,2|0,0:0|0:0,0:0:0:0:
130,82,62572,5,0,0:0:0:0:
139,66,62679,1,0,0:0:0:0:
156,50,62786,1,2,0:0:0:0:
179,42,62893,1,0,0:0:0:0:
209,43,63000,1,2,0:0:0:0:
238,61,63108,1,2,0:0:0:0:
256,96,63215,1,2,0:0:0:0:
250,138,63322,1,2,0:0:0:0:
215,172,63429,1,4,0:0:0:0:
0,374,63857,5,0,0:0:0:0:
75,308,64072,1,2,0:0:0:0:
164,353,64286,1,0,0:0:0:0:
472,150,64929,6,0,P|499:181|506:222,1,73.4999977569581
397,384,65357,1,2,0:0:0:0:
417,220,65572,1,0,0:0:0:0:
489,312,65786,1,2,0:0:0:0:
324,291,66001,1,0,0:0:0:0:
407,302,66214,5,2,0:0:0:0:
407,302,66322,1,2,0:0:0:0:
407,302,66429,1,4,0:0:0:0:
270,361,66643,2,0,P|254:347|243:329,3,24.4999992523194
488,79,67286,5,0,0:0:0:0:
412,13,67500,1,2,0:0:0:0:
324,61,67715,1,0,0:0:0:0:
48,20,68357,6,0,P|15:46|-3:83,1,73.4999977569581,0|2,0:0|0:0,0:0:0:0:
100,110,68786,1,0,0:0:0:0:
148,163,69000,2,0,P|115:136|96:99,1,73.4999977569581,2|0,0:0|0:0,0:0:0:0:
202,70,69429,1,0,0:0:0:0:
255,163,69643,5,2,0:0:0:0:
255,163,69750,1,0,0:0:0:0:
255,163,69857,1,2,0:0:0:0:
259,5,70072,1,0,0:0:0:0:
198,228,70286,1,4,0:0:0:0:
475,369,70714,5,0,0:0:0:0:
512,266,70928,1,0,0:0:0:0:
408,285,71142,1,0,0:0:0:0:
73,384,71786,6,0,B|33:385|33:385|-9:373,1,73.4999977569581,0|2,0:0|0:0,0:0:0:0:
30,179,72214,1,0,0:0:0:0:
145,165,72429,1,2,0:0:0:0:
156,281,72643,1,2,0:0:0:0:
41,295,72858,1,0,0:0:0:0:
92,230,73071,5,2,0:0:0:0:
92,230,73179,1,2,0:0:0:0:
92,230,73286,1,4,0:0:0:0:
216,129,73500,2,0,P|231:142|245:166,2,24.4999992523194
244,168,73714,6,0,B|288:139|336:157|328:165|375:188|430:153,1,183.749994392395,2|0,0:0|0:0,0:0:0:0:
480,110,74357,2,0,P|437:44|376:116,1,183.749994392395,2|0,0:0|0:0,0:0:0:0:
420,158,75000,2,0,B|464:214|454:283|454:283|431:259|395:252,1,183.749994392395,2|0,0:0|0:0,0:0:0:0:
344,245,75643,1,0,0:0:0:0:
281,307,75857,6,0,P|259:350|252:387,1,73.4999977569581
259,221,76286,1,0,0:0:0:0:
196,283,76500,1,2,0:0:0:0:
196,283,76607,1,2,0:0:0:0:
196,283,76714,2,0,P|174:326|167:363,1,73.4999977569581,2|0,0:0|0:0,0:0:0:0:
0,141,77143,6,0,L|125:125,1,110.249996635437,4|0,0:0|0:0,0:0:0:0:
147,123,77572,1,0,0:0:0:0:
259,35,77786,1,2,0:0:0:0:
158,22,78000,1,0,0:0:0:0:
440,171,78643,6,0,P|425:131|429:89,1,73.4999977569581,0|2,0:0|0:0,0:0:0:0:
512,116,79072,1,0,0:0:0:0:
441,257,79286,1,2,0:0:0:0:
336,139,79500,1,2,0:0:0:0:
408,5,79714,1,0,0:0:0:0:
498,118,79929,5,2,0:0:0:0:
484,119,80036,1,2,0:0:0:0:
471,120,80143,1,4,0:0:0:0:
402,227,80357,2,0,L|357:221,2,24.4999992523194
354,220,80572,6,0,P|297:254|287:314,1,110.249996635437
288,311,81000,1,0,0:0:0:0:
197,295,81214,1,2,0:0:0:0:
230,384,81428,1,0,0:0:0:0:
8,197,82072,6,0,L|91:206,1,73.4999977569581,0|2,0:0|0:0,0:0:0:0:
165,135,82500,1,0,0:0:0:0:
239,127,82714,2,0,L|155:136,1,73.4999977569581,2|2,0:0|0:0,0:0:0:0:
82,69,83143,1,0,0:0:0:0:
165,135,83357,5,2,0:0:0:0:
165,135,83464,1,0,0:0:0:0:
165,135,83572,1,2,0:0:0:0:
81,205,83786,1,0,0:0:0:0:
167,0,84000,6,0,P|228:11|275:52,1,110.249996635437,4|0,0:0|0:0,0:0:0:0:
281,74,84429,1,0,0:0:0:0:
386,60,84643,1,2,0:0:0:0:
490,47,84857,1,0,0:0:0:0:
497,219,85500,6,0,P|504:260|489:299,1,73.4999977569581,0|2,0:0|0:0,0:0:0:0:
298,267,85929,1,0,0:0:0:0:
414,252,86143,1,2,0:0:0:0:
430,367,86357,1,2,0:0:0:0:
314,384,86572,1,0,0:0:0:0:
364,318,86786,5,2,0:0:0:0:
364,318,86893,1,0,0:0:0:0:
364,318,87000,1,2,0:0:0:0:
215,276,87214,1,0,0:0:0:0:
399,182,87429,6,0,P|403:65|288:43,1,253.750007743836,6|0,0:0|0:0,0:0:0:0:
218,26,88072,2,0,P|107:-9|55:96,1,253.750007743836,2|0,0:0|0:0,0:0:0:0:
97,155,88714,2,0,B|165:219|141:300|141:300|173:196|230:250|277:187|262:124,1,385.000011749268,6|0,0:0|0:0,0:0:0:0:
403,121,94072,5,0,0:0:0:0:
403,121,94179,1,0,0:0:0:0:
403,121,94286,2,0,P|403:143|413:162,3,43.75
483,144,94714,2,0,P|481:122|471:103,1,43.75
419,40,94929,6,0,P|431:40|442:39,1,14.8750002837181,2|2,0:0|0:0,0:0:0:0:
415,25,95036,2,0,P|425:19|434:13,1,14.8750002837181,2|2,0:0|0:0,0:0:0:0:
403,13,95143,5,0,0:0:0:0:
382,3,95250,1,0,0:0:0:0:
359,0,95357,1,0,0:0:0:0:
336,6,95464,1,0,0:0:0:0:
317,17,95572,5,2,0:0:0:0:
282,34,95679,1,2,0:0:0:0:
243,39,95786,1,2,0:0:0:0:
204,28,95893,1,2,0:0:0:0:
171,8,96000,6,0,L|158:115,1,94.5000003604889,8|0,0:0|2:0,0:0:0:0:
72,194,96429,1,0,0:0:0:0:
223,213,96643,1,2,2:0:0:0:
140,323,96857,2,0,L|46:334,2,94.5000003604889,8|0|0,0:0|2:0|0:0,0:0:0:0:
276,339,97500,5,2,2:0:0:0:
412,355,97714,1,8,0:0:0:0:
493,246,97929,2,0,L|398:258,1,94.5000003604889,2|0,2:0|0:0,0:0:0:0:
223,213,98357,1,2,2:0:0:0:
305,105,98572,5,8,0:0:0:0:
440,121,98786,1,0,2:0:0:0:
325,27,99000,1,0,0:0:0:0:
293,30,99107,1,0,0:0:0:0:
261,34,99214,1,0,2:0:0:0:
182,94,99429,6,0,L|193:187,1,94.5000003604889,8|0,0:0|2:0,0:0:0:0:
21,166,99857,1,0,0:0:0:0:
154,264,100072,1,2,2:0:0:0:
41,250,100286,2,0,P|5:290|6:354,2,94.5000003604889,8|0|0,0:0|2:0|0:0,0:0:0:0:
211,337,100929,5,2,2:0:0:0:
227,206,101143,1,8,0:0:0:0:
96,190,101357,1,2,2:0:0:0:
80,321,101572,1,0,0:0:0:0:
266,277,101786,1,2,2:0:0:0:
333,356,102000,5,8,0:0:0:0:
319,352,102107,1,2,0:0:0:0:
305,348,102214,1,2,2:0:0:0:
227,206,102429,1,8,0:0:0:0:
260,195,102536,1,2,0:0:0:0:
294,185,102643,1,2,2:0:0:0:
492,313,102857,6,0,L|503:217,1,94.5000003604889,12|0,0:0|2:0,0:0:0:0:
408,106,103286,1,0,0:0:0:0:
427,257,103500,1,2,2:0:0:0:
469,52,103714,2,0,P|430:26|384:26,2,94.5000003604889,8|0|0,0:0|2:0|0:0,0:0:0:0:
347,160,104357,5,2,2:0:0:0:
204,142,104572,1,8,0:0:0:0:
60,123,104786,2,0,P|82:163|125:180,1,94.5000003604889,2|0,2:0|0:0,0:0:0:0:
281,103,105214,1,2,2:0:0:0:
149,18,105429,2,0,P|125:57|132:102,1,94.5000003604889,8|0,0:0|2:0,0:0:0:0:
192,235,105857,2,0,L|204:131,1,94.5000003604889,0|0,0:0|2:0,0:0:0:0:
80,308,106286,5,8,0:0:0:0:
111,305,106500,1,2,2:0:0:0:
243,343,106714,1,0,0:0:0:0:
274,346,106928,1,2,2:0:0:0:
411,363,107143,1,8,0:0:0:0:
497,252,107357,5,2,2:0:0:0:
358,235,107571,1,0,0:0:0:0:
274,346,107785,1,2,2:0:0:0:
419,319,108000,6,0,L|425:263,1,47.2500001802444,8|0,0:0|0:0,0:0:0:0:
497,252,108214,2,0,L|450:246,1,47.2500001802444,2|0,0:0|0:0,0:0:0:0:
436,168,108429,2,0,L|429:223,1,47.2500001802444,8|0,0:0|0:0,0:0:0:0:
358,235,108643,2,0,L|404:240,1,47.2500001802444,2|0,0:0|0:0,0:0:0:0:
512,80,108857,5,8,0:0:0:0:
486,58,108964,1,0,0:0:0:0:
455,47,109071,1,0,0:0:0:0:
423,46,109178,1,0,0:0:0:0:
391,56,109286,5,2,0:0:0:0:
359,82,109393,1,2,0:0:0:0:
322,95,109500,1,2,0:0:0:0:
284,96,109607,1,2,0:0:0:0:
245,84,109714,6,0,L|257:187,1,94.5000003604889,12|0,0:0|2:0,0:0:0:0:
143,304,110143,1,0,0:0:0:0:
161,146,110357,1,2,2:0:0:0:
4,188,110572,2,0,P|26:222|75:247,2,94.5000003604889,8|0|0,0:0|2:0|0:0,0:0:0:0:
76,19,111214,5,2,2:0:0:0:
92,155,111428,1,8,0:0:0:0:
228,139,111643,2,0,L|214:250,1,94.5000003604889,2|0,2:0|0:0,0:0:0:0:
92,155,112072,1,2,2:0:0:0:
168,63,112286,5,8,0:0:0:0:
303,79,112500,1,0,2:0:0:0:
414,7,112714,1,0,0:0:0:0:
446,4,112821,1,0,0:0:0:0:
478,0,112928,1,0,2:0:0:0:
462,138,113143,6,0,L|474:241,1,94.5000003604889,8|0,0:0|2:0,0:0:0:0:
318,368,113572,1,0,0:0:0:0:
340,220,113786,1,2,2:0:0:0:
468,305,114000,2,0,L|375:295,2,94.5000003604889,8|0|0,0:0|2:0|0:0,0:0:0:0:
244,311,114643,5,2,2:0:0:0:
187,384,114857,1,8,0:0:0:0:
171,253,115071,1,2,2:0:0:0:
318,368,115285,1,0,0:0:0:0:
302,237,115500,1,2,2:0:0:0:
104,282,115714,5,8,0:0:0:0:
115,302,115821,1,2,0:0:0:0:
132,318,115928,1,2,2:0:0:0:
201,185,116143,1,8,0:0:0:0:
180,216,116250,1,2,0:0:0:0:
171,253,116357,1,2,2:0:0:0:
4,159,116572,6,0,L|107:171,1,94.5000003604889,12|0,0:0|2:0,0:0:0:0:
215,73,117000,1,0,0:0:0:0:
63,91,117214,1,2,2:0:0:0:
252,0,117428,2,0,P|286:31|297:76,2,94.5000003604889,8|0|0,0:0|2:0|0:0,0:0:0:0:
254,136,118072,5,0,2:0:0:0:
295,236,118286,1,8,0:0:0:0:
427,61,118500,2,0,L|331:49,1,94.5000003604889,2|0,2:0|0:0,0:0:0:0:
405,249,118929,1,2,2:0:0:0:
469,162,119143,2,0,L|373:150,1,94.5000003604889,8|0,0:0|2:0,0:0:0:0:
393,342,119572,2,0,L|404:248,1,94.5000003604889,0|0,0:0|2:0,0:0:0:0:
212,202,120000,5,8,0:0:0:0:
215,233,120214,1,2,2:0:0:0:
114,328,120429,1,0,0:0:0:0:
117,297,120643,1,2,2:0:0:0:
127,160,120857,1,8,0:0:0:0:
69,39,121072,5,0,2:0:0:0:
163,90,121286,1,0,0:0:0:0:
300,73,121501,1,0,2:0:0:0:
379,0,121714,6,0,P|364:31|368:53,1,47.2500001802444,8|0,0:0|0:0,0:0:0:0:
300,73,121929,2,0,P|320:101|341:109,1,47.2500001802444,2|0,0:0|0:0,0:0:0:0:
505,137,122143,2,0,P|493:116|474:103,1,47.2500001802444,8|0,0:0|0:0,0:0:0:0:
482,32,122357,2,0,P|458:31|437:41,1,47.2500001802444,2|0,0:0|0:0,0:0:0:0:
403,166,122572,5,8,0:0:0:0:
406,192,122679,1,0,0:0:0:0:
409,218,122786,1,0,0:0:0:0:
412,244,122893,1,0,0:0:0:0:
415,271,123000,5,10,0:0:0:0:
371,254,123107,1,2,0:0:0:0:
326,267,123214,1,2,0:0:0:0:
298,304,123321,1,2,0:0:0:0:
298,350,123429,6,0,B|210:360|210:360|177:356|177:356|90:367,1,208.250003972054,4|0,0:0|0:0,0:0:0:0:
17,376,124286,2,0,P|20:282|134:273,1,208.250003972054
190,270,125143,5,8,0:0:0:0:
203,261,125357,2,0,P|216:219|249:199,2,59.5000011348725,0|2|0,0:0|0:0|0:0,0:0:0:0:
323,279,126214,2,0,P|321:235|294:207,2,59.5000011348725,0|2|0,0:0|0:0|0:0,0:0:0:0:
453,371,126857,5,8,0:0:0:0:
463,358,127072,2,0,L|470:294,1,59.5000011348725,0|2,0:0|0:0,0:0:0:0:
406,235,127499,1,0,0:0:0:0:
396,222,127929,6,0,L|388:158,1,59.5000011348725,0|2,0:0|0:0,0:0:0:0:
453,99,128357,1,0,0:0:0:0:
463,86,128787,6,0,L|470:22,1,59.5000011348725,0|2,0:0|0:0,0:0:0:0:
327,38,129214,6,0,P|332:55|343:75,1,29.7500005674362
256,69,129429,2,0,P|261:86|274:108,3,29.7500005674362,2|0|2|0,0:0|0:0|0:0|0:0,0:0:0:0:
219,1,129857,2,0,P|187:34|177:69,1,59.5000011348725
130,195,130286,5,12,0:0:0:0:
39,318,130500,5,0,0:0:0:0:
156,269,130714,1,2,0:0:0:0:
276,312,130929,2,0,L|187:322,1,66.4999982242585
32,333,131357,5,0,0:0:0:0:
149,284,131571,1,2,0:0:0:0:
269,327,131786,2,0,L|180:337,1,66.4999982242585
130,195,132214,5,0,0:0:0:0:
264,212,132429,1,2,0:0:0:0:
398,229,132643,2,0,L|493:240,1,66.4999982242585
126,179,133072,5,0,0:0:0:0:
260,196,133287,1,2,0:0:0:0:
394,213,133501,2,0,L|489:224,1,66.4999982242585
248,187,133929,5,0,0:0:0:0:
229,36,134143,1,2,0:0:0:0:
233,175,134357,1,0,0:0:0:0:
205,27,134572,1,0,0:0:0:0:
123,0,134786,5,0,0:0:0:0:
104,151,135000,1,2,0:0:0:0:
106,10,135214,1,0,0:0:0:0:
40,182,135429,6,0,P|42:190|66:211,3,33.2499991121292,2|0|0|0,0:0|0:0|0:0|0:0,0:0:0:0:
134,216,135857,2,0,P|149:209|160:196,3,33.2499991121292,2|0|0|0,0:0|0:0|0:0|0:0,0:0:0:0:
89,273,136286,6,0,L|83:320,1,33.2499991121292
157,284,136500,2,0,L|151:331,1,33.2499991121292,2|0,0:0|0:0,0:0:0:0:
224,354,136714,2,0,L|218:306,1,33.2499991121292
291,342,136929,2,0,L|285:294,1,33.2499991121292,2|0,0:0|0:0,0:0:0:0:
278,239,137143,5,12,0:0:0:0:
278,239,137357,5,0,0:0:0:0:
291,134,137571,1,0,0:0:0:0:
304,30,137786,1,2,0:0:0:0:
500,191,138215,5,2,0:0:0:0:
493,138,138429,1,0,0:0:0:0:
487,87,138643,1,0,0:0:0:0:
304,30,139072,5,2,0:0:0:0:
291,134,139287,1,0,0:0:0:0:
278,239,139501,1,0,0:0:0:0:
487,87,139929,5,0,0:0:0:0:
493,138,140143,1,0,0:0:0:0:
500,191,140357,1,2,0:0:0:0:
395,42,140786,6,0,L|299:30,2,87.5,0|2|0,0:0|0:0|0:0,0:0:0:0:
291,134,141429,2,0,L|203:144,1,87.5,2|0,0:0|0:0,0:0:0:0:
204,143,142072,1,2,0:0:0:0:
0,16,142500,5,2,0:0:0:0:
29,135,142715,1,0,0:0:0:0:
58,254,142929,1,0,0:0:0:0:
159,177,143143,5,0,0:0:0:0:
16,142,143357,1,2,0:0:0:0:
65,343,143572,1,0,0:0:0:0:
65,343,143786,1,2,0:0:0:0:
358,213,144000,5,12,0:0:0:0:
358,213,144214,5,0,0:0:0:0:
255,185,144429,1,0,0:0:0:0:
164,238,144643,1,2,0:0:0:0:
325,357,145072,5,2,0:0:0:0:
281,383,145287,1,0,0:0:0:0:
230,369,145500,1,0,0:0:0:0:
164,238,145929,5,2,0:0:0:0:
255,185,146143,1,0,0:0:0:0:
358,213,146358,1,0,0:0:0:0:
230,369,146786,5,0,0:0:0:0:
281,383,147001,1,0,0:0:0:0:
325,357,147214,1,2,0:0:0:0:
358,213,147643,6,0,P|402:190|428:139,2,87.5,0|2|0,0:0|0:0|0:0,0:0:0:0:
255,185,148286,2,0,P|233:141|181:115,1,87.5,2|0,0:0|0:0,0:0:0:0:
201,120,148929,1,2,0:0:0:0:
33,9,149357,5,2,0:0:0:0:
19,130,149572,1,0,0:0:0:0:
5,252,149786,1,0,0:0:0:0:
89,286,150000,5,2,0:0:0:0:
84,242,150107,1,2,0:0:0:0:
79,199,150214,1,2,0:0:0:0:
173,320,150429,1,2,0:0:0:0:
167,336,150536,1,2,0:0:0:0:
161,354,150643,1,2,0:0:0:0:
209,235,150857,5,12,0:0:0:0:
209,235,151071,5,0,0:0:0:0:
318,248,151285,1,0,0:0:0:0:
427,262,151500,1,2,0:0:0:0:
143,137,151929,5,2,0:0:0:0:
197,130,152144,1,0,0:0:0:0:
252,123,152358,1,0,0:0:0:0:
252,123,152786,5,2,0:0:0:0:
197,130,153000,1,0,0:0:0:0:
143,137,153215,1,0,0:0:0:0:
427,262,153643,5,0,0:0:0:0:
443,106,153857,2,0,B|403:110|403:110|370:106|370:106|322:112,1,108.500000827789,2|0,0:0|0:0,0:0:0:0:
195,19,154286,5,0,0:0:0:0:
195,19,154500,2,0,L|99:7,1,94.5000003604889,2|0,0:0|0:0,0:0:0:0:
0,114,154929,2,0,B|37:103|71:124|56:131|91:154|142:140,1,141.750000540733,2|0,0:0|0:0,0:0:0:0:
184,91,155357,1,2,0:0:0:0:
16,188,155572,1,2,0:0:0:0:
191,255,155786,2,0,P|200:209|202:142,1,94.5000003604889,2|0,0:0|0:0,0:0:0:0:
343,97,156214,6,0,B|340:72|347:57|347:57|412:56|444:108,1,152.250004646301,2|0,0:0|0:0,0:0:0:0:
512,82,156643,2,0,P|464:142|451:233,1,152.250004646301,2|0,0:0|0:0,0:0:0:0:
469,285,157072,2,0,P|448:258|384:242,1,101.500003097534,2|0,0:0|0:0,0:0:0:0:
285,361,157500,1,0,0:0:0:0:
181,309,157714,5,12,0:0:0:0:
181,309,157929,6,0,L|236:302,1,50.7500015487671
280,243,158143,1,2,0:0:0:0:
397,315,158357,1,0,0:0:0:0:
464,146,158572,1,0,0:0:0:0:
443,155,158679,1,0,0:0:0:0:
420,157,158786,1,2,0:0:0:0:
404,59,159000,5,0,0:0:0:0:
332,126,159214,5,0,0:0:0:0:
309,122,159322,1,0,0:0:0:0:
286,127,159429,2,0,B|237:150|221:204|221:204|242:128|204:75,1,236.250000901222,2|0,0:0|0:0,0:0:0:0:
163,23,160072,2,0,P|67:-13|97:155,1,355.25001084137,2|0,0:0|0:0,0:0:0:0:
160,151,160929,1,2,0:0:0:0:
160,151,161143,6,0,P|160:185|169:209,1,54.2500004138947,12|0,0:0|0:0,0:0:0:0:
119,252,161357,2,0,P|149:268|174:273,1,54.2500004138947,2|0,0:0|0:0,0:0:0:0:
336,222,161572,2,0,P|305:205|280:200,1,54.2500004138947
269,135,161786,2,0,P|239:152|223:171,1,54.2500004138947,2|0,0:0|0:0,0:0:0:0:
250,279,162000,5,8,0:0:0:0:
271,303,162107,1,0,0:0:0:0:
299,319,162214,1,0,0:0:0:0:
331,326,162321,1,0,0:0:0:0:
369,353,162429,5,10,0:0:0:0:
406,333,162536,1,2,0:0:0:0:
435,304,162643,1,2,0:0:0:0:
455,265,162750,1,2,0:0:0:0:
462,223,162857,5,12,0:0:0:0:
256,192,162964,12,0,164464,0:0:0:0:
108,39,164572,6,0,P|51:45|48:108,1,119.000002269745,2|0,0:0|0:0,0:0:0:0:
25,167,165214,1,0,0:0:0:0:
25,167,165429,2,0,B|57:177|88:163|80:157|100:136|149:143,1,119.000002269745,2|0,0:0|0:0,0:0:0:0:
223,22,166072,6,0,L|215:85,1,59.5000011348725
207,152,166500,1,0,0:0:0:0:
144,331,166929,5,0,0:0:0:0:
144,331,167143,2,0,L|127:196,1,119.000002269745,2|0,0:0|0:0,0:0:0:0:
215,81,168000,6,0,B|262:86|262:86|287:81|287:81|343:88,1,119.000002269745,2|0,0:0|0:0,0:0:0:0:
382,35,168643,1,0,0:0:0:0:
382,35,168857,2,0,P|404:72|377:148,1,119.000002269745,2|0,0:0|0:0,0:0:0:0:
303,217,169500,5,0,0:0:0:0:
303,217,169714,2,0,P|309:171|326:145,1,59.5000011348725
384,141,170143,1,0,0:0:0:0:
384,141,170357,2,0,B|432:165|440:212|440:212|412:257|451:310,1,178.500003404617
300,365,171429,6,0,P|248:343|167:335,1,119.000002269745,2|0,0:0|0:0,0:0:0:0:
116,350,172072,1,0,0:0:0:0:
116,350,172286,2,0,B|96:354|78:342|78:342|53:303|52:256,1,119.000002269745,2|0,0:0|0:0,0:0:0:0:
183,208,172929,6,0,L|95:197,1,59.5000011348725
53,192,173357,1,0,0:0:0:0:
230,122,173786,5,0,0:0:0:0:
230,122,174000,2,0,L|349:107,1,119.000002269745,2|0,0:0|0:0,0:0:0:0:
463,56,174857,6,0,B|458:31|486:6|486:6|514:47|498:99|486:92|448:116|479:190,1,238.00000453949,2|0,0:0|0:0,0:0:0:0:
454,366,175929,5,0,0:0:0:0:
407,198,176143,1,0,0:0:0:0:
318,309,176357,1,0,0:0:0:0:
426,265,176572,2,0,B|398:276|364:263|371:258|348:228|287:240,1,119.000002269745
243,246,177214,6,0,L|203:250,1,29.7500005674362
175,308,177429,2,0,B|168:255|168:255|158:240|158:240|152:192,1,119.000002269745
109,0,178286,6,0,L|94:119,1,119.000002269745,2|0,0:0|0:0,0:0:0:0:
45,170,178929,1,0,0:0:0:0:
45,170,179143,2,0,B|69:194|69:194|112:185|157:194,1,119.000002269745,2|0,0:0|0:0,0:0:0:0:
192,78,179786,6,0,P|207:103|215:131,1,59.5000011348725
224,202,180214,1,0,0:0:0:0:
324,364,180643,1,0,0:0:0:0:
324,364,180857,2,0,P|346:297|381:246,1,119.000002269745,2|0,0:0|0:0,0:0:0:0:
458,169,181500,5,0,0:0:0:0:
474,161,181607,1,0,0:0:0:0:
486,148,181714,2,0,P|492:113|413:88,1,119.000002269745,2|0,0:0|0:0,0:0:0:0:
370,121,182357,1,0,0:0:0:0:
370,121,182572,2,0,B|290:130|290:130|266:133|254:167,1,119.000002269745,2|0,0:0|0:0,0:0:0:0:
289,251,183214,5,0,0:0:0:0:
289,251,183429,2,0,P|315:212|314:181,1,59.5000011348725
260,153,183857,1,0,0:0:0:0:
260,153,184072,2,0,B|220:174|218:222|218:222|210:166|160:134,1,178.500003404617,2|0,0:0|0:0,0:0:0:0:
2,73,185143,6,0,L|144:90,1,119.000002269745,2|0,0:0|0:0,0:0:0:0:
170,36,185786,1,0,0:0:0:0:
170,36,186000,2,0,P|192:73|165:149,1,119.000002269745,2|0,0:0|0:0,0:0:0:0:
114,231,186643,5,0,0:0:0:0:
114,231,186857,2,0,L|106:167,1,59.5000011348725
4,332,187500,1,0,0:0:0:0:
4,332,187714,2,0,B|57:339|57:339|72:349|72:349|120:355,1,119.000002269745,2|0,0:0|0:0,0:0:0:0:
241,338,188357,5,0,0:0:0:0:
258,332,188464,1,0,0:0:0:0:
275,335,188572,2,0,B|347:363|355:294|436:312|436:312|391:274|361:269,1,238.00000453949,2|0,0:0|0:0,0:0:0:0:
292,161,189643,5,0,0:0:0:0:
307,270,189857,1,0,0:0:0:0:
408,381,190072,1,0,0:0:0:0:
431,214,190286,1,6,0:0:0:0:
256,192,190393,12,0,191893,0:0:0:0:
0,65,192000,6,0,P|50:44|92:53,1,94.499997116089
102,68,192750,6,0,L|105:99,1,18.3749994392395
55,139,192857,5,0,0:0:0:0:
67,151,192964,1,0,0:0:0:0:
84,164,193071,1,0,0:0:0:0:
106,176,193179,1,0,0:0:0:0:
135,180,193286,1,2,0:0:0:0:
167,175,193393,1,2,0:0:0:0:
198,156,193500,1,2,0:0:0:0:
222,123,193607,1,2,0:0:0:0:
231,80,193714,6,0,P|285:83|334:95,1,94.5000003604889,12|2,0:0|2:0,0:0:0:0:
465,142,194143,2,0,P|412:153|361:154,1,94.5000003604889,0|2,0:0|2:0,0:0:0:0:
344,0,194572,5,8,0:0:0:0:
344,0,194679,1,2,0:0:0:0:
344,0,194786,1,2,2:0:0:0:
303,218,195000,1,0,0:0:0:0:
396,83,195214,5,2,2:0:0:0:
396,83,195321,1,2,0:0:0:0:
396,83,195429,1,10,0:0:0:0:
437,301,195643,1,2,2:0:0:0:
216,254,195857,6,0,P|264:229|312:215,1,94.5000003604889,0|0,0:0|2:0,0:0:0:0:
156,132,196286,1,8,0:0:0:0:
156,132,196393,1,0,0:0:0:0:
156,132,196500,1,2,2:0:0:0:
254,337,196714,1,0,0:0:0:0:
290,315,196822,1,0,0:0:0:0:
308,278,196928,1,2,2:0:0:0:
195,217,197143,5,8,0:0:0:0:
129,323,197357,1,2,2:0:0:0:
307,238,197572,1,0,0:0:0:0:
185,199,197786,1,2,2:0:0:0:
387,74,198000,2,0,P|362:113|352:181,1,94.5000003604889,8|2,0:0|2:0,0:0:0:0:
491,306,198429,1,0,0:0:0:0:
441,170,198643,1,2,2:0:0:0:
322,338,198857,6,0,P|278:363|215:347,1,94.5000003604889,8|2,0:0|2:0,0:0:0:0:
99,189,199286,2,0,P|145:186|185:210,1,94.5000003604889,0|2,0:0|2:0,0:0:0:0:
24,313,199714,1,10,0:0:0:0:
18,291,199822,1,2,0:0:0:0:
13,272,199929,1,2,2:0:0:0:
127,71,200143,1,8,0:0:0:0:
186,223,200357,1,2,2:0:0:0:
42,46,200572,6,0,P|75:8|151:4,1,94.5000003604889,8|2,0:0|2:0,0:0:0:0:
251,176,201000,2,0,P|292:204|366:190,1,94.5000003604889,0|2,0:0|2:0,0:0:0:0:
205,98,201429,1,8,0:0:0:0:
255,281,201643,1,2,2:0:0:0:
374,140,201857,1,0,0:0:0:0:
401,255,202072,5,2,2:0:0:0:
401,255,202179,1,2,0:0:0:0:
401,255,202286,2,0,B|315:279|378:352|259:371,1,189.000000720978,8|0,0:0|0:0,0:0:0:0:
139,268,202929,1,2,2:0:0:0:
256,161,203143,1,8,0:0:0:0:
256,161,203250,1,0,0:0:0:0:
256,161,203357,1,2,2:0:0:0:
119,28,203572,1,0,0:0:0:0:
98,65,203679,1,2,0:0:0:0:
101,106,203786,1,2,2:0:0:0:
32,223,204000,6,0,L|41:316,1,94.5000003604889,8|2,0:0|2:0,0:0:0:0:
126,139,204429,2,0,P|161:98|232:103,1,94.5000003604889,0|2,0:0|2:0,0:0:0:0:
335,272,204857,1,8,0:0:0:0:
340,246,205072,1,2,2:0:0:0:
368,122,205286,1,0,0:0:0:0:
363,96,205501,1,2,2:0:0:0:
194,169,205714,6,0,L|138:163,1,47.2500001802444,8|0,0:0|0:0,0:0:0:0:
127,91,205929,2,0,L|121:138,1,47.2500001802444,2|0,0:0|0:0,0:0:0:0:
43,152,206143,2,0,L|98:159,1,47.2500001802444,8|0,0:0|0:0,0:0:0:0:
110,230,206357,2,0,L|115:184,1,47.2500001802444,2|0,0:0|0:0,0:0:0:0:
250,92,206572,5,8,0:0:0:0:
271,116,206679,1,0,0:0:0:0:
283,147,206786,1,0,0:0:0:0:
285,180,206893,1,0,0:0:0:0:
275,211,207000,5,10,0:0:0:0:
256,244,207107,1,2,0:0:0:0:
253,281,207214,1,2,0:0:0:0:
266,316,207321,1,2,0:0:0:0:
292,342,207429,5,12,0:0:0:0:
188,167,207643,1,2,2:0:0:0:
339,269,207857,1,0,0:0:0:0:
177,329,208072,2,0,L|112:315,1,50.7500015487671,2|0,2:0|0:0,0:0:0:0:
94,202,208286,1,8,0:0:0:0:
273,126,208500,2,0,L|278:190,1,50.7500015487671,2|0,2:0|0:0,0:0:0:0:
339,269,208714,2,0,L|334:333,1,50.7500015487671
416,207,208929,5,2,2:0:0:0:
391,180,209036,1,2,0:0:0:0:
357,169,209143,1,8,0:0:0:0:
265,322,209357,6,0,L|261:271,1,50.7500015487671,2|0,2:0|0:0,0:0:0:0:
180,181,209572,2,0,L|183:130,1,50.7500015487671
287,67,209786,2,0,L|283:16,1,50.7500015487671,2|0,2:0|0:0,0:0:0:0:
274,141,210000,5,8,0:0:0:0:
238,139,210107,1,0,0:0:0:0:
208,119,210214,2,0,L|211:68,1,50.7500015487671,2|0,2:0|0:0,0:0:0:0:
171,234,210429,2,0,L|167:183,1,50.7500015487671
112,343,210643,2,0,L|115:292,1,50.7500015487671,2|0,2:0|0:0,0:0:0:0:
128,116,210857,5,8,0:0:0:0:
261,252,211072,1,2,2:0:0:0:
317,45,211286,1,8,0:0:0:0:
194,182,211500,1,0,2:0:0:0:
353,163,211714,1,8,0:0:0:0:
216,37,211929,1,2,2:0:0:0:
353,163,212143,2,0,L|439:142,1,50.7500015487671,8|0,0:0|0:0,0:0:0:0:
368,305,212357,2,0,L|318:292,1,50.7500015487671,2|0,2:0|0:0,0:0:0:0:
467,197,212572,6,0,P|482:174|482:141,1,50.7500015487671,8|0,0:0|0:0,0:0:0:0:
291,221,212786,1,2,2:0:0:0:
439,322,213000,1,8,0:0:0:0:
291,221,213214,1,0,2:0:0:0:
173,344,213429,5,8,0:0:0:0:
147,319,213536,1,2,0:0:0:0:
139,284,213643,1,2,2:0:0:0:
149,90,213857,1,8,0:0:0:0:
208,245,214072,1,2,2:0:0:0:
228,23,214286,5,12,0:0:0:0:
67,148,214500,2,0,L|10:141,1,50.7500015487671,2|0,2:0|0:0,0:0:0:0:
201,170,214714,2,0,L|150:176,1,50.7500015487671
313,127,214929,2,0,L|262:120,1,50.7500015487671,2|0,2:0|0:0,0:0:0:0:
398,228,215143,1,8,0:0:0:0:
423,65,215357,2,0,L|429:14,1,50.7500015487671,2|0,2:0|0:0,0:0:0:0:
478,172,215572,2,0,L|471:121,1,50.7500015487671
463,302,215786,2,0,L|469:251,1,50.7500015487671,2|0,2:0|0:0,0:0:0:0:
280,204,216000,5,8,0:0:0:0:
172,345,216214,2,0,L|261:336,1,50.7500015487671,2|0,2:0|0:0,0:0:0:0:
335,283,216429,2,0,L|284:277,1,50.7500015487671
154,219,216643,2,0,L|204:213,1,50.7500015487671,2|0,2:0|0:0,0:0:0:0:
317,61,216857,5,8,0:0:0:0:
281,57,216964,1,2,0:0:0:0:
246,54,217071,1,2,2:0:0:0:
74,40,217286,2,0,L|87:112,1,50.7500015487671
163,169,217500,2,0,L|150:241,1,50.7500015487671,2|0,2:0|0:0,0:0:0:0:
124,354,217714,1,8,0:0:0:0:
38,227,217929,5,2,2:0:0:0:
31,193,218036,1,2,0:0:0:0:
23,158,218143,1,8,0:0:0:0:
157,278,218357,2,0,P|181:264|219:269,1,50.7500015487671,2|0,2:0|0:0,0:0:0:0:
299,325,218572,2,0,P|273:323|252:310,1,50.7500015487671,8|0,0:0|0:0,0:0:0:0:
213,192,218786,2,0,P|239:198|263:228,1,50.7500015487671,2|0,2:0|0:0,0:0:0:0:
215,382,219000,2,0,P|197:363|191:339,1,50.7500015487671,8|0,0:0|0:0,0:0:0:0:
321,239,219214,1,2,2:0:0:0:
120,320,219429,6,0,L|110:235,1,50.7500015487671,8|0,0:0|0:0,0:0:0:0:
3,218,219643,2,0,L|74:208,1,50.7500015487671,2|0,0:0|0:0,0:0:0:0:
95,91,219858,2,0,L|105:174,1,50.7500015487671,8|0,0:0|0:0,0:0:0:0:
213,192,220072,2,0,L|143:199,1,50.7500015487671,2|0,0:0|0:0,0:0:0:0:
247,80,220286,5,8,0:0:0:0:
287,82,220393,1,0,0:0:0:0:
327,85,220500,1,0,0:0:0:0:
368,88,220607,1,0,0:0:0:0:
408,91,220714,5,10,0:0:0:0:
386,48,220821,1,2,0:0:0:0:
337,41,220928,1,2,0:0:0:0:
304,77,221035,1,2,0:0:0:0:
313,125,221143,5,12,0:0:0:0:
383,318,221357,1,2,2:0:0:0:
185,278,221572,1,0,0:0:0:0:
398,202,221786,2,0,L|447:212,1,50.7500015487671,2|0,2:0|0:0,0:0:0:0:
293,240,222000,1,8,0:0:0:0:
224,121,222214,2,0,L|174:131,1,50.7500015487671,2|0,2:0|0:0,0:0:0:0:
53,237,222429,2,0,L|102:247,1,50.7500015487671
112,80,222643,5,2,2:0:0:0:
91,109,222750,1,2,0:0:0:0:
89,145,222857,1,8,0:0:0:0:
272,214,223072,2,0,L|264:123,1,50.7500015487671,2|0,2:0|0:0,0:0:0:0:
348,307,223286,2,0,L|356:216,1,50.7500015487671
232,344,223500,2,0,L|224:253,1,50.7500015487671,2|0,2:0|0:0,0:0:0:0:
265,90,223714,5,8,0:0:0:0:
229,92,223821,1,0,0:0:0:0:
199,112,223929,2,0,L|202:162,1,50.7500015487671,2|0,2:0|0:0,0:0:0:0:
312,236,224143,2,0,L|362:232,1,50.7500015487671
438,123,224357,2,0,L|434:72,1,50.7500015487671,2|0,2:0|0:0,0:0:0:0:
439,263,224571,5,8,0:0:0:0:
337,103,224786,1,2,2:0:0:0:
264,293,225000,1,8,0:0:0:0:
386,176,225214,1,2,2:0:0:0:
212,189,225428,1,8,0:0:0:0:
358,325,225643,1,2,2:0:0:0:
212,189,225857,1,8,0:0:0:0:
122,294,226072,1,2,2:0:0:0:
200,105,226286,5,8,0:0:0:0:
226,269,226500,1,2,2:0:0:0:
415,221,226714,1,8,0:0:0:0:
277,137,226929,1,2,2:0:0:0:
460,289,227143,5,8,0:0:0:0:
486,264,227250,1,2,0:0:0:0:
494,229,227357,1,2,2:0:0:0:
277,137,227571,1,8,0:0:0:0:
340,258,227786,1,2,2:0:0:0:
392,48,228000,5,12,0:0:0:0:
277,137,228214,2,0,L|220:130,1,50.7500015487671,2|0,2:0|0:0,0:0:0:0:
136,196,228428,2,0,L|142:246,1,50.7500015487671
215,118,228643,2,0,L|265:124,1,50.7500015487671,2|0,2:0|0:0,0:0:0:0:
121,204,228857,1,8,0:0:0:0:
168,316,229072,2,0,L|225:323,1,50.7500015487671,2|0,2:0|0:0,0:0:0:0:
312,252,229286,2,0,L|305:201,1,50.7500015487671
225,337,229501,2,0,L|174:330,1,50.7500015487671,2|0,2:0|0:0,0:0:0:0:
299,175,229714,5,8,0:0:0:0:
103,193,229928,2,0,L|192:184,1,50.7500015487671,2|0,2:0|0:0,0:0:0:0:
282,91,230143,2,0,L|231:85,1,50.7500015487671
163,172,230357,2,0,L|113:178,1,50.7500015487671,2|0,2:0|0:0,0:0:0:0:
32,39,230572,5,8,0:0:0:0:
36,75,230678,1,2,0:0:0:0:
39,110,230785,1,2,2:0:0:0:
50,286,231000,2,0,L|56:362,1,50.7500015487671
209,323,231214,2,0,L|218:273,1,50.7500015487671,2|0,2:0|0:0,0:0:0:0:
242,145,231428,1,8,0:0:0:0:
392,284,231643,5,2,2:0:0:0:
399,250,231750,1,2,0:0:0:0:
407,215,231857,1,0,0:0:0:0:
332,55,232072,2,0,P|312:40|261:36,1,50.7500015487671,2|0,2:0|0:0,0:0:0:0:
207,111,232286,2,0,P|227:96|278:92,1,50.7500015487671,8|0,0:0|0:0,0:0:0:0:
348,158,232500,2,0,P|331:138|283:125,1,50.7500015487671,2|0,2:0|0:0,0:0:0:0:
183,211,232714,2,0,P|199:191|248:178,1,50.7500015487671,8|0,0:0|0:0,0:0:0:0:
350,254,232929,2,0,P|332:234|284:221,1,50.7500015487671,2|0,2:0|0:0,0:0:0:0:
110,309,233143,5,8,0:0:0:0:
86,289,233250,1,0,0:0:0:0:
69,264,233357,1,2,0:0:0:0:
58,235,233464,1,0,0:0:0:0:
55,205,233572,2,0,P|75:176|82:136,1,50.7500015487671,8|0,0:0|0:0,0:0:0:0:
50,40,233786,2,0,P|68:57|90:69,1,50.7500015487671,2|0,0:0|0:0,0:0:0:0:
249,83,234000,5,8,0:0:0:0:
289,85,234107,1,0,0:0:0:0:
329,88,234214,1,0,0:0:0:0:
370,91,234321,1,0,0:0:0:0:
396,120,234429,5,10,0:0:0:0:
352,116,234536,1,2,0:0:0:0:
306,113,234643,1,2,0:0:0:0:
262,110,234750,1,2,0:0:0:0:
218,107,234857,5,12,0:0:0:0:
239,329,235072,1,2,2:0:0:0:
395,215,235286,1,0,0:0:0:0:
218,107,235500,2,0,L|223:173,1,50.7500015487671,2|0,2:0|0:0,0:0:0:0:
234,304,235714,1,8,0:0:0:0:
88,158,235929,2,0,L|138:164,1,50.7500015487671,2|2,2:0|0:0,0:0:0:0:
277,224,236143,2,0,L|225:230,1,50.7500015487671
310,132,236358,5,2,2:0:0:0:
342,148,236465,1,2,0:0:0:0:
361,178,236572,1,8,0:0:0:0:
326,353,236786,6,0,L|416:365,1,50.7500015487671,2|0,2:0|0:0,0:0:0:0:
232,251,237000,2,0,L|282:244,1,50.7500015487671
153,336,237214,2,0,L|203:342,1,50.7500015487671,2|0,2:0|0:0,0:0:0:0:
82,244,237429,5,8,0:0:0:0:
78,208,237536,1,0,0:0:0:0:
73,172,237643,2,0,L|148:134,1,50.7500015487671,2|0,2:0|0:0,0:0:0:0:
267,139,237857,2,0,L|221:116,1,50.7500015487671
74,154,238072,2,0,L|149:116,1,50.7500015487671,2|0,2:0|0:0,0:0:0:0:
271,159,238286,5,8,0:0:0:0:
381,81,238501,1,0,2:0:0:0:
444,283,238715,1,0,0:0:0:0:
358,170,238929,1,0,2:0:0:0:
301,337,239143,2,0,P|264:366|189:343,1,101.500003097534,8|0,0:0|2:0,0:0:0:0:
167,148,239572,2,0,P|183:175|186:207,1,50.7500015487671
93,342,239786,2,0,P|98:317|112:296,1,50.7500015487671,2|0,2:0|0:0,0:0:0:0:
175,121,240000,6,0,P|202:166|207:220,1,101.500003097534,8|2,0:0|2:0,0:0:0:0:
86,94,240429,1,8,0:0:0:0:
287,152,240643,1,2,2:0:0:0:
42,158,240858,5,8,0:0:0:0:
16,133,240965,1,2,0:0:0:0:
8,98,241072,1,2,2:0:0:0:
214,24,241286,1,8,0:0:0:0:
86,94,241501,1,2,2:0:0:0:
332,233,241714,6,0,L|465:212,1,101.500003097534,12|2,0:0|2:0,0:0:0:0:
259,333,242143,1,0,0:0:0:0:
205,203,242357,1,2,2:0:0:0:
344,244,242572,2,0,L|477:223,1,101.500003097534,8|0,0:0|2:0,0:0:0:0:
248,347,243000,2,0,L|147:331,1,101.500003097534,0|0,0:0|2:0,0:0:0:0:
59,142,243429,6,0,P|107:174|123:254,1,101.500003097534,8|2,0:0|2:0,0:0:0:0:
248,27,243857,2,0,P|212:62|201:111,1,101.500003097534,0|2,3:0|2:0,0:0:0:0:
353,231,244286,5,8,0:0:0:0:
389,227,244393,1,2,0:0:0:0:
424,224,244500,1,2,2:0:0:0:
276,98,244714,1,8,0:0:0:0:
184,244,244929,1,2,2:0:0:0:
282,372,245143,6,0,L|205:355,1,50.7500015487671,8|0,0:0|0:0,0:0:0:0:
104,331,245357,2,0,L|181:348,1,50.7500015487671,2|0,0:0|0:0,0:0:0:0:
277,360,245572,2,0,L|200:343,1,50.7500015487671,8|0,0:0|0:0,0:0:0:0:
99,319,245786,2,0,L|176:336,1,50.7500015487671,2|0,0:0|0:0,0:0:0:0:
372,285,246000,5,8,0:0:0:0:
337,277,246107,1,2,0:0:0:0:
302,269,246214,1,2,0:0:0:0:
267,262,246321,1,2,0:0:0:0:
233,254,246429,2,0,L|156:237,1,50.7500015487671,8|0,0:0|0:0,0:0:0:0:
55,213,246643,2,0,L|132:230,1,50.7500015487671,2|0,0:0|0:0,0:0:0:0:
328,91,246857,6,0,B|372:40|448:61|448:61|287:-10|330:160|183:159|117:104,1,488.249985099793,14|0,0:0|0:0,0:0:0:0:
71,67,250286,6,0,L|64:11,2,48.9999985046387,2|0|0,0:0|0:0|0:0,0:0:0:0:
86,186,251572,1,0,0:0:0:0:
87,201,252000,1,0,0:0:0:0:
0,352,253607,5,0,0:0:0:0:
0,352,253714,2,0,P|19:335|51:329,1,48.9999985046387
162,336,254572,2,0,L|156:384,2,48.9999985046387
166,324,256286,5,0,0:0:0:0:
256,192,257036,5,0,0:0:0:0:
256,192,257143,2,0,L|261:239,1,48.9999985046387
277,359,258000,2,0,P|311:360|329:375,1,48.9999985046387
394,271,258857,2,0,P|410:300|406:324,1,48.9999985046387
508,383,259714,1,0,0:0:0:0:
449,213,260464,5,0,0:0:0:0:
449,213,260572,2,0,P|467:180|501:162,1,73.4999977569581
498,138,261322,1,0,0:0:0:0:
498,138,261429,2,0,P|472:136|444:119,1,48.9999985046387
367,40,262286,1,0,0:0:0:0:
34,69,263893,5,0,0:0:0:0:
34,69,264000,2,0,L|89:62,1,48.9999985046387
198,31,264857,2,0,L|191:86,1,48.9999985046387
203,199,265714,2,0,L|154:193,1,48.9999985046387
53,258,266572,1,0,0:0:0:0:
207,352,267322,5,0,0:0:0:0:
207,352,267429,2,0,P|227:328|247:319,1,48.9999985046387
357,355,268286,2,0,P|326:349|308:336,1,48.9999985046387
346,224,269143,2,0,P|376:229|394:242,1,48.9999985046387
471,328,270000,1,0,0:0:0:0:
431,152,270770,5,0,0:0:0:0:
431,152,270877,2,0,L|437:96,1,48.9999985046387
347,22,271773,2,0,L|352:71,1,48.9999985046387
368,190,272661,2,0,P|340:176|321:176,1,48.9999985046387
206,207,273586,1,0,0:0:0:0:
71,55,274405,5,0,0:0:0:0:
71,55,274526,1,0,0:0:0:0:
71,55,274647,2,0,B|68:21|94:0|119:32|119:32|168:10|178:56|166:108|104:129,1,244.999992523194
