osu file format v14

[General]
AudioFilename: audio.mp3
AudioLeadIn: 0
PreviewTime: 123280
Countdown: 1
SampleSet: Normal
StackLeniency: 0.7
Mode: 0
LetterboxInBreaks: 0
WidescreenStoryboard: 1

[Editor]
Bookmarks: 58712,94937,122725,198611,273762
DistanceSpacing: 0.1
BeatDivisor: 4
GridSize: 32
TimelineZoom: 3.400004

[Metadata]
Title:Ohad1881 (remix dima21)
TitleUnicode:Ohad1881 (remix dima21)
Artist:Top Songs Compilation
ArtistUnicode:Top Songs Compilation
Creator:dima21
Version:WaRNiNG(ar 10)
Source:Ohad1881 :)
Tags:Mike Posner - I Took A Pill In Ibiza (SeeB Remix) Anne-Marie - Ciao Adios (Decoy! Remix) Elephante - Hold ft. Jessica Jarrell (Candyland Remix) Major Lazer - Light It Up (feat. Nyla & Fuse ODG) [Remix] New World Sound & Thomas Newson - Flute (Original Mix) extra challenge challenges difficult 7 stars
BeatmapID:1589212
BeatmapSetID:754931

[Difficulty]
HPDrainRate:6.4
CircleSize:4
OverallDifficulty:9.4
ApproachRate:10
SliderMultiplier:2
SliderTickRate:0.5

[Events]
//Background and Video events
0,0,"5252.png",0,0
//Break Periods
//Storyboard Layer 0 (Background)
//Storyboard Layer 1 (Fail)
//Storyboard Layer 2 (Pass)
//Storyboard Layer 3 (Foreground)
//Storyboard Sound Samples

[TimingPoints]
66,294.0599882376,4,1,0,100,1,0
66,-95.2380952380951,4,1,0,50,0,0
18813,-95.2380952380952,4,1,0,5,0,0
18885,-71.4285714285714,4,1,0,85,0,1
35353,-142.857142857143,4,1,0,60,0,0
37705,-71.4285714285714,4,1,0,85,0,1
56525,-55.5555555555556,4,1,0,85,0,0
58712,283.018867924528,4,1,0,100,1,0
58712,-64.5161290322581,4,1,0,100,0,1
75906,-55.5555555555556,4,1,0,5,0,1
75976,-62.5,4,1,0,100,0,1
76189,-62.5,4,1,0,5,0,1
76259,-62.5,4,1,0,100,0,1
76472,-55.5555555555556,4,1,0,5,0,1
76542,-62.5,4,1,0,100,0,1
76755,-55.5555555555556,4,1,0,5,0,1
76825,-76.9230769230769,4,1,0,75,0,0
85882,-64.5161290322581,4,1,0,85,0,0
92887,-60.6060606060606,4,1,0,5,0,0
92957,-60.6060606060606,4,1,0,85,0,0
94940,288.440737446819,4,1,0,100,1,0
94940,-74.0740740740741,4,1,0,75,0,0
104170,-62.5,4,1,0,100,0,1
122630,-57.1428571428571,4,1,0,100,0,0
122725,277.744345588031,4,1,0,100,1,0
122725,-68.9655172413793,4,1,0,75,0,0
139603,-95.2380952380952,4,1,0,75,0,0
140500,-52.6315789473684,4,1,0,100,0,1
158276,-105.263157894737,4,1,0,50,0,0
167141,-68.9655172413793,4,1,0,75,0,0
176044,-100,4,1,0,50,0,0
176600,-100,4,1,0,55,0,0
177155,-100,4,1,0,60,0,0
177711,-100,4,1,0,65,0,0
178258,-100,4,1,0,75,0,0
179455,-100,4,1,0,5,0,0
179524,-100,4,1,0,75,0,0
179594,-100,4,1,0,5,0,0
179663,-100,4,1,0,75,0,0
179733,-100,4,1,0,5,0,0
179802,-100,4,1,0,75,0,0
179872,-100,4,1,0,5,0,0
179941,-100,4,1,0,75,0,0
180010,-100,4,1,0,5,0,0
180080,-100,4,1,0,75,0,0
180149,-100,4,1,0,5,0,0
180219,-100,4,1,0,75,0,0
180288,-100,4,1,0,5,0,0
180358,-100,4,1,0,75,0,0
180427,-100,4,1,0,5,0,0
180495,-52.6315789473684,4,1,0,100,0,1
198167,468.784074941452,4,1,0,100,1,0
198167,-142.857142857143,4,1,0,5,0,0
198271,-50,4,1,0,100,0,0
198604,468.784074941452,4,1,0,100,1,0
198604,-52.6315789473684,4,1,0,75,0,0
213996,-52.6315789473684,4,1,0,60,0,0
229543,-38.4615384615385,4,1,0,100,0,1
258452,-50,4,1,0,100,0,0
259078,-52.6315789473684,4,1,0,100,0,0
273758,405.405405405405,4,1,0,100,1,0
273758,-80,4,1,0,63,0,0
286730,-66.6666666666667,4,1,0,75,0,0
302947,-50,4,1,0,100,0,1
327271,-133.333333333333,4,1,0,100,0,1
328826,-133.333333333333,4,1,0,5,0,1
328893,-50,4,1,0,100,0,1
341866,-100,4,1,0,50,0,0
354839,-66.6666666666667,4,1,0,75,0,0

[HitObjects]
164,110,66,6,0,B|223:172|223:172|356:184,1,210.000008010865,12|0,0:0|0:0,0:0:0:0:
251,30,506,1,0,0:0:0:0:
124,226,653,2,0,P|117:307|137:351,1,105.000004005432
346,285,948,2,0,P|356:233|346:182,1,105.000004005432
51,151,1242,6,0,P|30:234|127:217,1,210.000008010865
251,30,1683,1,0,0:0:0:0:
264,304,1830,2,0,B|277:218|277:218|241:93,1,210.000008010865,8|0,0:0|0:0,0:0:0:0:
431,241,2271,2,0,P|469:254|421:187,1,210.000008010865
159,173,2712,1,0,0:0:0:0:
264,304,2859,6,0,P|195:322|53:296,1,210.000008010865
305,109,3300,2,0,P|406:85|508:104,1,210.000008010865
159,173,3741,2,0,P|91:133|188:120,1,210.000008010865
352,322,4182,2,0,B|379:262|379:262|373:108,1,210.000008010865,8|0,0:0|0:0,0:0:0:0:
196,267,4623,5,0,0:0:0:0:
196,267,4697,1,0,0:0:0:0:
196,267,4770,2,0,L|90:278,1,105.000004005432
238,128,5064,1,0,0:0:0:0:
352,322,5211,2,0,L|458:333,1,105.000004005432
283,213,5505,1,0,0:0:0:0:
117,379,5653,6,0,B|77:371|49:328|49:328|45:267|45:267|20:186,1,210.000008010865
259,8,6094,2,0,B|240:67|240:67|237:127|237:127|209:170|169:178,1,210.000008010865
379,66,6535,1,8,0:0:0:0:
79,69,6682,2,0,B|75:130|75:130|99:200,1,105.000004005432
259,8,6976,2,0,L|271:99,1,52.5000020027161
328,212,7123,6,0,B|383:233|495:205|495:205|426:192,1,210.000008010865
192,137,7564,2,0,B|171:192|199:304|199:304|212:235,1,210.000008010865
300,76,8005,1,0,0:0:0:0:
105,154,8152,1,0,0:0:0:0:
375,210,8299,1,0,0:0:0:0:
192,137,8446,1,0,0:0:0:0:
452,76,8593,1,0,0:0:0:0:
311,328,8740,1,0,0:0:0:0:
498,194,8887,5,8,0:0:0:0:
192,137,9034,1,0,0:0:0:0:
375,210,9181,1,0,0:0:0:0:
139,12,9328,1,0,0:0:0:0:
139,12,9402,1,0,0:0:0:0:
139,12,9475,6,0,B|128:106|128:106|175:253,1,210.000008010865,12|0,0:0|0:0,0:0:0:0:
254,26,9916,1,0,0:0:0:0:
251,235,10063,2,0,B|241:289|241:289|207:348,1,105.000004005432
339,112,10357,2,0,B|349:166|349:166|383:225,1,105.000004005432
117,216,10652,2,0,P|38:203|112:150,1,210.000008010865,8|0,0:0|0:0,0:0:0:0:
218,319,11093,1,0,0:0:0:0:
339,112,11240,6,0,B|349:216|376:262|376:262|349:327,1,210.000008010865
462,104,11681,2,0,P|414:33|282:5,1,210.000008010865,8|0,0:0|0:0,0:0:0:0:
108,90,12122,1,0,0:0:0:0:
251,243,12269,1,0,0:0:0:0:
198,3,12416,2,0,B|179:64|179:64|193:156|193:156|159:240,1,210.000008010865
19,62,12857,1,0,0:0:0:0:
83,261,13004,2,0,P|128:304|175:313,1,105.000004005432
336,190,13298,2,0,P|291:233|244:242,1,105.000004005432
428,29,13592,6,0,B|415:95|415:95|449:284,1,210.000008010865,8|0,0:0|0:0,0:0:0:0:
187,93,14033,2,0,B|200:159|200:159|166:348,1,210.000008010865
76,114,14474,1,0,0:0:0:0:
282,76,14621,1,0,0:0:0:0:
71,249,14768,2,0,L|48:368,1,105.000004005432
357,190,15062,6,0,B|283:158|283:158|150:178,1,210.000008010865,8|0,0:0|0:0,0:0:0:0:
435,81,15504,2,0,B|454:208|454:208|422:282,1,210.000008010865
282,76,15945,1,0,0:0:0:0:
295,285,16092,1,0,0:0:0:0:
152,3,16239,1,0,0:0:0:0:
244,189,16386,1,0,0:0:0:0:
5,5,16533,6,0,B|4:88|4:88|37:156|24:217,1,210.000008010865,8|0,0:0|0:0,0:0:0:0:
192,337,16974,1,0,0:0:0:0:
165,128,17121,1,8,0:0:0:0:
54,306,17268,1,0,0:0:0:0:
357,249,17415,6,0,L|470:273,1,105.000004005432
165,128,17709,2,0,L|52:152,1,105.000004005432,8|0,0:0|0:0,0:0:0:0:
408,36,18003,2,0,L|521:60,1,105.000004005432
156,284,18297,2,0,L|43:308,1,105.000004005432,8|0,0:0|0:0,0:0:0:0:
295,13,18591,2,0,B|311:63|311:63|309:111|265:207,1,157.500006008148
246,194,18885,6,0,B|335:242|475:200|475:200|428:265,1,280,12|0,0:0|0:0,0:0:0:0:
262,360,19326,1,0,0:0:0:0:
282,83,19473,2,0,B|268:148|247:192|247:192|198:212|181:239|181:239|145:226|74:266,1,280,8|0,0:0|0:0,0:0:0:0:
133,30,19914,1,0,0:0:0:0:
27,227,20061,1,8,0:0:0:0:
282,83,20208,2,0,L|265:157,1,70
190,236,20356,2,0,P|183:323|199:378,1,140,8|0,0:0|0:0,0:0:0:0:
397,274,20650,1,0,0:0:0:0:
282,83,20797,2,0,P|195:76|140:92,1,140,0|8,0:0|0:0,0:0:0:0:
84,305,21091,1,0,0:0:0:0:
350,0,21238,6,0,P|407:116|304:195,1,280,8|0,0:0|0:0,0:0:0:0:
128,57,21679,1,0,0:0:0:0:
242,249,21826,2,0,P|262:325|247:387,1,140,8|0,0:0|0:0,0:0:0:0:
121,191,22120,2,0,P|107:122|127:56,1,140
319,172,22414,5,8,0:0:0:0:
127,56,22561,1,0,0:0:0:0:
405,88,22708,1,0,0:0:0:0:
143,188,22855,1,0,0:0:0:0:
260,70,23002,1,8,0:0:0:0:
242,249,23149,1,0,0:0:0:0:
366,5,23296,1,0,0:0:0:0:
309,375,23443,1,0,0:0:0:0:
143,188,23590,6,0,P|117:109|124:51,1,140,8|0,0:0|0:0,0:0:0:0:
412,170,23884,2,0,P|416:239|392:304,1,140
42,153,24178,2,0,P|106:89|256:168,1,280,8|0,0:0|0:0,0:0:0:0:
42,153,24619,1,0,0:0:0:0:
368,291,24766,6,0,B|377:225|411:169|411:169|424:89|407:9,1,280,8|0,0:0|0:0,0:0:0:0:
156,113,25208,2,0,B|140:182|154:261|154:261|187:318|197:383,1,280
301,123,25649,1,0,0:0:0:0:
54,255,25796,1,0,0:0:0:0:
506,127,25943,6,0,B|452:196|452:196|361:213|245:187,1,280,8|0,0:0|0:0,0:0:0:0:
15,127,26384,2,0,B|69:196|69:196|160:213|276:187,1,280
104,0,26825,2,0,P|95:67|117:142,1,140
236,58,27119,5,8,0:0:0:0:
199,264,27266,1,0,0:0:0:0:
373,146,27413,1,0,0:0:0:0:
93,144,27560,1,0,0:0:0:0:
329,293,27707,1,8,0:0:0:0:
336,13,27854,1,0,0:0:0:0:
116,317,28001,1,0,0:0:0:0:
446,129,28148,1,0,0:0:0:0:
86,13,28295,6,0,B|76:78|76:78|93:144|93:144|138:201|168:287,1,280,12|0,0:0|0:0,0:0:0:0:
256,84,28736,1,0,0:0:0:0:
349,271,28883,2,0,B|373:201|419:144|419:144|436:78|436:78|426:13,1,280,8|0,0:0|0:0,0:0:0:0:
469,264,29324,1,0,0:0:0:0:
256,84,29471,6,0,B|214:168|214:168|246:366,1,280,8|0,0:0|0:0,0:0:0:0:
380,192,29912,2,0,B|328:113|328:113|140:42,1,280
230,244,30354,2,0,B|323:238|323:238|479:111,1,280,0|8,0:0|0:0,0:0:0:0:
416,321,30795,1,0,0:0:0:0:
309,151,30942,1,0,0:0:0:0:
511,339,31089,1,0,0:0:0:0:
208,132,31236,6,0,P|115:116|45:142,1,140,8|0,0:0|0:0,0:0:0:0:
282,319,31530,2,0,B|311:248|309:154|309:154|272:39,1,280,0|8,0:0|0:0,0:0:0:0:
56,223,31971,2,0,L|58:305,1,70
111,162,32118,5,0,0:0:0:0:
206,364,32265,1,0,0:0:0:0:
220,84,32412,1,8,0:0:0:0:
100,377,32559,1,0,0:0:0:0:
362,213,32706,1,0,0:0:0:0:
56,223,32853,1,0,0:0:0:0:
475,85,33000,6,0,B|471:143|478:186|478:186|450:254,1,140,8|0,0:0|0:0,0:0:0:0:
206,364,33294,2,0,B|191:328|191:328|197:285|194:227,1,140
362,28,33588,2,0,P|347:132|227:37,1,280,8|0,0:0|0:0,0:0:0:0:
488,8,34029,1,0,0:0:0:0:
283,260,34176,2,0,B|200:282|69:255|69:255|8:275,1,280,8|0,0:0|0:0,0:0:0:0:
213,22,34617,2,0,B|296:0|427:27|427:27|488:7,1,280
189,195,35059,2,0,P|183:329|259:386,1,210
276,368,35353,6,0,B|201:315|201:315|-4:316,1,280
105,211,36089,1,0,0:0:0:0:
228,145,36236,2,0,L|317:147,1,70
197,49,36530,2,0,P|112:55|39:20,1,140
315,49,36971,2,0,P|400:55|473:20,1,140
228,145,37412,5,0,0:0:0:0:
225,169,37485,1,0,0:0:0:0:
222,193,37559,1,0,0:0:0:0:
220,218,37632,1,0,0:0:0:0:
219,244,37705,6,0,P|280:268|447:155,1,280,12|0,0:0|0:0,0:0:0:0:
246,31,38146,1,0,0:0:0:0:
81,202,38293,2,0,P|74:306|96:356,1,140,8|0,0:0|0:0,0:0:0:0:
323,341,38587,2,0,P|339:273|327:205,1,140
101,35,38881,6,0,B|166:73|166:73|386:77,1,280,8|0,0:0|0:0,0:0:0:0:
165,197,39322,1,0,0:0:0:0:
165,197,39396,1,0,0:0:0:0:
165,197,39469,2,0,B|149:268|149:268|166:354,1,140,8|0,0:0|0:0,0:0:0:0:
343,151,39763,2,0,P|349:231|320:306,1,140
148,72,40058,5,8,0:0:0:0:
425,106,40205,1,0,0:0:0:0:
47,183,40352,2,0,P|41:263|70:338,1,140
94,340,40572,1,0,0:0:0:0:
131,359,40646,2,0,B|225:371|323:306|323:306|205:299,1,280,8|0,0:0|0:0,0:0:0:0:
11,368,41087,1,0,0:0:0:0:
191,154,41234,5,8,0:0:0:0:
222,332,41381,1,0,0:0:0:0:
279,79,41528,1,0,0:0:0:0:
70,272,41675,1,0,0:0:0:0:
392,224,41822,1,8,0:0:0:0:
43,92,41969,1,0,0:0:0:0:
411,51,42116,1,0,0:0:0:0:
11,368,42263,1,0,0:0:0:0:
234,117,42410,6,0,B|247:212|247:212|220:292,1,140,8|0,0:0|0:0,0:0:0:0:
43,92,42704,2,0,B|30:187|30:187|44:228,1,140
411,51,42998,2,0,B|411:269|411:269|361:347,1,280,8|0,0:0|0:0,0:0:0:0:
257,68,43439,1,0,0:0:0:0:
134,321,43586,6,0,B|101:269|101:269|121:165|101:51,1,280,8|0,0:0|0:0,0:0:0:0:
201,2,44027,2,0,B|262:0|262:0|342:68|451:108,1,280
353,208,44468,2,0,P|309:273|242:296,1,140
201,2,44762,6,0,B|205:64|185:102|185:102|181:147|210:212|210:212|229:139,1,280,8|0,0:0|0:0,0:0:0:0:
71,195,45204,2,0,P|106:308|272:363,1,280
490,209,45645,2,0,B|440:208|409:196|409:196|336:211,1,140
183,272,45939,5,8,0:0:0:0:
268,95,46086,1,0,0:0:0:0:
258,374,46233,1,0,0:0:0:0:
268,95,46380,1,0,0:0:0:0:
340,284,46527,1,8,0:0:0:0:
164,39,46674,1,0,0:0:0:0:
481,308,46821,1,0,0:0:0:0:
73,83,46968,1,0,0:0:0:0:
439,28,47115,6,0,B|430:121|430:121|337:288,1,280,12|0,0:0|0:0,0:0:0:0:
258,75,47556,1,0,0:0:0:0:
172,283,47703,2,0,B|82:121|82:121|73:28,1,280,8|0,0:0|0:0,0:0:0:0:
43,250,48144,1,0,0:0:0:0:
43,250,48218,1,0,0:0:0:0:
43,250,48291,2,0,P|92:281|177:282,1,140,8|0,0:0|0:0,0:0:0:0:
258,75,48585,1,0,0:0:0:0:
469,250,48732,1,0,0:0:0:0:
469,250,48806,1,0,0:0:0:0:
469,249,48879,2,0,P|408:284|339:283,1,140,8|0,0:0|0:0,0:0:0:0:
165,143,49173,5,0,0:0:0:0:
168,177,49246,1,0,0:0:0:0:
172,212,49320,1,0,0:0:0:0:
176,247,49393,1,0,0:0:0:0:
180,282,49467,6,0,B|260:311|260:311|334:308,1,140,8|0,0:0|0:0,0:0:0:0:
258,90,49762,1,0,0:0:0:0:
63,201,49909,2,0,B|66:277|66:277|50:347,1,140,0|8,0:0|0:0,0:0:0:0:
217,203,50203,1,0,0:0:0:0:
22,90,50350,2,0,P|145:134|259:81,1,210
258,90,50644,5,8,0:0:0:0:
264,313,50791,1,0,0:0:0:0:
122,19,50938,1,0,0:0:0:0:
327,208,51085,1,0,0:0:0:0:
122,19,51232,1,8,0:0:0:0:
150,372,51379,1,0,0:0:0:0:
258,90,51526,1,0,0:0:0:0:
80,280,51673,1,0,0:0:0:0:
431,46,51820,6,0,P|432:120|400:214,1,140,8|0,0:0|0:0,0:0:0:0:
137,156,52114,2,0,P|119:88|121:18,1,140
352,281,52408,2,0,B|223:313|223:313|69:277,1,280,8|0,0:0|0:0,0:0:0:0:
258,90,52849,1,0,0:0:0:0:
58,370,52996,6,0,B|80:279|80:279|64:198|80:72,1,280,8|0,0:0|0:0,0:0:0:0:
434,93,53437,2,0,B|448:198|432:279|432:279|454:370,1,280
258,90,53878,2,0,B|250:138|250:138|260:187|260:187|246:260,1,140
123,43,54172,6,0,B|258:90|258:90|424:38,1,280,8|0,0:0|0:0,0:0:0:0:
389,341,54614,2,0,B|254:294|254:294|88:346,1,280
418,127,55055,2,0,P|429:201|411:265,1,140
99,262,55349,2,0,P|82:195|94:127,1,140,8|0,0:0|0:0,0:0:0:0:
321,354,55643,2,0,P|247:365|183:347,1,140
185,35,55937,2,0,P|252:18|321:30,1,140,8|0,0:0|0:0,0:0:0:0:
99,262,56231,1,0,0:0:0:0:
418,127,56378,1,0,0:0:0:0:
146,114,58712,6,0,B|216:147|216:147|297:147|383:109,1,232.500001773834
394,81,58995,1,0,0:0:0:0:
208,24,59137,1,0,0:0:0:0:
482,22,59278,1,0,0:0:0:0:
303,232,59420,1,0,0:0:0:0:
394,81,59561,1,0,0:0:0:0:
333,350,59703,1,0,0:0:0:0:
208,24,59844,2,0,B|199:105|199:105|149:166|149:166|108:294,1,232.500001773834
106,264,60127,6,0,B|195:288|303:233|303:233|352:255|352:255|405:263,1,310.000002365112
121,97,60552,2,0,P|22:134|128:258,1,310.000002365112
303,232,60976,2,0,B|243:314|181:340|181:340|67:348,1,232.500001773834
68,339,61259,5,0,0:0:0:0:
183,195,61401,1,0,0:0:0:0:
68,339,61542,1,0,0:0:0:0:
151,75,61684,1,0,0:0:0:0:
241,334,61825,1,0,0:0:0:0:
9,67,61967,1,0,0:0:0:0:
356,112,62108,6,0,B|280:175|143:151|143:151|194:146|245:111,1,310.000002365112
355,22,62533,1,0,0:0:0:0:
274,219,62674,2,0,L|246:373,1,155.000001182556
102,68,62957,2,0,L|130:222,1,155.000001182556
479,36,63240,2,0,B|421:16|421:16|358:21|358:21|293:26|260:96,1,232.500001773834
271,123,63523,5,0,0:0:0:0:
479,36,63665,1,0,0:0:0:0:
316,293,63806,1,0,0:0:0:0:
221,0,63948,1,0,0:0:0:0:
508,211,64090,1,0,0:0:0:0:
339,55,64230,1,0,0:0:0:0:
280,365,64373,6,0,B|198:382|66:332|66:332|14:237,1,310.000002365112
76,48,64797,1,0,0:0:0:0:
215,211,64939,2,0,P|306:238|383:218,1,155.000001182556
168,133,65222,2,0,P|77:160|0:140,1,155.000001182556
21,149,65434,1,0,0:0:0:0:
21,149,65505,5,0,0:0:0:0:
204,39,65646,1,0,0:0:0:0:
131,241,65788,2,0,B|115:302|134:360|134:360|154:333,1,155.000001182556
266,151,66071,1,0,0:0:0:0:
58,201,66212,1,0,0:0:0:0:
266,151,66354,2,0,P|362:136|435:159,1,155.000001182556
267,66,66636,5,0,0:0:0:0:
347,246,66777,1,0,0:0:0:0:
132,162,66919,1,0,0:0:0:0:
381,90,67060,1,0,0:0:0:0:
252,369,67202,1,0,0:0:0:0:
157,29,67343,1,0,0:0:0:0:
453,297,67485,1,0,0:0:0:0:
22,190,67626,1,0,0:0:0:0:
507,16,67769,6,0,B|478:130|478:130|373:241,1,232.500001773834
354,232,68051,1,0,0:0:0:0:
377,32,68193,1,0,0:0:0:0:
266,318,68335,1,0,0:0:0:0:
443,149,68476,1,0,0:0:0:0:
138,187,68618,1,0,0:0:0:0:
507,16,68759,1,0,0:0:0:0:
354,232,68901,6,0,B|278:186|200:54|200:54|268:98,1,310.000002365112
445,246,69325,1,0,0:0:0:0:
200,268,69467,2,0,P|115:277|47:265,1,155.000001182556
257,134,69750,1,0,0:0:0:0:
155,355,69891,1,0,0:0:0:0:
319,53,70033,6,0,B|254:135|254:135|152:163|67:148,1,232.500001773834
91,126,70316,1,0,0:0:0:0:
319,53,70457,1,0,0:0:0:0:
200,268,70599,1,0,0:0:0:0:
187,67,70740,1,0,0:0:0:0:
369,325,70882,1,0,0:0:0:0:
257,134,71023,1,0,0:0:0:0:
293,383,71165,6,0,B|284:303|284:303|339:138,1,232.500001773834
371,106,71448,2,0,P|353:227|297:102,1,310.000002365112
63,106,71873,2,0,P|81:227|137:102,1,310.000002365112
259,11,72297,2,0,B|243:86|243:86|256:171|256:171|231:239,1,232.500001773834
215,278,72579,5,0,0:0:0:0:
410,128,72721,1,0,0:0:0:0:
215,278,72862,1,0,0:0:0:0:
389,25,73004,1,0,0:0:0:0:
393,329,73145,1,0,0:0:0:0:
240,123,73287,1,0,0:0:0:0:
512,356,73429,6,0,B|455:354|455:354|393:330|393:330|306:367|225:357,1,232.500001773834
213,376,73712,2,0,P|122:321|196:167,1,310.000002365112
477,163,74137,2,0,B|430:237|430:237|332:286|214:279,1,310.000002365112
66,38,74561,2,0,B|44:109|44:109|67:312,1,232.500001773834
73,301,74844,5,0,0:0:0:0:
236,113,74986,1,0,0:0:0:0:
134,200,75127,1,0,0:0:0:0:
370,89,75269,1,0,0:0:0:0:
66,38,75410,1,0,0:0:0:0:
475,164,75552,1,0,0:0:0:0:
134,200,75693,6,0,B|164:253|164:253|218:275|356:283,1,232.500001773834
453,262,75976,2,0,P|422:176|436:30,1,240
351,56,76259,2,0,B|240:75|240:75|103:47,1,240
36,24,76542,2,0,P|51:141|17:256,1,240
21,329,76825,6,0,P|105:342|170:321,1,129.999994049073
223,112,77108,2,0,P|185:164|131:199,1,129.999994049073
156,42,77391,1,0,0:0:0:0:
260,221,77533,1,0,0:0:0:0:
268,0,77674,1,0,0:0:0:0:
164,179,77816,1,0,0:0:0:0:
413,44,77957,6,0,B|406:90|406:90|418:173,1,129.999994049073
435,207,78170,1,0,0:0:0:0:
460,239,78240,2,0,B|467:285|467:285|455:368,1,129.999994049073
334,287,78522,5,0,0:0:0:0:
455,238,78664,1,0,0:0:0:0:
214,237,78805,1,0,0:0:0:0:
334,287,78947,1,0,0:0:0:0:
76,315,79090,2,0,P|53:243|56:189,1,129.999994049073
233,111,79373,2,0,P|234:175|212:236,1,129.999994049073
121,39,79655,5,0,0:0:0:0:
336,22,79796,1,0,0:0:0:0:
234,113,79938,1,0,0:0:0:0:
449,130,80079,1,0,0:0:0:0:
297,223,80222,6,0,P|213:238|162:222,1,129.999994049073
47,81,80505,2,0,B|53:118|53:118|34:228,1,129.999994049073
135,34,80787,5,0,0:0:0:0:
234,113,80928,1,0,0:0:0:0:
47,81,81070,1,0,0:0:0:0:
295,27,81211,1,0,0:0:0:0:
146,152,81354,2,0,P|138:229|153:282,1,129.999994049073
357,228,81637,2,0,P|365:305|350:358,1,129.999994049073
261,213,81920,5,0,0:0:0:0:
411,145,82061,1,0,0:0:0:0:
411,145,82132,1,0,0:0:0:0:
411,145,82203,1,0,0:0:0:0:
260,317,82344,1,0,0:0:0:0:
339,47,82486,2,0,L|320:179,1,129.999994049073
143,151,82769,2,0,L|162:279,1,129.999994049073
218,67,83052,5,0,0:0:0:0:
59,213,83193,1,0,0:0:0:0:
349,77,83335,1,0,0:0:0:0:
146,152,83476,1,0,0:0:0:0:
462,123,83618,6,0,L|436:254,1,129.999994049073
226,193,83901,2,0,L|252:324,1,129.999994049073
146,152,84184,1,0,0:0:0:0:
333,186,84325,1,0,0:0:0:0:
126,34,84467,1,0,0:0:0:0:
206,275,84608,1,0,0:0:0:0:
253,94,84750,6,0,P|339:69|442:98,1,194.999991073609
462,123,85033,2,0,P|444:192|462:253,1,129.999994049073
281,340,85316,2,0,B|241:360|241:360|147:371,1,129.999994049073
47,211,85599,5,0,0:0:0:0:
48,242,85669,1,0,0:0:0:0:
49,274,85740,1,0,0:0:0:0:
50,306,85811,1,0,0:0:0:0:
52,338,85882,6,0,P|106:282|124:203,1,155.000001182556
191,22,86165,2,0,P|216:93|272:148,1,155.000001182556
462,122,86448,1,0,0:0:0:0:
192,28,86590,1,0,0:0:0:0:
438,315,86731,1,0,0:0:0:0:
332,56,86872,1,0,0:0:0:0:
239,240,87014,6,0,P|159:253|88:235,1,155.000001182556
385,236,87297,2,0,P|349:308|294:356,1,155.000001182556
248,131,87580,1,0,0:0:0:0:
466,185,87722,1,0,0:0:0:0:
203,43,87863,1,0,0:0:0:0:
204,380,88005,1,0,0:0:0:0:
336,137,88146,6,0,P|412:120|487:134,1,155.000001182556
278,276,88429,2,0,P|202:293|126:279,1,155.000001182556
64,127,88712,1,0,0:0:0:0:
83,365,88854,1,0,0:0:0:0:
203,43,88995,1,0,0:0:0:0:
48,224,89137,1,0,0:0:0:0:
378,99,89278,6,0,B|380:150|390:181|390:181|378:253,1,155.000001182556
121,201,89561,2,0,B|118:251|110:283|110:283|121:355,1,155.000001182556
203,43,89844,1,0,0:0:0:0:
270,272,89986,1,0,0:0:0:0:
38,68,90127,1,0,0:0:0:0:
373,104,90269,2,0,L|313:155,1,77.5000005912781
192,234,90410,6,0,P|186:329|208:384,1,155.000001182556
456,276,90693,2,0,P|474:200|464:124,1,155.000001182556
270,272,90975,1,0,0:0:0:0:
373,104,91117,1,0,0:0:0:0:
105,185,91258,1,0,0:0:0:0:
425,195,91400,1,0,0:0:0:0:
203,43,91542,6,0,B|208:94|208:94|199:145|199:145|211:227,1,155.000001182556
425,195,91825,2,0,B|420:246|420:246|429:297|429:297|417:379,1,155.000001182556
281,169,92107,1,0,0:0:0:0:
359,356,92249,1,0,0:0:0:0:
348,85,92390,1,0,0:0:0:0:
270,272,92532,1,0,0:0:0:0:
457,48,92674,6,0,B|402:75|348:84|348:84|206:65,1,232.500001773834
201,39,92957,2,0,B|193:110|193:110|164:199,1,165.000001573563
6,192,93240,2,0,B|13:263|13:263|44:354,1,165.000001573563
284,166,93523,2,0,P|197:171|275:242,1,247.500002360344
309,244,93805,5,0,0:0:0:0:
109,166,93947,1,0,0:0:0:0:
394,182,94089,1,0,0:0:0:0:
46,242,94230,1,0,0:0:0:0:
431,282,94372,1,0,0:0:0:0:
20,124,94513,1,0,0:0:0:0:
512,104,94655,1,0,0:0:0:0:
512,104,94725,1,0,0:0:0:0:
512,104,94796,1,0,0:0:0:0:
207,172,94940,6,0,P|223:260|300:167,1,270.000001029968,12|0,0:0|0:0,0:0:0:0:
188,22,95372,1,0,0:0:0:0:
358,103,95516,2,0,P|429:119|498:102,1,135.000005149842,8|0,0:0|0:0,0:0:0:0:
363,249,95805,2,0,P|313:302|293:370,1,135.000005149842
258,175,96093,5,8,0:0:0:0:
446,202,96238,1,0,0:0:0:0:
191,289,96382,1,0,0:0:0:0:
329,57,96526,1,0,0:0:0:0:
258,175,96670,2,0,P|179:188|102:163,1,135.000005149842,8|0,0:0|0:0,0:0:0:0:
253,334,96959,2,0,P|332:321|409:346,1,135.000005149842
419,354,97175,1,0,0:0:0:0:
451,377,97247,6,0,B|474:309|455:179|455:179|432:252,1,270.000010299683,8|0,0:0|0:0,0:0:0:0:
343,364,97680,1,0,0:0:0:0:
345,148,97824,2,0,B|345:221|345:221|319:295,1,135.000005149842,8|0,0:0|0:0,0:0:0:0:
179,52,98112,2,0,B|179:125|179:125|205:199,1,135.000005149842
365,90,98401,5,8,0:0:0:0:
179,52,98545,1,0,0:0:0:0:
445,11,98689,1,0,0:0:0:0:
257,204,98833,1,0,0:0:0:0:
445,11,98978,2,0,P|372:-4|302:13,1,135.000005149842,8|0,0:0|0:0,0:0:0:0:
257,204,99266,2,0,P|330:219|400:202,1,135.000005149842
234,35,99555,5,8,0:0:0:0:
160,251,99699,1,0,0:0:0:0:
373,36,99843,1,0,0:0:0:0:
167,136,99987,1,0,0:0:0:0:
470,141,100131,1,8,0:0:0:0:
253,66,100275,1,0,0:0:0:0:
459,291,100420,1,0,0:0:0:0:
358,84,100564,1,0,0:0:0:0:
338,352,100708,5,8,0:0:0:0:
358,84,100853,1,0,0:0:0:0:
155,262,100997,1,0,0:0:0:0:
423,282,101142,1,0,0:0:0:0:
253,34,101285,1,8,0:0:0:0:
231,337,101430,1,0,0:0:0:0:
460,139,101574,1,0,0:0:0:0:
157,117,101719,1,0,0:0:0:0:
157,117,101790,1,0,0:0:0:0:
157,117,101862,5,8,0:0:0:0:
374,188,102006,5,0,0:0:0:0:
225,11,102151,1,0,0:0:0:0:
222,240,102295,1,0,0:0:0:0:
396,34,102439,1,8,0:0:0:0:
130,81,102583,1,0,0:0:0:0:
374,188,102727,1,0,0:0:0:0:
108,235,102871,1,0,0:0:0:0:
108,235,102944,1,0,0:0:0:0:
108,235,103016,5,8,0:0:0:0:
477,170,103160,1,0,0:0:0:0:
123,41,103304,1,0,0:0:0:0:
477,170,103448,1,0,0:0:0:0:
157,376,103593,2,0,B|101:312|106:233|106:233|128:185|117:123|117:123|176:91|200:12,1,405.000015449525,6|0,0:0|0:0,0:0:0:0:
374,188,104170,6,0,P|351:272|314:152,1,320,12|0,0:0|0:0,0:0:0:0:
508,23,104602,1,0,0:0:0:0:
259,73,104747,2,0,P|166:89|91:72,1,160,8|0,0:0|0:0,0:0:0:0:
370,30,105035,2,0,P|386:108|375:187,1,160
173,150,105323,5,8,0:0:0:0:
252,339,105468,1,0,0:0:0:0:
259,73,105612,1,0,0:0:0:0:
111,296,105756,1,0,0:0:0:0:
403,180,105900,1,8,0:0:0:0:
88,144,106045,1,0,0:0:0:0:
468,50,106189,1,0,0:0:0:0:
165,303,106333,1,0,0:0:0:0:
293,86,106477,6,0,B|335:194|293:348|293:348|250:382,1,320,8|0,0:0|0:0,0:0:0:0:
153,163,106910,1,0,0:0:0:0:
254,378,107054,2,0,P|331:394|423:373,1,160,8|0,0:0|0:0,0:0:0:0:
293,86,107342,2,0,P|216:70|124:91,1,160
370,29,107631,5,8,0:0:0:0:
325,260,107775,1,0,0:0:0:0:
142,29,107919,1,0,0:0:0:0:
187,260,108063,1,0,0:0:0:0:
465,109,108208,1,8,0:0:0:0:
159,36,108352,1,0,0:0:0:0:
465,275,108496,1,0,0:0:0:0:
159,348,108640,1,0,0:0:0:0:
367,143,108785,6,0,B|369:270|323:380|323:380|306:291,1,320,8|0,0:0|0:0,0:0:0:0:
258,78,109217,1,0,0:0:0:0:
187,304,109362,2,0,P|164:214|178:133,1,160,8|0,0:0|0:0,0:0:0:0:
412,63,109650,2,0,P|375:133|315:184,1,160
157,54,109938,5,8,0:0:0:0:
240,241,110083,1,0,0:0:0:0:
339,9,110227,1,0,0:0:0:0:
147,172,110371,1,0,0:0:0:0:
459,202,110515,1,8,0:0:0:0:
194,28,110660,1,0,0:0:0:0:
340,378,110804,1,0,0:0:0:0:
367,3,110948,1,0,0:0:0:0:
240,241,111092,6,0,B|127:268|19:242|19:242|46:219|143:208,1,320,8|0,0:0|0:0,0:0:0:0:
324,177,111525,1,0,0:0:0:0:
172,336,111669,2,0,B|112:328|67:338|67:338|10:327,1,160,8|0,0:0|0:0,0:0:0:0:
324,177,111958,2,0,B|384:169|429:179|429:179|486:168,1,160
193,38,112246,5,8,0:0:0:0:
261,344,112390,1,0,0:0:0:0:
257,108,112534,1,0,0:0:0:0:
121,303,112679,1,0,0:0:0:0:
405,168,112823,1,8,0:0:0:0:
91,138,112967,1,0,0:0:0:0:
471,38,113111,1,0,0:0:0:0:
165,290,113256,1,0,0:0:0:0:
343,69,113400,6,0,B|257:107|257:107|144:100|34:48,1,320,12|0,0:0|0:0,0:0:0:0:
260,11,113832,1,0,0:0:0:0:
146,201,113977,2,0,B|129:257|129:257|132:308|153:372,1,160,8|0,0:0|0:0,0:0:0:0:
405,168,114265,2,0,B|421:224|421:224|419:275|398:339,1,160
272,142,114554,5,8,0:0:0:0:
316,357,114698,1,0,0:0:0:0:
370,47,114842,1,0,0:0:0:0:
186,302,114986,1,0,0:0:0:0:
370,154,115130,1,8,0:0:0:0:
132,152,115275,1,0,0:0:0:0:
415,288,115419,1,0,0:0:0:0:
232,31,115563,1,0,0:0:0:0:
297,241,115707,6,0,B|192:278|59:236|59:236|-9:272,1,320,8|0,0:0|0:0,0:0:0:0:
195,364,116140,1,0,0:0:0:0:
132,152,116284,2,0,L|103:330,1,160,8|0,0:0|0:0,0:0:0:0:
271,85,116573,2,0,L|300:263,1,160
61,31,116861,5,8,0:0:0:0:
375,42,117005,1,0,0:0:0:0:
132,152,117149,1,0,0:0:0:0:
375,42,117294,1,0,0:0:0:0:
234,323,117438,1,8,0:0:0:0:
238,8,117582,1,0,0:0:0:0:
450,239,117726,1,0,0:0:0:0:
135,235,117870,1,0,0:0:0:0:
384,38,118015,6,0,B|352:123|352:123|372:270|372:270|329:385,1,320,8|0,0:0|0:0,0:0:0:0:
232,116,118447,1,0,0:0:0:0:
126,346,118592,2,0,B|106:267|106:267|117:162,1,160,8|0,0:0|0:0,0:0:0:0:
333,186,118880,2,0,B|353:265|353:265|342:370,1,160
232,116,119169,5,8,0:0:0:0:
180,362,119313,1,0,0:0:0:0:
382,121,119457,1,0,0:0:0:0:
89,236,119601,1,0,0:0:0:0:
350,6,119745,1,8,0:0:0:0:
318,354,119890,1,0,0:0:0:0:
59,57,120034,1,0,0:0:0:0:
429,195,120178,1,0,0:0:0:0:
189,118,120322,5,8,0:0:0:0:
429,195,120467,1,0,0:0:0:0:
181,242,120611,1,0,0:0:0:0:
429,195,120755,1,0,0:0:0:0:
150,49,120899,5,8,0:0:0:0:
429,195,121043,1,0,0:0:0:0:
115,242,121188,1,0,0:0:0:0:
429,195,121332,1,0,0:0:0:0:
50,86,121476,5,8,0:0:0:0:
429,195,121620,1,0,0:0:0:0:
54,321,121765,1,0,0:0:0:0:
429,195,121909,1,0,0:0:0:0:
0,192,122053,6,0,B|70:253|171:253|171:253|229:229,1,240,8|0,0:0|0:0,0:0:0:0:
262,179,122341,6,2,P|172:186|277:272,1,320,10|0,0:0|0:0,0:0:0:0:
397,29,122725,6,0,B|386:123|371:188|371:188|383:243|383:243|383:316,1,290.000008850098
257,89,123141,1,0,0:0:0:0:
128,316,123280,2,0,B|128:243|128:243|140:188|140:188|125:123|115:29,1,290.000008850098
255,251,123697,1,0,0:0:0:0:
394,33,123836,6,0,L|391:217,1,145.000004425049
201,3,124113,2,0,L|198:187,1,145.000004425049
440,54,124391,2,0,L|437:238,1,145.000004425049
243,25,124669,2,0,L|240:209,1,145.000004425049
482,75,124947,6,0,B|478:130|489:158|489:158|468:216|468:216|469:284|469:284|442:323|430:376,1,290.000008850098,12|0,0:0|0:0,0:0:0:0:
344,109,125363,1,0,0:0:0:0:
256,352,125502,2,0,B|250:326|223:286|223:286|224:217|224:217|203:158|203:158|214:131|210:74,1,290.000008850098
344,299,125918,1,0,0:0:0:0:
121,171,126058,6,0,B|119:229|111:269|111:269|137:359,1,145.000004425049
327,152,126336,2,8,B|276:121|247:94|247:94|156:71,1,145.000004425049
241,340,126613,2,0,B|292:311|330:299|330:299|395:232,1,145.000004425049
121,171,126891,2,0,B|119:229|111:269|111:269|137:359,1,145.000004425049
327,152,127169,6,0,P|231:80|120:196,1,290.000008850098,12|0,0:0|0:0,0:0:0:0:
366,250,127585,1,0,0:0:0:0:
120,171,127724,2,0,P|216:243|327:127,1,290.000008850098
85,63,128140,1,0,0:0:0:0:
341,64,128280,6,0,P|423:69|490:57,1,145.000004425049
247,167,128558,2,0,P|165:172|98:160,1,145.000004425049
339,273,128835,2,0,P|421:278|488:266,1,145.000004425049
245,376,129113,2,0,P|163:381|96:369,1,145.000004425049
339,273,129391,6,0,P|426:203|305:184,1,290.000008850098,8|0,0:0|0:0,0:0:0:0:
68,261,129807,1,0,0:0:0:0:
311,173,129946,2,0,B|318:245|318:245|310:332,1,145.000004425049,8|0,0:0|0:0,0:0:0:0:
120,144,130224,2,0,B|110:71|110:71|117:0,1,145.000004425049
215,238,130501,1,8,0:0:0:0:
306,0,130640,1,0,0:0:0:0:
402,238,130779,2,0,B|408:309|408:309|400:382,1,145.000004425049
302,142,131056,1,8,0:0:0:0:
211,380,131195,1,0,0:0:0:0:
112,144,131335,2,0,B|102:62|102:62|108:-7,1,145.000004425049
273,196,131612,6,0,B|192:202|129:222|129:222|60:216|60:216|-13:194,1,290.000008850098,12|0,0:0|0:0,0:0:0:0:
183,20,132029,1,0,0:0:0:0:
353,212,132168,2,0,P|430:240|361:142,1,290.000008850098
136,206,132585,1,0,0:0:0:0:
301,9,132724,2,0,B|291:88|291:88|322:207|322:207|307:337,1,290.000008850098
199,58,133140,2,0,B|209:137|209:137|178:256|178:256|193:386,1,290.000008850098
103,93,133557,2,0,B|90:143|90:143|97:195|97:195|69:290,1,145.000004425049
197,55,133835,6,0,B|208:136|208:136|176:257|176:257|191:389,1,290.000008850098,12|0,0:0|0:0,0:0:0:0:
303,108,134251,1,0,0:0:0:0:
421,338,134390,2,0,B|431:255|431:255|399:133|399:133|409:53,1,290.000008850098
303,292,134807,1,0,0:0:0:0:
199,58,134946,2,0,B|196:112|209:137|209:137|197:199|178:256|178:256|171:293|193:386,1,290.000008850098
79,101,135362,2,0,B|76:155|89:180|89:180|77:242|58:299|58:299|51:336|73:429,1,290.000008850098
303,292,135779,2,0,B|354:295|354:295|385:285|385:285|416:297|456:290,1,145.000004425049
208,181,136057,6,0,P|152:110|274:127,1,290.000008850098,12|0,0:0|0:0,0:0:0:0:
255,377,136474,1,0,0:0:0:0:
274,117,136612,2,0,P|379:71|341:179,1,290.000008850098
106,290,137029,1,0,0:0:0:0:
342,179,137168,2,0,P|381:69|274:116,1,290.000008850098
119,332,137584,2,0,P|11:372|54:264,1,290.000008850098
274,119,138001,6,0,L|266:288,1,145.000004425049
165,23,138279,5,8,0:0:0:0:
159,279,138418,1,0,0:0:0:0:
165,23,138557,1,0,0:0:0:0:
159,279,138696,1,0,0:0:0:0:
165,23,138835,1,8,0:0:0:0:
159,279,138974,1,0,0:0:0:0:
165,23,139112,1,0,0:0:0:0:
159,279,139251,1,0,0:0:0:0:
165,23,139390,5,8,0:0:0:0:
232,128,139667,6,0,B|250:153|250:153|268:166|268:166|275:142|275:142|270:79,2,104.999996795654
113,9,140500,6,0,B|95:95|95:95|118:254|118:254|93:384,1,379.999989852906,12|0,0:0|0:0,0:0:0:0:
256,82,140917,1,0,0:0:0:0:
419,384,141056,2,0,B|394:254|394:254|416:95|416:95|399:9,1,379.999989852906,8|0,0:0|0:0,0:0:0:0:
256,323,141473,1,0,0:0:0:0:
113,9,141611,2,0,B|112:78|106:125|106:125|112:156|112:156|114:222,1,190,8|0,0:0|0:0,0:0:0:0:
399,9,141889,2,0,B|398:78|392:125|392:125|398:156|398:156|400:222,1,190
61,127,142167,2,0,B|60:196|54:243|54:243|60:274|60:274|62:340,1,190,8|0,0:0|0:0,0:0:0:0:
349,127,142445,2,0,B|348:196|342:243|342:243|348:274|348:274|350:340,1,190
199,5,142722,5,8,0:0:0:0:
230,345,142861,1,0,0:0:0:0:
326,16,143000,1,0,0:0:0:0:
108,279,143139,1,0,0:0:0:0:
411,121,143277,1,8,0:0:0:0:
70,152,143417,1,0,0:0:0:0:
395,259,143556,1,0,0:0:0:0:
131,40,143695,1,0,0:0:0:0:
292,338,143833,5,8,0:0:0:0:
131,40,143972,1,0,0:0:0:0:
395,259,144111,1,0,0:0:0:0:
70,152,144250,1,0,0:0:0:0:
411,121,144389,1,8,0:0:0:0:
108,279,144528,1,0,0:0:0:0:
326,16,144667,1,0,0:0:0:0:
230,345,144806,1,0,0:0:0:0:
326,16,144944,6,0,P|457:8|347:118,1,380,12|0,0:0|0:0,0:0:0:0:
2,114,145361,1,0,0:0:0:0:
346,117,145500,2,0,P|470:195|325:218,1,380,8|0,0:0|0:0,0:0:0:0:
2,114,145916,1,0,0:0:0:0:
270,326,146055,6,0,B|368:341|368:341|495:321,1,190,8|0,0:0|0:0,0:0:0:0:
140,190,146333,2,0,B|125:288|125:288|145:415,1,190
230,45,146611,2,0,B|132:30|132:30|5:50,1,190,8|0,0:0|0:0,0:0:0:0:
357,178,146889,2,0,B|372:276|372:276|352:403,1,190
230,45,147166,5,8,0:0:0:0:
270,384,147305,1,0,0:0:0:0:
435,84,147443,1,0,0:0:0:0:
123,227,147582,1,0,0:0:0:0:
460,292,147721,1,8,0:0:0:0:
230,45,147861,1,0,0:0:0:0:
270,384,148000,1,0,0:0:0:0:
435,84,148138,1,0,0:0:0:0:
123,227,148277,5,8,0:0:0:0:
435,84,148416,1,0,0:0:0:0:
270,384,148555,1,0,0:0:0:0:
230,45,148694,1,0,0:0:0:0:
460,292,148833,1,8,0:0:0:0:
123,227,148972,1,0,0:0:0:0:
435,84,149111,1,0,0:0:0:0:
270,384,149250,1,0,0:0:0:0:
230,45,149388,6,0,P|85:72|239:135,1,380,12|0,0:0|0:0,0:0:0:0:
511,2,149805,1,0,0:0:0:0:
326,290,149944,2,0,B|180:321|18:294|18:294|108:263,1,380,8|0,0:0|0:0,0:0:0:0:
419,192,150360,1,0,0:0:0:0:
85,115,150499,6,0,B|88:177|80:211|80:211|80:252|95:326,1,190,8|0,0:0|0:0,0:0:0:0:
419,192,150777,2,0,B|429:140|429:99|429:99|421:65|424:3,1,190
203,267,151055,2,0,B|254:277|295:277|295:277|329:269|391:272,1,190,8|0,0:0|0:0,0:0:0:0:
85,115,151333,2,0,B|88:177|80:211|80:211|80:252|95:326,1,190
256,1,151610,5,8,0:0:0:0:
226,342,151749,1,0,0:0:0:0:
508,153,151887,1,0,0:0:0:0:
167,123,152026,1,0,0:0:0:0:
392,380,152165,1,8,0:0:0:0:
422,39,152304,1,0,0:0:0:0:
160,259,152443,1,0,0:0:0:0:
501,289,152582,1,0,0:0:0:0:
269,36,152721,5,8,0:0:0:0:
501,289,152860,1,0,0:0:0:0:
160,259,152999,1,0,0:0:0:0:
422,39,153137,1,0,0:0:0:0:
392,380,153276,1,8,0:0:0:0:
171,128,153415,1,0,0:0:0:0:
508,153,153554,1,0,0:0:0:0:
228,370,153693,1,0,0:0:0:0:
256,1,153832,6,0,B|236:72|237:129|237:129|259:186|264:251|264:251|239:305|227:378,1,380,12|0,0:0|0:0,0:0:0:0:
69,63,154249,1,0,0:0:0:0:
369,221,154387,2,0,P|466:244|362:144,1,380,8|0,0:0|0:0,0:0:0:0:
65,286,154804,1,0,0:0:0:0:
371,128,154943,6,0,B|378:219|378:219|361:324,1,190,8|0,0:0|0:0,0:0:0:0:
156,39,155221,2,0,B|149:130|149:130|166:235,1,190
500,305,155499,2,0,B|515:207|515:207|508:116,1,190,8|0,0:0|0:0,0:0:0:0:
269,361,155776,2,0,B|171:376|171:376|80:369,1,190
416,293,156054,5,8,0:0:0:0:
74,264,156193,1,0,0:0:0:0:
411,207,156332,1,0,0:0:0:0:
69,178,156471,1,0,0:0:0:0:
405,113,156610,1,8,0:0:0:0:
63,84,156749,1,0,0:0:0:0:
399,34,156887,1,0,0:0:0:0:
57,5,157026,1,0,0:0:0:0:
399,34,157165,5,8,0:0:0:0:
63,84,157304,1,0,0:0:0:0:
405,113,157443,1,0,0:0:0:0:
69,178,157582,1,0,0:0:0:0:
411,207,157721,1,8,0:0:0:0:
74,264,157860,1,0,0:0:0:0:
416,293,157999,1,0,0:0:0:0:
74,264,158137,1,0,0:0:0:0:
416,293,158276,6,0,B|448:200|448:200|456:104,1,190,8|0,0:0|0:0,0:0:0:0:
333,230,158693,1,0,0:0:0:0:
209,109,158832,2,0,B|216:200|216:200|248:293,1,190
335,144,159248,1,0,0:0:0:0:
416,293,159387,6,0,B|448:200|448:200|456:104,1,190
293,45,159803,2,0,B|300:136|300:136|332:229,1,190
209,109,160220,2,0,B|197:64|197:64|194:-5,1,95
121,171,160498,6,0,P|72:196|92:113,1,190,8|0,0:0|0:0,0:0:0:0:
257,137,160914,1,0,0:0:0:0:
121,171,161053,2,0,P|77:234|154:229,1,190
217,69,161470,1,0,0:0:0:0:
286,225,161609,6,0,B|338:232|338:232|405:227,1,95
209,230,161887,2,0,B|240:271|240:271|291:315,1,95
151,176,162164,2,0,B|144:228|144:228|148:295,1,95
151,98,162442,2,0,B|109:129|109:129|65:180,1,95
155,6,162720,6,0,B|217:21|217:21|278:7|278:7|365:16,1,190,8|0,0:0|0:0,0:0:0:0:
505,60,163136,1,0,0:0:0:0:
341,13,163275,2,0,B|326:75|326:75|340:136|340:136|331:223,1,190
299,368,163692,1,0,0:0:0:0:
333,199,163831,2,0,B|271:184|271:184|210:198|210:198|123:189,1,190
255,57,164248,2,0,B|318:63|318:63|379:49|379:49|441:64,1,190
333,199,164664,2,0,P|326:259|347:316,1,95
423,144,164942,6,0,B|370:137|329:166|329:166|270:141|215:148,1,190,8|0,0:0|0:0,0:0:0:0:
68,134,165359,1,0,0:0:0:0:
172,269,165498,2,0,P|216:301|195:218,1,190,8|0,0:0|0:0,0:0:0:0:
68,134,165914,1,0,0:0:0:0:
179,4,166053,2,0,P|223:-28|202:54,1,190,8|0,0:0|0:0,0:0:0:0:
68,134,166470,1,0,0:0:0:0:
239,135,166609,2,0,L|338:134,1,95,8|0,0:0|0:0,0:0:0:0:
162,134,166886,2,0,L|63:133,1,95
300,21,167164,6,0,P|337:161|238:283,1,290.000008850098,12|0,0:0|0:0,0:0:0:0:
161,32,167581,1,0,0:0:0:0:
130,288,167719,2,0,P|248:365|383:325,1,290.000008850098
468,82,168136,1,0,0:0:0:0:
272,248,168275,6,0,P|188:231|292:173,1,290.000008850098
291,171,168692,2,0,P|308:88|365:192,1,290.000008850098
366,191,169108,2,0,B|371:247|367:268|367:268|374:288|378:368,1,145.000004425049
125,279,169386,6,0,B|106:151|123:30|123:30|145:-8,1,290.000008850098,12|0,0:0|0:0,0:0:0:0:
256,230,169803,1,0,0:0:0:0:
371,0,169941,2,0,B|389:30|389:30|406:151|388:288,1,290.000008850098
253,57,170358,1,0,0:0:0:0:
125,279,170497,6,0,P|63:314|116:216,1,290.000008850098
97,201,170914,2,0,P|62:138|160:191,1,290.000008850098
172,175,171330,2,0,B|251:186|251:186|351:173,1,145.000004425049
111,17,171608,6,0,B|95:106|95:106|115:233|115:233|93:316,1,290.000008850098,12|0,0:0|0:0,0:0:0:0:
220,71,172023,1,0,0:0:0:0:
340,299,172163,2,0,B|323:234|323:234|343:105|343:105|327:14,1,290.000008850098
220,254,172580,1,0,0:0:0:0:
448,137,172719,6,0,B|443:230|443:230|458:304,1,145.000004425049
231,142,172997,2,0,B|240:92|240:92|235:-1,1,145.000004425049
19,137,173274,2,0,B|14:230|14:230|29:304,1,145.000004425049
106,31,173552,6,0,P|210:11|424:46,1,290.000008850098,8|0,0:0|0:0,0:0:0:0:
145,122,173968,1,0,0:0:0:0:
393,205,174107,2,0,P|249:228|107:207,1,290.000008850098,8|0,0:0|0:0,0:0:0:0:
352,122,174523,1,0,0:0:0:0:
192,323,174663,6,0,B|96:325|96:325|37:312,1,145.000004425049,8|0,0:0|0:0,0:0:0:0:
299,245,174941,2,0,B|395:247|395:247|454:234,1,145.000004425049
189,173,175219,2,0,B|93:175|93:175|34:162,1,145.000004425049,8|0,0:0|0:0,0:0:0:0:
296,95,175496,2,0,B|392:97|392:97|451:84,1,145.000004425049
188,26,175774,2,0,B|92:28|92:28|33:15,1,145.000004425049,8|0,0:0|0:0,0:0:0:0:
198,98,176052,6,0,L|256:98,7,50
166,131,176607,2,0,L|207:172,7,50
116,147,177163,2,0,L|116:204,7,50
66,124,177718,2,0,L|24:165,7,50
64,78,178274,6,0,L|64:14,3,50
97,76,178551,2,0,L|97:12,3,50
133,72,178829,2,0,L|133:8,3,50
169,68,179107,2,0,L|169:4,3,50
256,192,179384,12,0,180426,0:0:0:0:
150,0,180496,6,0,B|167:122|167:122|147:276|147:276|163:388,1,379.999989852906,12|0,0:0|0:0,0:0:0:0:
255,47,180911,1,0,0:0:0:0:
350,376,181051,2,0,B|365:276|365:276|345:122|345:122|362:0,1,380,8|0,0:0|0:0,0:0:0:0:
255,327,181467,1,0,0:0:0:0:
477,66,181607,6,0,B|481:161|481:161|464:266,1,190,8|0,0:0|0:0,0:0:0:0:
223,12,181884,2,0,B|219:107|219:107|234:200,1,190
512,0,182162,2,0,B|516:95|516:95|499:200,1,190,8|0,0:0|0:0,0:0:0:0:
156,166,182440,2,0,B|152:261|152:261|167:354,1,190
91,11,182717,5,8,0:0:0:0:
167,354,182856,1,0,0:0:0:0:
303,22,182994,1,0,0:0:0:0:
3,207,183133,1,0,0:0:0:0:
354,230,183272,1,8,0:0:0:0:
3,207,183411,1,0,0:0:0:0:
303,22,183550,1,0,0:0:0:0:
171,358,183689,1,0,0:0:0:0:
89,24,183828,5,8,0:0:0:0:
171,358,183967,1,0,0:0:0:0:
295,35,184106,1,0,0:0:0:0:
377,369,184245,1,0,0:0:0:0:
477,44,184383,1,8,0:0:0:0:
377,369,184522,1,0,0:0:0:0:
295,35,184661,1,0,0:0:0:0:
171,358,184800,1,0,0:0:0:0:
89,24,184939,6,0,B|89:87|89:87|68:137|68:137|82:204|82:204|70:266|70:266|80:343|80:343|117:381,1,380,12|0,0:0|0:0,0:0:0:0:
255,65,185356,1,0,0:0:0:0:
395,381,185495,2,0,B|432:343|432:343|441:266|441:266|429:204|429:204|444:137|444:137|423:87|423:87|423:24,1,380,8|0,0:0|0:0,0:0:0:0:
255,322,185911,1,0,0:0:0:0:
89,24,186050,6,0,B|92:95|92:95|80:160|80:160|87:226,1,190,8|0,0:0|0:0,0:0:0:0:
411,99,186328,2,0,B|348:66|348:66|297:23|297:23|237:-3,1,190
185,340,186606,2,0,B|244:301|244:301|307:279|307:279|360:240,1,190,8|0,0:0|0:0,0:0:0:0:
12,193,186884,2,0,B|15:264|15:264|3:329|3:329|10:395,1,190
84,28,187161,5,8,0:0:0:0:
144,380,187300,1,0,0:0:0:0:
199,27,187439,1,0,0:0:0:0:
260,379,187578,1,0,0:0:0:0:
321,27,187717,1,8,0:0:0:0:
383,379,187856,1,0,0:0:0:0:
443,26,187995,1,0,0:0:0:0:
504,378,188134,1,0,0:0:0:0:
443,26,188272,5,8,0:0:0:0:
383,379,188411,1,0,0:0:0:0:
321,27,188550,1,0,0:0:0:0:
260,379,188689,1,0,0:0:0:0:
199,27,188828,1,8,0:0:0:0:
144,380,188967,1,0,0:0:0:0:
84,28,189106,1,0,0:0:0:0:
144,380,189245,1,0,0:0:0:0:
80,24,189383,6,0,P|-27:64|122:139,1,380,12|0,0:0|0:0,0:0:0:0:
440,12,189800,1,0,0:0:0:0:
239,289,189939,2,0,P|88:270|200:168,1,380,8|0,0:0|0:0,0:0:0:0:
505,328,190356,1,0,0:0:0:0:
276,73,190495,6,0,B|208:73|175:69|175:69|138:79|138:79|67:81,1,190,8|0,0:0|0:0,0:0:0:0:
411,191,190772,2,0,B|411:123|415:90|415:90|404:53|404:53|403:-18,1,190
316,335,191050,2,0,B|384:335|417:339|417:339|453:328|453:328|525:327,1,190,8|0,0:0|0:0,0:0:0:0:
186,192,191328,2,0,B|186:260|182:293|182:293|192:329|192:329|194:401,1,190
166,36,191605,5,8,0:0:0:0:
120,375,191744,1,0,0:0:0:0:
288,76,191884,1,0,0:0:0:0:
16,283,192023,1,0,0:0:0:0:
347,197,192162,1,8,0:0:0:0:
8,151,192300,1,0,0:0:0:0:
300,328,192439,1,0,0:0:0:0:
92,55,192578,1,0,0:0:0:0:
182,382,192716,5,8,0:0:0:0:
92,55,192855,1,0,0:0:0:0:
300,328,192994,1,0,0:0:0:0:
8,151,193133,1,0,0:0:0:0:
347,197,193272,1,8,0:0:0:0:
16,283,193410,1,0,0:0:0:0:
288,76,193549,1,0,0:0:0:0:
120,375,193688,1,0,0:0:0:0:
288,76,193827,6,0,P|383:59|267:153,1,380,12|0,0:0|0:0,0:0:0:0:
2,19,194244,1,0,0:0:0:0:
199,295,194383,2,0,B|359:319|493:301|493:301|389:252,1,380,8|0,0:0|0:0,0:0:0:0:
117,93,194799,1,0,0:0:0:0:
458,117,194938,6,0,B|461:229|461:229|445:307,1,190,8|0,0:0|0:0,0:0:0:0:
120,189,195216,2,0,B|104:112|104:112|107:0,1,190
236,320,195494,2,0,B|159:335|159:335|47:332,1,190,8|0,0:0|0:0,0:0:0:0:
360,193,195771,2,0,B|375:269|375:269|372:381,1,190
316,42,196050,5,8,0:0:0:0:
279,382,196189,1,0,0:0:0:0:
507,127,196327,1,0,0:0:0:0:
171,196,196466,1,0,0:0:0:0:
485,335,196605,1,8,0:0:0:0:
171,196,196744,1,0,0:0:0:0:
507,127,196883,1,0,0:0:0:0:
279,382,197021,1,0,0:0:0:0:
316,42,197160,5,8,0:0:0:0:
88,297,197299,1,0,0:0:0:0:
424,228,197438,1,0,0:0:0:0:
110,89,197576,1,0,0:0:0:0:
279,382,197715,1,8,0:0:0:0:
110,89,197854,1,0,0:0:0:0:
424,228,197993,1,0,0:0:0:0:
312,176,198167,2,0,P|277:164|208:176,1,104.999996795654
424,228,198604,5,0,0:0:0:0:
249,59,198917,5,0,0:0:0:0:
249,59,198995,1,0,0:0:0:0:
249,59,199072,6,0,P|239:140|256:232,2,126.666663284302
376,227,199542,6,0,P|349:293|181:358,1,253.333326568604
121,131,200011,1,0,0:0:0:0:
26,344,200167,1,0,0:0:0:0:
251,284,200323,1,0,0:0:0:0:
26,213,200480,1,0,0:0:0:0:
209,67,200636,1,0,0:0:0:0:
117,282,200792,1,0,0:0:0:0:
117,282,200870,1,0,0:0:0:0:
117,282,200948,6,0,P|209:286|281:261,2,126.666663284302
336,113,201417,6,0,L|396:371,1,253.333326568604
220,172,201886,1,0,0:0:0:0:
452,145,202042,1,0,0:0:0:0:
312,334,202199,1,0,0:0:0:0:
336,113,202355,1,0,0:0:0:0:
86,84,202745,6,0,L|73:197,1,63.3333316421509
187,18,202980,1,0,0:0:0:0:
232,180,203136,1,0,0:0:0:0:
373,0,203292,1,0,0:0:0:0:
81,87,203761,5,0,0:0:0:0:
153,281,203917,1,0,0:0:0:0:
231,87,204074,1,0,0:0:0:0:
51,191,204230,1,0,0:0:0:0:
240,275,204386,1,0,0:0:0:0:
156,84,204542,1,0,0:0:0:0:
76,277,204699,1,0,0:0:0:0:
264,190,204855,1,0,0:0:0:0:
76,277,205011,1,0,0:0:0:0:
263,365,205167,1,0,0:0:0:0:
338,150,205636,6,0,P|338:275|331:319,1,126.666663284302
155,112,205949,1,0,0:0:0:0:
83,367,206105,1,0,0:0:0:0:
242,51,206418,6,0,L|333:53,1,63.3333316421509
398,29,206574,2,0,P|388:120|403:190,1,126.666663284302
506,40,206886,1,0,0:0:0:0:
255,227,207043,2,0,B|205:294|108:309|108:309|49:249|13:234,1,253.333326568604
329,126,207511,6,0,P|365:205|371:255,2,126.666663284302
149,158,207980,2,0,P|75:147|3:107,2,126.666663284302
133,19,208449,1,0,0:0:0:0:
220,207,208605,2,0,B|214:280|218:310|218:310|197:363,2,126.666663284302
282,91,209387,5,0,0:0:0:0:
376,266,209543,1,0,0:0:0:0:
203,120,209699,1,0,0:0:0:0:
458,242,209855,1,0,0:0:0:0:
186,232,210246,5,0,0:0:0:0:
186,232,210324,2,0,L|187:379,2,126.666663284302
78,123,210793,2,0,P|81:274|72:405,1,253.333326568604
203,120,211262,6,0,B|165:66|165:66|84:23,1,126.666663284302
284,23,211574,1,0,0:0:0:0:
78,123,211730,2,0,P|74:205|76:288,2,126.666663284302
92,86,212121,1,0,0:0:0:0:
112,52,212199,2,0,P|205:26|272:27,2,126.666663284302
268,216,212668,6,0,P|357:174|425:24,1,253.333326568604
268,216,213137,1,0,0:0:0:0:
194,8,213293,1,0,0:0:0:0:
97,206,213449,1,0,0:0:0:0:
194,8,213606,1,0,0:0:0:0:
55,108,213996,6,0,P|31:41|30:34,1,63.3333316421509
182,92,214231,1,0,0:0:0:0:
116,233,214387,1,0,0:0:0:0:
300,138,214543,1,0,0:0:0:0:
207,341,215012,6,0,P|98:344|23:328,2,126.666663284302
124,148,215481,1,0,0:0:0:0:
311,237,215637,1,0,0:0:0:0:
282,31,215793,1,0,0:0:0:0:
207,226,215950,1,0,0:0:0:0:
409,180,216106,1,0,0:0:0:0:
208,125,216262,1,0,0:0:0:0:
425,266,216418,1,0,0:0:0:0:
180,57,216887,6,0,P|180:148|187:187,2,126.666663284302
141,315,217356,1,0,0:0:0:0:
361,109,217747,6,0,L|364:210,1,63.3333316421509
104,151,217981,1,0,0:0:0:0:
328,20,218137,1,0,0:0:0:0:
302,278,218293,1,0,0:0:0:0:
194,39,218450,1,0,0:0:0:0:
104,282,218606,1,0,0:0:0:0:
344,183,218762,5,0,0:0:0:0:
110,69,218918,1,0,0:0:0:0:
216,307,219075,1,0,0:0:0:0:
366,95,219231,1,0,0:0:0:0:
104,151,219387,1,0,0:0:0:0:
322,312,219544,2,0,L|288:226,1,63.3333316421509
248,160,219700,6,0,P|139:164|75:156,2,126.666663284302
366,95,220169,2,0,P|475:99|539:91,2,126.666663284302
250,74,220637,5,0,0:0:0:0:
134,51,220794,1,0,0:0:0:0:
22,16,220950,2,0,L|48:120,1,63.3333316421509
64,172,221106,5,0,0:0:0:0:
169,8,221262,1,0,0:0:0:0:
216,198,221419,1,0,0:0:0:0:
52,70,221575,1,0,0:0:0:0:
257,37,221731,1,0,0:0:0:0:
136,237,221887,1,0,0:0:0:0:
59,14,222044,5,0,0:0:0:0:
281,148,222200,1,0,0:0:0:0:
42,249,222356,1,0,0:0:0:0:
169,8,222512,1,0,0:0:0:0:
224,275,222669,1,0,0:0:0:0:
29,125,222825,1,0,0:0:0:0:
257,37,222981,6,0,P|352:43|400:51,2,126.666663284302
154,277,223450,2,0,P|89:285|24:288,2,126.666663284302
119,44,223919,5,0,0:0:0:0:
250,237,224075,1,0,0:0:0:0:
21,189,224231,1,0,0:0:0:0:
237,97,224388,1,0,0:0:0:0:
148,313,224544,1,0,0:0:0:0:
119,44,224700,1,0,0:0:0:0:
285,272,224856,6,0,B|356:339|356:339|416:367,1,126.666663284302
394,143,225169,1,0,0:0:0:0:
214,248,225325,2,0,P|125:246|35:225,1,126.666663284302
231,90,225638,1,0,0:0:0:0:
357,254,225794,2,0,P|359:351|349:391,1,126.666663284302
252,142,226106,1,0,0:0:0:0:
467,289,226263,1,0,0:0:0:0:
214,347,226419,1,0,0:0:0:0:
394,143,226575,1,0,0:0:0:0:
123,337,226732,6,0,P|74:329|119:312,12,126.666663284302
184,72,229075,5,0,0:0:0:0:
184,65,229153,1,0,0:0:0:0:
184,59,229231,1,0,0:0:0:0:
184,52,229309,1,0,0:0:0:0:
184,46,229387,1,0,0:0:0:0:
184,39,229465,1,0,0:0:0:0:
184,33,229542,5,0,0:0:0:0:
282,369,229700,1,0,0:0:0:0:
341,28,229856,1,0,0:0:0:0:
173,335,230012,1,0,0:0:0:0:
446,130,230168,1,0,0:0:0:0:
110,228,230325,1,0,0:0:0:0:
450,273,230480,5,0,0:0:0:0:
143,105,230637,1,0,0:0:0:0:
359,368,230793,1,0,0:0:0:0:
260,32,230951,1,0,0:0:0:0:
359,368,231106,1,0,0:0:0:0:
143,105,231262,1,0,0:0:0:0:
450,273,231418,5,0,0:0:0:0:
110,228,231575,1,0,0:0:0:0:
446,130,231731,1,0,0:0:0:0:
173,335,231887,1,0,0:0:0:0:
341,28,232043,1,0,0:0:0:0:
9,384,232200,1,0,0:0:0:0:
94,79,232825,6,0,B|81:136|98:174|98:174|92:197|92:197|98:215|94:246|94:246|97:283,2,173.333333333333
438,131,233294,5,0,0:0:0:0:
162,340,233450,1,0,0:0:0:0:
175,0,233606,1,0,0:0:0:0:
395,269,233763,1,0,0:0:0:0:
50,232,233919,1,0,0:0:0:0:
311,5,234075,1,0,0:0:0:0:
316,353,234232,5,0,0:0:0:0:
68,111,234388,1,0,0:0:0:0:
413,120,234544,1,0,0:0:0:0:
68,111,234700,1,0,0:0:0:0:
316,353,234857,1,0,0:0:0:0:
311,5,235013,1,0,0:0:0:0:
50,232,235169,5,0,0:0:0:0:
379,124,235325,1,0,0:0:0:0:
33,100,235481,1,0,0:0:0:0:
339,266,235638,1,0,0:0:0:0:
111,4,235794,1,0,0:0:0:0:
409,384,235950,1,0,0:0:0:0:
292,225,236576,5,0,0:0:0:0:
301,228,236654,1,0,0:0:0:0:
309,230,236732,1,0,0:0:0:0:
317,231,236810,1,0,0:0:0:0:
326,231,236888,1,0,0:0:0:0:
335,229,236966,1,0,0:0:0:0:
346,228,237044,5,0,0:0:0:0:
32,51,237199,1,0,0:0:0:0:
188,375,237356,1,0,0:0:0:0:
333,47,237512,1,0,0:0:0:0:
18,216,237668,1,0,0:0:0:0:
357,333,237824,1,0,0:0:0:0:
18,216,237981,5,0,0:0:0:0:
333,47,238137,1,0,0:0:0:0:
188,375,238293,1,0,0:0:0:0:
32,51,238450,1,0,0:0:0:0:
361,193,238606,1,0,0:0:0:0:
34,337,238762,1,0,0:0:0:0:
361,193,238918,5,0,0:0:0:0:
32,51,239075,1,0,0:0:0:0:
188,375,239231,1,0,0:0:0:0:
333,47,239387,1,0,0:0:0:0:
188,375,239543,1,0,0:0:0:0:
511,0,239700,1,0,0:0:0:0:
147,53,240325,6,0,B|149:108|149:108|144:155|144:155|153:198|138:250,2,173.333333333333
273,377,240794,5,0,0:0:0:0:
368,44,240950,1,0,0:0:0:0:
71,226,241107,1,0,0:0:0:0:
416,236,241263,1,0,0:0:0:0:
134,34,241419,1,0,0:0:0:0:
416,236,241575,1,0,0:0:0:0:
71,226,241732,5,0,0:0:0:0:
368,44,241888,1,0,0:0:0:0:
273,377,242044,1,0,0:0:0:0:
134,34,242200,1,0,0:0:0:0:
416,236,242357,1,0,0:0:0:0:
71,226,242513,1,0,0:0:0:0:
416,236,242669,5,0,0:0:0:0:
134,34,242825,1,0,0:0:0:0:
273,377,242982,1,0,0:0:0:0:
368,44,243138,1,0,0:0:0:0:
71,226,243294,1,0,0:0:0:0:
505,4,243451,1,0,0:0:0:0:
130,51,244076,5,0,0:0:0:0:
366,18,244545,5,0,0:0:0:0:
292,369,244701,1,0,0:0:0:0:
71,94,244857,1,0,0:0:0:0:
426,155,245014,1,0,0:0:0:0:
131,360,245170,1,0,0:0:0:0:
181,6,245326,1,0,0:0:0:0:
421,274,245483,5,0,0:0:0:0:
63,254,245639,1,0,0:0:0:0:
338,27,245795,1,0,0:0:0:0:
63,254,245951,1,0,0:0:0:0:
421,274,246108,1,0,0:0:0:0:
181,6,246264,1,0,0:0:0:0:
131,360,246420,5,0,0:0:0:0:
315,53,246576,1,0,0:0:0:0:
29,269,246732,1,0,0:0:0:0:
380,190,246889,1,0,0:0:0:0:
23,141,247045,1,0,0:0:0:0:
509,271,247201,1,0,0:0:0:0:
180,169,247826,6,0,B|173:117|173:117|189:42|209:-3,2,173.333333333333
487,4,248295,5,0,0:0:0:0:
377,332,248451,1,0,0:0:0:0:
275,1,248607,1,0,0:0:0:0:
165,329,248763,1,0,0:0:0:0:
463,150,248920,1,0,0:0:0:0:
117,136,249076,1,0,0:0:0:0:
363,378,249232,5,0,0:0:0:0:
284,38,249389,1,0,0:0:0:0:
127,346,249545,1,0,0:0:0:0:
284,38,249701,1,0,0:0:0:0:
363,378,249857,1,0,0:0:0:0:
117,136,250014,1,0,0:0:0:0:
463,150,250170,5,0,0:0:0:0:
117,136,250326,1,0,0:0:0:0:
363,378,250483,1,0,0:0:0:0:
284,38,250639,1,0,0:0:0:0:
127,346,250795,1,0,0:0:0:0:
464,0,250951,1,0,0:0:0:0:
136,101,251576,5,0,0:0:0:0:
137,92,251654,1,0,0:0:0:0:
138,83,251732,1,0,0:0:0:0:
139,75,251810,1,0,0:0:0:0:
140,66,251888,1,0,0:0:0:0:
141,58,251966,1,0,0:0:0:0:
143,50,252044,5,0,0:0:0:0:
233,381,252201,1,0,0:0:0:0:
360,50,252357,1,0,0:0:0:0:
75,264,252514,1,0,0:0:0:0:
429,274,252670,1,0,0:0:0:0:
178,24,252826,1,0,0:0:0:0:
149,379,252983,5,0,0:0:0:0:
410,139,253139,1,0,0:0:0:0:
56,148,253295,1,0,0:0:0:0:
335,366,253451,1,0,0:0:0:0:
265,15,253608,1,0,0:0:0:0:
137,345,253764,1,0,0:0:0:0:
265,15,253920,5,0,0:0:0:0:
335,366,254076,1,0,0:0:0:0:
56,148,254233,1,0,0:0:0:0:
410,139,254389,1,0,0:0:0:0:
131,357,254545,1,0,0:0:0:0:
474,19,254701,1,0,0:0:0:0:
157,47,255326,6,0,B|166:89|163:127|163:127|152:166|153:220,2,173.333333333333
273,372,255794,5,0,0:0:0:0:
356,19,255951,1,0,0:0:0:0:
149,313,256107,1,0,0:0:0:0:
456,123,256264,1,0,0:0:0:0:
105,193,256419,1,0,0:0:0:0:
456,275,256576,1,0,0:0:0:0:
158,72,256732,5,0,0:0:0:0:
349,381,256889,1,0,0:0:0:0:
271,28,257045,1,0,0:0:0:0:
188,380,257202,1,0,0:0:0:0:
388,83,257357,1,0,0:0:0:0:
82,272,257514,1,0,0:0:0:0:
508,3,257670,5,0,0:0:0:0:
357,168,257983,6,0,B|357:221|357:221|351:258|351:258|361:298|361:298|360:353,1,173.333333333333
499,20,258295,1,0,0:0:0:0:
176,384,258452,1,0,0:0:0:0:
408,80,259078,5,0,0:0:0:0:
408,80,259234,1,0,0:0:0:0:
216,40,259545,5,0,0:0:0:0:
264,240,259858,5,0,0:0:0:0:
144,112,260014,1,0,0:0:0:0:
184,336,260170,1,0,0:0:0:0:
408,80,260483,5,0,0:0:0:0:
213,6,260639,1,0,0:0:0:0:
408,80,260796,1,0,0:0:0:0:
245,209,260952,2,0,L|291:53,1,126.666663284302
346,281,261264,5,0,0:0:0:0:
152,201,261421,2,0,L|188:325,1,126.666663284302
65,158,261733,1,0,0:0:0:0:
259,86,261889,2,0,B|320:88|320:88|382:99|382:99|443:89,1,126.666663284302
284,279,262202,1,0,0:0:0:0:
170,105,262358,2,0,P|164:193|179:261,1,126.666663284302
353,132,262671,1,0,0:0:0:0:
347,339,262827,6,0,P|275:352|199:336,1,126.666663284302
254,138,263139,1,0,0:0:0:0:
416,269,263296,2,0,B|425:191|425:191|420:124,1,126.666663284302
235,231,263609,1,0,0:0:0:0:
310,37,263765,2,0,B|306:88|306:88|315:166,1,126.666663284302
167,18,264078,1,0,0:0:0:0:
129,222,264233,2,0,P|65:232|1:221,1,126.666663284302
85,30,264546,1,0,0:0:0:0:
217,189,264702,6,0,L|229:324,2,126.666663284302
121,374,265171,5,0,0:0:0:0:
296,262,265327,1,0,0:0:0:0:
121,374,265483,1,0,0:0:0:0:
217,189,265640,2,0,B|216:152|216:152|223:124|223:124|218:94|215:49,2,126.666663284302
279,135,266577,6,0,B|175:141|175:141|129:130,1,126.666663284302
313,5,266890,1,0,0:0:0:0:
354,208,267046,2,0,P|358:84|356:63,1,126.666663284302
208,223,267358,1,0,0:0:0:0:
409,276,267515,2,0,B|335:282|335:282|275:271,1,126.666663284302
89,190,267827,1,0,0:0:0:0:
197,368,267984,2,0,B|201:292|201:292|192:201,1,126.666663284302
144,37,268296,1,0,0:0:0:0:
297,176,268452,6,0,P|215:184|142:166,1,126.666663284302
287,3,268765,1,0,0:0:0:0:
409,170,268921,2,0,B|415:262|415:262|407:331,1,126.666663284302
353,98,269234,1,0,0:0:0:0:
493,251,269390,1,0,0:0:0:0:
353,98,269546,1,0,0:0:0:0:
493,251,269702,1,0,0:0:0:0:
353,98,269859,6,0,P|259:94|196:103,1,126.666663284302
407,194,270171,1,0,0:0:0:0:
223,286,270327,2,0,P|288:290|353:286,1,126.666663284302
165,194,270640,1,0,0:0:0:0:
353,98,270796,6,0,P|259:94|196:103,1,126.666663284302
412,8,271109,1,0,0:0:0:0:
400,215,271265,2,0,B|396:290|396:290|380:359,1,126.666663284302
289,156,271578,1,0,0:0:0:0:
207,346,271734,2,0,B|194:292|194:292|190:217,1,126.666663284302
160,11,272047,1,0,0:0:0:0:
316,149,272204,2,0,P|222:158|149:137,1,126.666663284302
337,8,272515,5,0,0:0:0:0:
358,214,272671,1,0,0:0:0:0:
451,26,272828,1,0,0:0:0:0:
253,90,272984,1,0,0:0:0:0:
451,149,273140,1,0,0:0:0:0:
256,224,273296,1,0,0:0:0:0:
451,149,273453,1,0,0:0:0:0:
179,191,273609,1,0,0:0:0:0:
179,191,273758,6,0,P|101:210|14:157,1,166.666666666667,8|0,0:0|0:0,0:0:0:0:
186,123,274163,2,0,P|208:45|297:-2,1,166.666666666667
241,163,274568,2,0,P|296:221|294:322,1,166.666666666667
136,323,274973,1,0,0:0:0:0:
202,271,275108,1,0,0:0:0:0:
34,272,275244,1,0,0:0:0:0:
100,220,275379,6,0,B|123:181|155:161|155:161|194:151|247:113,1,166.666666666667,8|0,0:0|0:0,0:0:0:0:
380,50,275784,2,0,B|401:89|403:127|403:127|392:165|398:231,1,166.666666666667
387,377,276190,2,0,B|342:375|308:358|308:358|280:329|221:302,1,166.666666666667
133,181,276595,1,0,0:0:0:0:
130,347,276730,1,0,0:0:0:0:
18,223,276865,1,0,0:0:0:0:
181,252,277000,6,0,P|210:218|174:105,1,166.666666666667,8|0,0:0|0:0,0:0:0:0:
299,229,277406,2,0,P|333:258|446:222,1,166.666666666667
370,33,277811,2,0,P|333:104|370:176,1,166.666666666667
262,47,278217,1,0,0:0:0:0:
418,106,278352,1,0,0:0:0:0:
257,149,278487,1,0,0:0:0:0:
96,106,278622,6,0,P|80:188|121:271,1,166.666666666667,8|0,0:0|0:0,0:0:0:0:
401,261,279027,2,0,P|434:186|418:106,1,166.666666666667
221,258,279433,2,0,B|256:333|256:333|296:244,1,166.666666666667
291,126,279838,2,0,B|256:51|256:51|216:140,1,166.666666666667
133,303,280244,6,0,L|172:383,1,83.3333333333333,8|0,0:0|0:0,0:0:0:0:
147,212,280514,1,0,0:0:0:0:
66,357,280649,2,0,P|39:296|68:175,1,166.666666666667
215,98,281054,2,0,P|154:109|119:99,1,83.3333333333333
270,6,281325,2,0,B|302:45|302:45|300:167,1,166.666666666667
255,321,281730,1,0,0:0:0:0:
436,192,281865,6,0,P|384:239|276:235,1,166.666666666667,8|0,0:0|0:0,0:0:0:0:
76,192,282271,2,0,P|128:239|236:235,1,166.666666666667
179,60,282676,2,0,L|164:159,1,83.3333333333333
256,2,282946,6,0,P|178:39|12:-4,1,250
76,192,283487,6,0,P|106:280|76:371,1,166.666666666667,8|0,0:0|0:0,0:0:0:0:
180,210,283892,1,0,0:0:0:0:
255,358,284027,1,0,0:0:0:0:
332,210,284163,1,0,0:0:0:0:
422,349,284298,2,0,P|406:268|436:192,1,166.666666666667
335,59,284703,2,0,P|256:81|176:59,1,166.666666666667
75,191,285108,2,0,P|105:268|89:349,1,166.666666666667,8|0,0:0|0:0,0:0:0:0:
1,280,285514,5,0,0:0:0:0:
180,193,286730,6,0,B|209:293|209:293|276:370,1,200.000007629395,12|0,0:0|0:0,0:0:0:0:
283,164,287136,2,0,B|181:139|181:139|81:158,1,200.000007629395
256,267,287541,2,0,B|328:191|328:191|361:95,1,200.000007629395,8|0,0:0|0:0,0:0:0:0:
163,61,287947,5,0,0:0:0:0:
138,61,288014,1,0,0:0:0:0:
120,78,288082,1,0,0:0:0:0:
117,102,288149,1,0,0:0:0:0:
132,122,288217,1,0,0:0:0:0:
155,128,288285,1,0,0:0:0:0:
177,116,288352,6,0,P|266:86|382:129,1,200.000007629395,8|0,0:0|0:0,0:0:0:0:
271,319,288757,2,0,B|271:198|271:198|313:282,1,200.000007629395
118,341,289163,2,0,L|117:134,1,200.000007629395,8|0,0:0|0:0,0:0:0:0:
264,6,289568,1,0,0:0:0:0:
70,56,289703,1,0,0:0:0:0:
262,108,289838,1,0,0:0:0:0:
10,6,289973,6,0,B|34:41|69:55|69:55|133:50|202:61,1,200.000007629395,8|0,0:0|0:0,0:0:0:0:
358,171,290379,2,0,B|333:206|299:220|299:220|234:215|166:226,1,200.000007629395
445,101,290784,2,0,P|470:166|390:280,1,200.000007629395,8|0,0:0|0:0,0:0:0:0:
207,272,291190,5,0,0:0:0:0:
183,264,291257,1,0,0:0:0:0:
162,251,291325,1,0,0:0:0:0:
145,233,291392,1,0,0:0:0:0:
132,212,291460,1,0,0:0:0:0:
125,188,291527,1,0,0:0:0:0:
124,163,291595,6,0,B|172:133|186:84|186:84|232:84|289:40,1,200.000007629395,8|0,0:0|0:0,0:0:0:0:
469,4,292000,2,0,B|470:60|506:97|506:97|483:137|493:208,1,200.000007629395
434,382,292406,2,0,B|384:355|334:367|334:367|311:327|244:300,1,200.000007629395,8|0,0:0|0:0,0:0:0:0:
98,190,292811,1,0,0:0:0:0:
163,378,292946,1,0,0:0:0:0:
237,192,293081,1,0,0:0:0:0:
37,314,293217,6,0,B|99:304|124:284|124:284|168:276|234:288,1,200.000007629395,8|0,0:0|0:0,0:0:0:0:
430,218,293622,2,0,B|367:208|343:188|343:188|298:180|233:192,1,200.000007629395
66,85,294027,1,8,0:0:0:0:
181,249,294163,1,0,0:0:0:0:
167,49,294298,2,0,P|167:122|34:188,1,200.000007629395
4,4,294703,1,0,0:0:0:0:
255,29,294838,6,0,B|257:97|257:97|314:241,1,200.000007629395,8|0,0:0|0:0,0:0:0:0:
492,146,295244,2,0,B|490:214|490:214|433:358,1,200.000007629395
380,146,295649,2,0,B|372:94|372:94|381:19,1,100.000003814697,8|0,0:0|0:0,0:0:0:0:
297,229,295919,2,0,P|253:263|224:156,1,200.000007629395
342,16,296325,1,0,0:0:0:0:
105,134,296460,6,0,P|87:205|141:325,1,200.000007629395,8|0,0:0|0:0,0:0:0:0:
407,134,296865,2,0,P|425:205|371:325,1,200.000007629395
164,70,297271,2,0,P|230:40|358:73,1,200.000007629395,8|0,0:0|0:0,0:0:0:0:
256,200,297676,2,0,L|256:308,2,100.000003814697
164,70,298081,5,0,0:0:0:0:
256,200,298487,5,0,0:0:0:0:
348,70,298892,6,0,L|348:277,1,200.000007629395,2|0,0:0|0:0,0:0:0:0:
204,97,302946,5,12,0:0:0:0:
220,282,303081,1,0,0:0:0:0:
204,97,303217,1,0,0:0:0:0:
310,281,303352,2,0,P|248:195|128:281,1,266.666666666667
315,367,303757,5,8,0:0:0:0:
130,262,303892,1,0,0:0:0:0:
331,191,304027,1,0,0:0:0:0:
167,368,304163,2,0,B|140:322|134:266|134:266|156:197|159:94,1,266.666666666667
254,358,304568,5,8,0:0:0:0:
158,109,304703,1,0,0:0:0:0:
65,358,304838,1,0,0:0:0:0:
298,183,304973,2,0,P|229:255|44:220,1,266.666666666667
388,51,305379,2,0,B|396:133|371:183|371:183|394:236|388:350,1,266.666666666667,8|0,0:0|0:0,0:0:0:0:
257,53,305784,5,0,0:0:0:0:
389,312,305919,1,0,0:0:0:0:
127,191,306054,1,0,0:0:0:0:
395,185,306190,5,8,0:0:0:0:
181,344,306325,1,0,0:0:0:0:
256,88,306460,1,0,0:0:0:0:
256,287,306595,1,0,0:0:0:0:
351,111,306730,1,0,0:0:0:0:
256,287,306865,1,0,0:0:0:0:
322,29,307000,5,8,0:0:0:0:
418,279,307136,1,0,0:0:0:0:
193,135,307271,1,0,0:0:0:0:
380,204,307406,1,0,0:0:0:0:
186,254,307541,1,0,0:0:0:0:
380,204,307676,1,0,0:0:0:0:
113,193,307811,5,8,0:0:0:0:
353,307,307946,1,0,0:0:0:0:
195,92,308081,1,0,0:0:0:0:
216,357,308216,1,0,0:0:0:0:
324,111,308352,1,0,0:0:0:0:
105,261,308487,1,0,0:0:0:0:
369,233,308622,6,0,P|429:163|426:27,1,200,8|0,0:0|0:0,0:0:0:0:
324,111,308892,6,0,L|113:111,1,200
5,59,309163,6,0,P|11:157|73:233,1,200
105,261,309433,5,8,0:0:0:0:
172,87,309568,1,0,0:0:0:0:
224,265,309703,1,0,0:0:0:0:
246,53,309838,2,0,P|265:131|431:171,1,266.666666666667
298,1,310244,5,8,0:0:0:0:
202,191,310379,1,0,0:0:0:0:
390,91,310514,1,0,0:0:0:0:
224,265,310649,2,0,P|147:244|216:115,1,266.666666666667
324,352,311054,5,8,0:0:0:0:
272,88,311190,1,0,0:0:0:0:
474,260,311325,1,0,0:0:0:0:
180,237,311460,2,0,B|111:161|150:30|150:30|164:86,1,266.666666666667
332,237,311865,2,0,B|401:161|362:30|362:30|348:86,1,266.666666666667,8|0,0:0|0:0,0:0:0:0:
255,253,312271,5,0,0:0:0:0:
255,53,312406,1,0,0:0:0:0:
255,253,312541,1,0,0:0:0:0:
400,0,312676,5,8,0:0:0:0:
147,149,312811,1,0,0:0:0:0:
400,0,312946,1,0,0:0:0:0:
48,118,313081,2,0,B|94:141|146:147|146:147|230:128|316:134,1,266.666666666667
34,27,313487,5,8,0:0:0:0:
164,291,313622,1,0,0:0:0:0:
215,3,313757,1,0,0:0:0:0:
5,207,313892,1,0,0:0:0:0:
294,164,314027,1,0,0:0:0:0:
5,207,314163,1,0,0:0:0:0:
356,80,314298,1,8,0:0:0:0:
256,63,314703,5,0,0:0:0:0:
256,63,314839,2,0,B|264:88|264:88|256:96|256:96|264:104|264:104|256:112|256:112|264:120|264:120|256:128|256:128|264:136|264:136|256:144|256:144|264:152|264:152|256:160|256:160|256:200,1,133.333333333333
347,17,315109,1,0,0:0:0:0:
348,112,315379,1,0,0:0:0:0:
348,112,315514,2,0,P|333:180|387:106,1,266.666666666667
216,33,315919,5,12,0:0:0:0:
255,215,316054,1,0,0:0:0:0:
216,33,316190,1,0,0:0:0:0:
176,242,316325,2,0,P|257:300|316:158,1,266.666666666667
122,165,316730,5,8,0:0:0:0:
334,187,316865,1,0,0:0:0:0:
174,45,317000,1,0,0:0:0:0:
235,278,317136,2,0,B|260:213|254:140|254:140|307:102|307:102|348:32,1,266.666666666667
382,312,317541,5,8,0:0:0:0:
142,196,317676,1,0,0:0:0:0:
401,136,317811,1,0,0:0:0:0:
197,348,317946,2,0,B|63:361|63:361|187:290,1,266.666666666667
401,259,318352,2,0,B|515:324|515:324|381:311,1,266.666666666667,8|0,0:0|0:0,0:0:0:0:
141,147,318757,5,0,0:0:0:0:
381,311,318892,1,0,0:0:0:0:
257,53,319027,1,0,0:0:0:0:
255,321,319163,5,8,0:0:0:0:
257,53,319298,1,0,0:0:0:0:
255,321,319433,1,0,0:0:0:0:
193,130,319568,1,0,0:0:0:0:
365,231,319703,1,0,0:0:0:0:
193,130,319838,1,0,0:0:0:0:
353,342,319973,5,8,0:0:0:0:
342,75,320108,1,0,0:0:0:0:
353,342,320244,1,0,0:0:0:0:
407,149,320379,1,0,0:0:0:0:
261,285,320514,1,0,0:0:0:0:
407,149,320649,1,0,0:0:0:0:
143,131,320784,5,8,0:0:0:0:
343,294,320919,1,0,0:0:0:0:
277,44,321055,1,0,0:0:0:0:
184,286,321190,1,0,0:0:0:0:
401,144,321325,1,0,0:0:0:0:
143,131,321460,1,0,0:0:0:0:
343,294,321595,6,0,B|437:253|437:253|506:164,1,200,8|0,0:0|0:0,0:0:0:0:
401,144,321865,6,0,P|309:184|178:142,1,200
143,131,322136,6,0,B|202:208|202:208|296:249,1,200
328,256,322406,5,8,0:0:0:0:
256,83,322541,1,0,0:0:0:0:
184,256,322676,1,0,0:0:0:0:
332,103,322811,5,0,0:0:0:0:
254,301,322946,1,0,0:0:0:0:
180,103,323081,1,0,0:0:0:0:
338,285,323217,5,8,0:0:0:0:
258,58,323352,1,0,0:0:0:0:
174,285,323487,1,0,0:0:0:0:
338,75,323622,5,0,0:0:0:0:
256,328,323757,1,0,0:0:0:0:
174,75,323892,1,0,0:0:0:0:
327,327,324027,5,8,0:0:0:0:
254,40,324163,1,0,0:0:0:0:
185,327,324298,1,0,0:0:0:0:
365,57,324433,5,0,0:0:0:0:
257,367,324568,1,0,0:0:0:0:
146,57,324703,1,0,0:0:0:0:
425,270,324838,5,8,0:0:0:0:
88,195,324973,1,0,0:0:0:0:
425,114,325108,1,0,0:0:0:0:
113,270,325244,5,0,0:0:0:0:
450,195,325379,1,0,0:0:0:0:
113,114,325514,1,0,0:0:0:0:
436,300,325649,5,8,0:0:0:0:
163,46,325784,1,0,0:0:0:0:
357,364,325919,1,0,0:0:0:0:
247,7,326054,1,0,0:0:0:0:
256,384,326190,1,0,0:0:0:0:
339,19,326325,1,0,0:0:0:0:
161,349,326460,1,8,0:0:0:0:
415,74,326595,1,0,0:0:0:0:
100,271,326730,1,0,0:0:0:0:
457,159,326865,1,0,0:0:0:0:
84,174,327000,1,0,0:0:0:0:
449,255,327135,1,0,0:0:0:0:
96,90,327271,6,0,B|114:37|114:37|141:3|261:8|261:8|214:55|214:55|197:53|197:53|195:71|195:71|209:79|209:79|194:89|194:89|202:106|202:106|188:114|188:114|198:129|198:129|183:138|183:138|192:154|192:154|181:156|181:156|188:160|188:160|177:163|177:163|184:167|184:167|173:170|173:170|180:174|180:174|169:177|169:177|176:181|176:181|165:184|165:184|172:188|172:188|165:191|165:191|170:195|170:195|159:208|176:248,1,575.00002193451,2|0,0:0|0:0,0:0:0:0:
213,289,328892,5,12,0:0:0:0:
293,91,329027,1,0,0:0:0:0:
362,294,329163,1,0,0:0:0:0:
164,157,329298,2,0,P|250:230|426:149,1,266.666666666667
217,32,329703,5,8,0:0:0:0:
152,262,329838,1,0,0:0:0:0:
350,127,329973,1,0,0:0:0:0:
83,141,330108,2,0,B|118:156|163:157|163:157|239:206|308:281,1,266.666666666667
133,35,330514,5,8,0:0:0:0:
137,328,330649,1,0,0:0:0:0:
306,88,330784,1,0,0:0:0:0:
11,210,330919,2,0,B|106:215|171:199|171:199|212:229|212:229|325:263,1,266.666666666667
19,353,331325,5,8,0:0:0:0:
94,97,331460,1,0,0:0:0:0:
184,347,331595,1,0,0:0:0:0:
36,47,331730,2,0,B|96:98|96:98|290:99,1,266.666666666667
506,0,332136,5,8,0:0:0:0:
322,32,332271,1,0,0:0:0:0:
471,127,332406,1,0,0:0:0:0:
245,45,332541,5,0,0:0:0:0:
354,258,332676,1,0,0:0:0:0:
245,45,332811,1,0,0:0:0:0:
272,242,332946,5,8,0:0:0:0:
389,80,333081,1,0,0:0:0:0:
202,155,333217,1,0,0:0:0:0:
459,224,333352,5,0,0:0:0:0:
211,321,333487,1,0,0:0:0:0:
459,224,333622,1,0,0:0:0:0:
296,165,333757,5,8,0:0:0:0:
344,303,333892,1,0,0:0:0:0:
352,114,334027,1,0,0:0:0:0:
293,357,334163,1,0,0:0:0:0:
418,77,334298,1,0,0:0:0:0:
222,381,334433,1,0,0:0:0:0:
488,49,334568,6,0,B|489:115|489:115|432:280,1,200,8|0,0:0|0:0,0:0:0:0:
375,274,334838,6,0,B|314:271|280:253|280:253|245:274|133:280,1,200
106,262,335109,6,0,B|62:135|62:135|63:69,1,200
91,32,335379,5,8,0:0:0:0:
285,118,335514,1,0,0:0:0:0:
91,32,335649,1,0,0:0:0:0:
249,212,335784,2,0,P|330:208|333:30,1,266.666666666667
128,119,336190,5,8,0:0:0:0:
360,52,336325,1,0,0:0:0:0:
174,204,336460,1,0,0:0:0:0:
426,119,336595,2,0,P|337:142|303:-10,1,266.666666666667
500,208,337000,5,8,0:0:0:0:
290,4,337136,1,0,0:0:0:0:
376,281,337271,1,0,0:0:0:0:
290,4,337406,2,0,P|304:124|426:119,1,266.666666666667
172,36,337811,6,0,P|176:116|213:175,1,133.333333333333,8|0,0:0|0:0,0:0:0:0:
241,185,338014,1,0,0:0:0:0:
283,202,338081,1,0,0:0:0:0:
313,238,338149,1,0,0:0:0:0:
328,282,338217,1,0,0:0:0:0:
322,327,338284,1,0,0:0:0:0:
297,367,338352,2,0,P|221:374|156:338,1,133.333333333333
208,181,338622,5,8,0:0:0:0:
71,287,338757,1,0,0:0:0:0:
115,119,338892,1,0,0:0:0:0:
210,263,339027,1,0,0:0:0:0:
254,95,339162,1,0,0:0:0:0:
166,198,339298,1,0,0:0:0:0:
342,139,339433,5,8,0:0:0:0:
94,173,339568,1,0,0:0:0:0:
414,164,339703,1,0,0:0:0:0:
49,112,339839,1,0,0:0:0:0:
459,225,339974,1,0,0:0:0:0:
31,37,340109,1,0,0:0:0:0:
477,300,340244,1,8,0:0:0:0:
147,162,341866,6,0,P|212:212|277:186,1,133.333333333333
247,0,342271,2,0,L|220:131,1,133.333333333333
337,68,342676,2,0,B|320:136|320:136|338:205,1,133.333333333333,8|0,0:0|0:0,0:0:0:0:
442,276,343081,2,0,P|383:262|302:300,1,133.333333333333
185,316,343487,6,0,L|163:162,1,133.333333333333
266,96,343892,2,0,L|247:227,1,133.333333333333
173,115,344298,2,0,P|100:108|49:145,1,133.333333333333,8|0,0:0|0:0,0:0:0:0:
79,270,344703,1,0,0:0:0:0:
192,200,344838,1,0,0:0:0:0:
79,270,344973,1,0,0:0:0:0:
258,261,345108,6,0,B|275:197|275:197|256:123,1,133.333333333333
370,130,345514,2,0,B|353:195|353:195|370:259,1,133.333333333333
458,108,345919,2,0,P|416:50|335:46,1,133.333333333333,8|0,0:0|0:0,0:0:0:0:
224,39,346325,2,0,P|160:53|124:107,1,133.333333333333
140,145,346663,1,0,0:0:0:0:
156,181,346730,6,0,P|168:233|160:268,1,66.6666666666667
254,145,347000,1,0,0:0:0:0:
345,245,347136,2,0,P|345:212|398:110,1,133.333333333333
471,224,347541,2,0,P|504:281|510:347,1,133.333333333333,8|0,0:0|0:0,0:0:0:0:
378,334,347946,2,0,B|310:327|310:327|216:342,1,133.333333333333
116,300,348352,5,0,0:0:0:0:
185,140,348622,5,0,0:0:0:0:
197,272,348757,1,0,0:0:0:0:
339,170,349027,5,0,0:0:0:0:
219,231,349163,1,8,0:0:0:0:
256,63,349433,5,0,0:0:0:0:
376,124,349569,1,0,0:0:0:0:
185,140,349838,5,0,0:0:0:0:
185,140,349973,2,0,P|135:150|161:83,1,133.333333333333
373,86,350379,2,0,P|384:143|327:140,1,133.333333333333
255,2,350784,1,8,0:0:0:0:
266,17,351190,6,0,L|265:169,1,133.333333333333
250,198,351595,5,0,0:0:0:0:
125,93,351865,5,0,0:0:0:0:
138,225,352000,1,0,0:0:0:0:
263,66,352271,5,0,0:0:0:0:
250,198,352406,1,8,0:0:0:0:
416,138,352676,5,0,0:0:0:0:
282,134,352811,1,0,0:0:0:0:
421,27,353081,6,0,L|474:85,1,66.6666666666667
282,134,353487,6,0,L|229:192,1,66.6666666666667
122,90,354027,6,0,L|10:7,1,133.333333333333
363,160,354839,6,0,P|388:209|309:322,1,200.000007629395,8|0,0:0|0:0,0:0:0:0:
119,354,355244,2,0,P|64:351|5:226,1,200.000007629395
72,45,355649,2,0,P|101:-1|239:10,1,200.000007629395,8|0,0:0|0:0,0:0:0:0:
164,141,356055,6,0,L|163:201,5,50.0000019073487
171,101,356460,6,0,B|225:119|330:82|330:82|399:84,1,200.000007629395,8|0,0:0|0:0,0:0:0:0:
433,226,356865,2,0,B|379:244|274:207|274:207|205:209,1,200.000007629395
45,145,357271,5,8,0:0:0:0:
242,113,357406,1,0,0:0:0:0:
143,286,357541,1,0,0:0:0:0:
136,86,357676,1,0,0:0:0:0:
172,94,358081,6,0,B|158:167|158:167|182:298,1,200.000007629395,8|0,0:0|0:0,0:0:0:0:
340,94,358487,2,0,B|354:167|354:167|330:298,1,200.000007629395
255,15,358892,2,0,L|255:125,1,100.000003814697,8|0,0:0|0:0,0:0:0:0:
424,6,359163,1,0,0:0:0:0:
326,180,359298,2,0,P|263:210|206:198,1,100.000003814697
48,134,359568,1,0,0:0:0:0:
141,310,359703,6,0,B|150:269|150:269|161:232|161:232|143:189|149:102,1,200.000007629395,8|0,0:0|0:0,0:0:0:0:
363,114,360108,2,0,B|368:189|351:232|351:232|362:269|362:269|371:310,1,200.000007629395
228,91,360514,2,0,B|249:13|249:13|266:166,1,200.000007629395,8|0,0:0|0:0,0:0:0:0:
165,306,360919,2,0,P|93:317|51:301,1,100.000003814697
104,111,361190,1,0,0:0:0:0:
239,258,361325,6,0,P|311:267|252:199,1,200.000007629395,8|0,0:0|0:0,0:0:0:0:
78,254,361730,2,0,P|6:263|65:195,1,200.000007629395
228,91,362136,2,0,B|176:169|176:169|154:272,1,200.000007629395,8|0,0:0|0:0,0:0:0:0:
358,272,362541,2,0,B|336:169|336:169|284:91,1,200.000007629395
256,288,362946,1,8,0:0:0:0:
435,199,363081,1,0,0:0:0:0:
256,288,363217,1,0,0:0:0:0:
438,117,363352,6,0,P|369:87|229:212,1,250.000009536744
277,174,363757,2,0,P|191:91|74:117,1,250.000009536744,8|0,0:0|0:0,0:0:0:0:
66,160,364163,2,0,B|57:211|57:211|76:283|128:352,1,200.000007629395
261,200,364568,6,0,L|262:-6,1,200.000007629395,8|0,0:0|0:0,0:0:0:0:
406,138,364973,2,0,L|406:337,1,200.000007629395
105,337,365379,2,0,L|106:138,1,200.000007629395,8|0,0:0|0:0,0:0:0:0:
350,39,365784,2,0,P|282:66|154:29,1,200.000007629395
30,7,366190,2,0,B|52:104|52:104|39:222,1,200.000007629395,8|0,0:0|0:0,0:0:0:0:
130,25,366595,5,0,0:0:0:0:
147,48,367000,6,0,B|156:114|156:114|139:188|139:188|146:276,1,200.000007629395
256,192,367812,5,0,0:0:0:0:
