osu file format v14

[General]
AudioFilename: audio.mp3
AudioLeadIn: 0
PreviewTime: -1
Countdown: 1
SampleSet: Normal
StackLeniency: 0.7
Mode: 0
LetterboxInBreaks: 0
WidescreenStoryboard: 1

[Editor]
DistanceSpacing: 0.8
BeatDivisor: 4
GridSize: 8
TimelineZoom: 1

[Metadata]
Title:Top Gear Theme (Jessica)
TitleUnicode:Top Gear Theme (Jessica)
Artist:Top Gear
ArtistUnicode:Top Gear
Creator:rexdo206
Version:The grand tour
Source:
Tags:
BeatmapID:2106246
BeatmapSetID:1005947

[Difficulty]
HPDrainRate:6
CircleSize:4
OverallDifficulty:5
ApproachRate:8
SliderMultiplier:1.4
SliderTickRate:1

[Events]
//Background and Video events
//Break Periods
//Storyboard Layer 0 (Background)
//Storyboard Layer 1 (Fail)
//Storyboard Layer 2 (Pass)
//Storyboard Layer 3 (Foreground)
//Storyboard Sound Samples

[TimingPoints]
0,588.235294117647,4,1,0,100,1,0
100,-63.2911392405063,4,1,0,100,0,0

[HitObjects]
64,104,735,6,0,P|272:112|392:208,2,331.800008100586
48,152,2794,2,0,L|104:280,1,110.600002700195
160,152,3382,1,0,0:0:0:0:
264,152,3676,2,0,L|208:280,1,110.600002700195
240,272,4264,6,0,B|192:304|216:400|496:240|400:168|320:88|480:0,1,442.400010800782
456,24,5735,6,0,P|488:112|248:248,1,387.100009450684
248,256,7058,6,0,L|64:128,1,221.200005400391
256,192,7941,12,0,8529,0:0:0:0:
184,152,8970,6,0,L|264:168,13,55.3000013500977
176,216,11176,5,0,0:0:0:0:
184,216,11323,1,0,0:0:0:0:
176,216,11470,5,0,0:0:0:0:
184,216,11617,1,0,0:0:0:0:
176,216,11764,5,0,0:0:0:0:
184,216,11911,1,0,0:0:0:0:
176,216,12058,5,0,0:0:0:0:
184,216,12205,1,0,0:0:0:0:
256,216,12499,1,0,0:0:0:0:
336,216,12794,5,0,0:0:0:0:
328,216,12941,1,0,0:0:0:0:
336,216,13088,5,0,0:0:0:0:
328,216,13235,1,0,0:0:0:0:
336,216,13382,5,0,0:0:0:0:
328,216,13529,1,0,0:0:0:0:
336,216,13676,5,0,0:0:0:0:
328,216,13823,1,0,0:0:0:0:
336,216,14411,6,0,B|360:136|232:48|168:176|96:264|0:160|72:40|288:56,1,553.000013500977
278,55,16029,2,0,B|336:64|408:160|320:224|320:224|88:160,1,442.400010800782
108,165,17352,2,0,B|56:208|72:320|96:304|184:264|272:144|264:32|328:240,1,442.400010800782
344,288,18823,1,0,0:0:0:0:
384,208,18970,1,0,0:0:0:0:
336,136,19117,1,0,0:0:0:0:
288,64,19264,1,0,0:0:0:0:
224,40,19411,1,0,0:0:0:0:
208,120,19558,1,0,0:0:0:0:
240,192,19705,1,0,0:0:0:0:
288,248,19852,1,0,0:0:0:0:
256,192,20147,12,0,21323,0:0:0:0:
256,192,21764,12,0,22647,0:0:0:0:
120,232,22941,6,0,P|192:144|384:296,3,387.100009450684
256,192,26323,12,0,27205,0:0:0:0:
208,208,27794,5,0,0:0:0:0:
296,160,27941,1,0,0:0:0:0:
296,272,28088,5,0,0:0:0:0:
208,112,28235,1,0,0:0:0:0:
208,176,28382,5,0,0:0:0:0:
296,224,28529,1,0,0:0:0:0:
296,112,28676,5,0,0:0:0:0:
208,272,28823,1,0,0:0:0:0:
256,192,29117,12,0,32499,0:0:0:0:
256,192,33088,12,0,39705,0:0:0:0:
256,192,39999,12,0,41323,0:0:0:0:
