osu file format v14

[General]
AudioFilename: audio.mp3
AudioLeadIn: 0
PreviewTime: -1
Countdown: 1
SampleSet: Normal
StackLeniency: 0.7
Mode: 0
LetterboxInBreaks: 0
WidescreenStoryboard: 1

[Editor]
DistanceSpacing: 0.8
BeatDivisor: 4
GridSize: 8
TimelineZoom: 1

[Metadata]
Title:Top Gear Theme (Jessica)
TitleUnicode:Top Gear Theme (Jessica)
Artist:Top Gear
ArtistUnicode:Top Gear
Creator:rexdo206
Version:Stig
Source:
Tags:
BeatmapID:2106218
BeatmapSetID:1005947

[Difficulty]
HPDrainRate:6
CircleSize:4
OverallDifficulty:8
ApproachRate:8
SliderMultiplier:1.4
SliderTickRate:1

[Events]
//Background and Video events
//Break Periods
//Storyboard Layer 0 (Background)
//Storyboard Layer 1 (Fail)
//Storyboard Layer 2 (Pass)
//Storyboard Layer 3 (Foreground)
//Storyboard Sound Samples

[TimingPoints]
0,588.235294117647,4,1,0,100,1,0
3088,-66.6666666666667,4,1,0,100,0,0

[HitObjects]
256,192,1470,12,0,2941,0:0:0:0:
31,247,3235,6,0,B|263:188|262:189,1,210
304,310,4117,1,0,0:0:0:0:
375,65,4558,5,0,0:0:0:0:
49,269,4852,5,0,0:0:0:0:
393,166,4999,1,0,0:0:0:0:
256,192,5147,12,0,5735,0:0:0:0:
444,147,6176,6,0,B|500:249|307:245|277:195|220:119|28:239,1,472.500018024445
57,323,7794,2,0,L|106:296,4,52.5000020027161
27,224,8823,2,0,L|168:227,1,105.000004005432
220,218,9411,1,0,0:0:0:0:
281,171,9558,1,0,0:0:0:0:
220,218,9705,5,0,0:0:0:0:
281,171,9852,1,0,0:0:0:0:
220,218,9999,1,0,0:0:0:0:
281,171,10147,1,0,0:0:0:0:
163,262,10294,1,0,0:0:0:0:
346,127,10441,1,0,0:0:0:0:
119,302,10588,1,0,0:0:0:0:
401,82,10735,1,0,0:0:0:0:
109,82,10882,5,0,0:0:0:0:
356,256,11029,1,0,0:0:0:0:
404,195,11323,6,0,L|452:156,7,52.5000020027161
476,231,12647,5,0,0:0:0:0:
334,326,12794,1,0,0:0:0:0:
476,231,12941,1,0,0:0:0:0:
334,326,13088,1,0,0:0:0:0:
476,231,13235,1,0,0:0:0:0:
334,326,13382,1,0,0:0:0:0:
476,231,13529,1,0,0:0:0:0:
334,326,13676,1,0,0:0:0:0:
278,314,13970,5,0,0:0:0:0:
227,301,14117,1,0,0:0:0:0:
180,278,14264,1,0,0:0:0:0:
139,245,14411,1,0,0:0:0:0:
107,203,14558,1,0,0:0:0:0:
86,155,14705,1,0,0:0:0:0:
75,104,14852,1,0,0:0:0:0:
163,179,15147,5,0,0:0:0:0:
379,148,15294,1,0,0:0:0:0:
374,306,15588,5,0,0:0:0:0:
210,53,15735,1,0,0:0:0:0:
220,336,16029,5,0,0:0:0:0:
359,39,16176,1,0,0:0:0:0:
392,88,16470,6,0,L|432:130,6,52.5000020027161
457,184,17647,1,0,0:0:0:0:
439,234,18235,6,0,B|427:294|272:305|247:190|377:111|376:47|204:14|40:171,1,577.500022029878
87,251,20147,6,0,B|90:325|207:320|246:224|145:132|100:70|427:164,1,472.500018024445
456,112,21911,1,0,0:0:0:0:
464,248,22058,1,0,0:0:0:0:
352,248,22205,1,0,0:0:0:0:
352,168,22352,1,0,0:0:0:0:
352,72,22499,1,0,0:0:0:0:
256,72,22647,1,0,0:0:0:0:
256,168,22794,1,0,0:0:0:0:
256,264,22941,1,0,0:0:0:0:
64,320,23235,6,0,L|120:256,6,52.5000020027161
80,64,24411,5,0,0:0:0:0:
400,272,24558,1,0,0:0:0:0:
104,88,24705,5,0,0:0:0:0:
264,288,24852,1,0,0:0:0:0:
384,248,24999,5,0,0:0:0:0:
192,32,25147,1,0,0:0:0:0:
176,208,25735,6,0,L|248:176,7,52.5000020027161
256,152,27058,6,0,L|376:192,1,105.000004005432
400,224,27647,1,0,0:0:0:0:
360,288,27941,1,0,0:0:0:0:
280,288,28235,1,0,0:0:0:0:
224,240,28529,1,0,0:0:0:0:
200,176,28823,1,0,0:0:0:0:
184,96,29117,1,0,0:0:0:0:
96,72,29411,1,0,0:0:0:0:
96,160,29705,1,0,0:0:0:0:
256,192,30147,12,0,30882,0:0:0:0:
256,192,31323,12,0,31911,0:0:0:0:
256,192,32352,12,0,33088,0:0:0:0:
256,192,33676,12,0,41176,0:0:0:0:
