osu file format v14

[General]
AudioFilename: audio.mp3
AudioLeadIn: 0
PreviewTime: -1
Countdown: 1
SampleSet: Normal
StackLeniency: 0.7
Mode: 1
LetterboxInBreaks: 0
WidescreenStoryboard: 0

[Editor]
DistanceSpacing: 0.5
BeatDivisor: 8
GridSize: 8
TimelineZoom: 1.7

[Metadata]
Title:Sizumu miyako
TitleUnicode:Sizumu miyako
Artist:Toorun12
ArtistUnicode:Toorun12
Creator:Toorun12
Version:Oni
Source:
Tags:
BeatmapID:1355599
BeatmapSetID:639140

[Difficulty]
HPDrainRate:5
CircleSize:5
OverallDifficulty:5
ApproachRate:5
SliderMultiplier:1.4
SliderTickRate:4

[Events]
//Background and Video events
0,0,"沈む都.png",0,0
//Break Periods
2,102183,105835
//Storyboard Layer 0 (Background)
//Storyboard Layer 1 (Fail)
//Storyboard Layer 2 (Pass)
//Storyboard Layer 3 (Foreground)
//Storyboard Sound Samples

[TimingPoints]
0,315.789473684211,4,1,0,100,1,0
7574,315.789473684211,3,1,0,100,1,0
8510,315.789473684211,4,1,0,60,1,0
9772,-133.333333333333,4,1,0,60,0,0
14824,-100,4,1,0,70,0,0
17352,-100,4,1,0,75,0,0
19878,-100,4,1,0,80,0,0
40088,-100,4,1,0,75,0,0
60588,-142.857142857143,4,1,0,50,0,0
75456,-117.647058823529,4,1,0,65,0,0
77982,-100,4,1,0,70,0,0
81773,315.789473684211,4,1,0,85,1,1
90615,315.789473684211,4,1,0,75,1,0
91878,315.789473684211,4,1,0,90,1,1
96930,-100,4,1,0,75,0,1
99456,-100,4,1,0,85,0,1
101983,315.789473684211,4,1,0,60,1,0
106983,-200,4,1,0,60,0,0
112061,-133.333333333333,4,1,0,65,0,0
117114,-100,4,1,0,70,0,0
122193,315.789473684211,4,1,0,90,1,1
142403,315.789473684211,4,1,0,85,1,0
147455,-100,4,1,0,75,0,0
149981,-100,4,1,0,65,0,0
152508,-100,4,1,0,55,0,0
155034,-100,4,1,0,45,0,0
157560,-100,4,1,0,40,0,0
160087,-100,4,1,0,35,0,0
163718,315.789473684211,3,1,0,30,1,0

[HitObjects]
168,204,9773,5,0,3:0:0:0:
160,84,10088,1,2,3:0:0:0:
168,120,10404,1,2,3:0:0:0:
364,248,10720,1,2,3:0:0:0:
284,160,10878,5,0,3:0:0:0:
300,292,11036,1,2,3:0:0:0:
192,264,11352,1,2,3:0:0:0:
124,176,11667,1,2,3:0:0:0:
284,172,11825,1,0,3:0:0:0:
432,72,11983,1,2,3:0:0:0:
248,192,12299,1,0,3:0:0:0:
168,92,12615,1,2,3:0:0:0:
300,268,12931,1,2,3:0:0:0:
308,76,13088,1,0,3:0:0:0:
212,236,13246,1,2,3:0:0:0:
224,120,13562,1,0,3:0:0:0:
268,40,13878,1,2,3:0:0:0:
140,100,14036,1,0,3:0:0:0:
488,200,14194,1,2,3:0:0:0:
212,128,14431,1,2,3:0:0:0:
416,88,14510,1,2,3:0:0:0:
300,180,14667,1,2,3:0:0:0:
84,80,14825,1,0,3:0:0:0:
376,292,15141,1,2,3:0:0:0:
352,80,15299,1,0,3:0:0:0:
128,252,15615,1,0,3:0:0:0:
176,80,15773,1,2,3:0:0:0:
420,188,15931,1,0,3:0:0:0:
244,68,16088,1,0,3:0:0:0:
312,56,16167,1,2,3:0:0:0:
404,96,16246,1,0,3:0:0:0:
60,184,16404,1,2,3:0:0:0:
152,248,16562,1,0,3:0:0:0:
276,76,16878,1,2,3:0:0:0:
364,208,17036,1,0,3:0:0:0:
480,56,17115,1,2,3:0:0:0:
348,64,17194,1,0,3:0:0:0:
56,188,17352,1,0,3:0:0:0:
208,256,17510,1,0,3:0:0:0:
328,100,17667,1,2,3:0:0:0:
328,268,17825,1,0,3:0:0:0:
420,168,18062,1,0,3:0:0:0:
124,116,18141,1,0,3:0:0:0:
448,84,18299,1,2,3:0:0:0:
136,300,18457,1,0,3:0:0:0:
480,224,18536,1,0,3:0:0:0:
336,52,18615,1,0,3:0:0:0:
104,200,18773,1,0,3:0:0:0:
320,244,18931,1,2,3:0:0:0:
144,76,19088,1,0,3:0:0:0:
240,100,19167,1,2,3:0:0:0:
328,132,19246,1,0,3:0:0:0:
388,184,19325,1,2,3:0:0:0:
228,256,19404,1,0,3:0:0:0:
432,100,19562,1,6,3:0:0:0:
4,168,19878,1,0,3:0:0:0:
400,308,20115,1,0,3:0:0:0:
176,88,20194,1,2,3:0:0:0:
208,276,20352,1,0,3:0:0:0:
108,144,20667,1,0,3:0:0:0:
332,80,20825,1,2,3:0:0:0:
332,264,20983,1,0,3:0:0:0:
352,168,21141,1,0,3:0:0:0:
472,32,21299,1,2,3:0:0:0:
176,188,21378,1,0,3:0:0:0:
108,264,21457,1,2,3:0:0:0:
100,128,21615,1,0,3:0:0:0:
384,304,21931,1,2,3:0:0:0:
208,308,22088,1,0,3:0:0:0:
140,148,22246,1,2,3:0:0:0:
236,48,22325,1,2,3:0:0:0:
192,108,22404,1,2,3:0:0:0:
412,64,22562,1,0,3:0:0:0:
384,136,22720,1,2,3:0:0:0:
132,272,22878,1,2,3:0:0:0:
260,292,23036,1,0,3:0:0:0:
316,84,23194,1,2,3:0:0:0:
384,252,23352,1,2,3:0:0:0:
168,144,23431,1,2,0:0:0:0:
88,136,23510,1,0,3:0:0:0:
400,144,23667,1,0,3:0:0:0:
184,80,23825,1,2,3:0:0:0:
312,156,24062,1,2,3:0:0:0:
416,296,24141,1,0,3:0:0:0:
232,40,24299,1,0,3:0:0:0:
208,208,24457,1,2,3:0:0:0:
400,256,24615,1,2,3:0:0:0:
104,256,24931,1,0,3:0:0:0:
40,60,25088,1,0,3:0:0:0:
312,88,25246,1,2,3:0:0:0:
448,176,25404,1,2,3:0:0:0:
352,256,25562,1,0,3:0:0:0:
296,144,25720,1,2,3:0:0:0:
288,288,25799,1,2,3:0:0:0:
176,176,25878,1,0,3:0:0:0:
120,272,26036,1,2,3:0:0:0:
80,152,26194,1,0,3:0:0:0:
360,60,26352,1,2,3:0:0:0:
456,208,26667,1,0,3:0:0:0:
72,84,26825,1,8,3:0:0:0:
304,176,26904,1,2,3:0:0:0:
340,328,27062,1,2,3:0:0:0:
288,332,27141,1,2,3:0:0:0:
152,56,27299,1,8,3:0:0:0:
100,160,27457,1,0,3:0:0:0:
240,136,27536,1,2,3:0:0:0:
464,200,27615,1,0,3:0:0:0:
168,200,27773,1,2,3:0:0:0:
336,192,27931,1,2,3:0:0:0:
448,60,28088,1,0,3:0:0:0:
368,44,28246,1,2,3:0:0:0:
304,52,28404,1,2,3:0:0:0:
176,208,28562,1,0,3:0:0:0:
256,240,28720,1,0,3:0:0:0:
136,104,28878,1,2,3:0:0:0:
80,248,29115,1,2,3:0:0:0:
304,272,29194,1,0,3:0:0:0:
368,232,29352,1,0,3:0:0:0:
360,96,29510,1,2,3:0:0:0:
96,192,29667,1,2,3:0:0:0:
192,192,29983,1,0,3:0:0:0:
280,96,30141,1,0,3:0:0:0:
208,72,30299,1,8,3:0:0:0:
360,184,30457,1,2,3:0:0:0:
128,328,30536,1,2,3:0:0:0:
144,136,30615,1,0,3:0:0:0:
304,168,30773,1,2,0:0:0:0:
280,288,31088,1,0,3:0:0:0:
80,96,31246,1,0,3:0:0:0:
392,168,31404,1,2,3:0:0:0:
424,96,31562,1,2,3:0:0:0:
416,264,31720,1,0,3:0:0:0:
256,328,31799,1,2,0:0:0:0:
136,264,31878,1,2,3:0:0:0:
448,160,32036,1,0,3:0:0:0:
320,72,32194,1,0,3:0:0:0:
280,248,32352,1,2,3:0:0:0:
128,208,32431,1,2,3:0:0:0:
224,88,32510,1,2,3:0:0:0:
376,264,32667,1,0,3:0:0:0:
384,160,32825,1,2,3:0:0:0:
440,224,32983,1,2,3:0:0:0:
128,96,33299,1,0,3:0:0:0:
256,80,33457,1,2,3:0:0:0:
80,208,33615,1,0,3:0:0:0:
352,272,33773,1,0,3:0:0:0:
224,160,33931,1,2,3:0:0:0:
448,224,34167,1,2,3:0:0:0:
160,120,34246,1,0,3:0:0:0:
264,80,34404,1,0,3:0:0:0:
120,200,34562,1,2,3:0:0:0:
168,264,34720,1,2,3:0:0:0:
224,128,35036,1,0,3:0:0:0:
400,208,35194,1,0,3:0:0:0:
144,168,35352,1,2,3:0:0:0:
472,120,35510,1,0,3:0:0:0:
304,272,35825,1,0,3:0:0:0:
256,96,35983,1,2,3:0:0:0:
384,168,36062,1,2,3:0:0:0:
176,192,36141,1,0,3:0:0:0:
344,80,36299,1,2,3:0:0:0:
128,296,36457,1,0,3:0:0:0:
176,144,36536,1,2,3:0:0:0:
376,240,36615,1,2,3:0:0:0:
232,96,36773,1,0,3:0:0:0:
216,224,37088,1,2,3:0:0:0:
400,152,37246,1,2,3:0:0:0:
368,224,37404,1,0,3:0:0:0:
440,88,37562,1,2,3:0:0:0:
192,264,37641,1,2,3:0:0:0:
144,112,37720,1,0,3:0:0:0:
96,72,37878,1,2,0:0:0:0:
240,96,38036,1,0,0:0:0:0:
344,224,38115,1,2,0:0:0:0:
264,40,38194,1,2,3:0:0:0:
304,152,38352,1,0,3:0:0:0:
400,96,38510,1,2,3:0:0:0:
160,112,38667,1,8,3:0:0:0:
224,56,38746,1,8,3:0:0:0:
104,176,38825,1,0,3:0:0:0:
184,240,38983,1,2,3:0:0:0:
328,88,39299,1,0,3:0:0:0:
120,96,39457,1,0,3:0:0:0:
416,216,39615,1,0,3:0:0:0:
416,216,39694,1,0,3:0:0:0:
384,272,39773,1,2,3:0:0:0:
208,80,40088,1,0,0:0:0:0:
216,144,40246,1,2,0:0:0:0:
112,64,40404,5,0,0:0:0:0:
400,80,40483,1,0,0:0:0:0:
272,160,40562,1,2,0:0:0:0:
304,176,40878,1,0,0:0:0:0:
312,184,41036,1,2,0:0:0:0:
144,176,41194,1,0,0:0:0:0:
200,232,41352,1,2,0:0:0:0:
128,80,41431,1,2,3:0:0:0:
264,120,41510,1,0,3:0:0:0:
424,144,41667,1,2,0:0:0:0:
80,152,41825,1,0,0:0:0:0:
192,224,41904,1,2,3:0:0:0:
336,144,41983,1,2,0:0:0:0:
176,56,42141,1,0,0:0:0:0:
336,288,42299,1,2,0:0:0:0:
216,224,42615,1,2,0:0:0:0:
240,184,42694,1,2,0:0:0:0:
144,224,42773,1,0,0:0:0:0:
104,168,42931,1,0,0:0:0:0:
328,112,43088,1,2,0:0:0:0:
192,64,43404,1,0,0:0:0:0:
496,104,43562,1,2,0:0:0:0:
456,264,43720,1,0,0:0:0:0:
104,168,43878,1,2,0:0:0:0:
64,224,43957,1,2,0:0:0:0:
400,80,44036,1,0,0:0:0:0:
392,184,44194,1,2,0:0:0:0:
160,240,44352,1,0,0:0:0:0:
64,224,44431,1,2,0:0:0:0:
64,224,44510,1,2,0:0:0:0:
320,272,44667,1,0,0:0:0:0:
152,136,44825,1,2,0:0:0:0:
352,144,45141,1,2,0:0:0:0:
168,16,45220,1,2,0:0:0:0:
464,64,45299,1,0,0:0:0:0:
424,48,45457,1,0,0:0:0:0:
152,280,45615,1,2,0:0:0:0:
376,272,45773,1,0,0:0:0:0:
416,240,45931,1,2,0:0:0:0:
424,168,46246,1,2,0:0:0:0:
208,264,46404,1,0,0:0:0:0:
208,264,46562,1,0,0:0:0:0:
408,144,46641,1,0,0:0:0:0:
312,88,46720,1,2,0:0:0:0:
352,184,46878,1,0,0:0:0:0:
320,264,47036,1,2,0:0:0:0:
104,128,47115,1,0,0:0:0:0:
104,128,47194,1,0,0:0:0:0:
224,128,47352,1,0,0:0:0:0:
152,264,47667,1,2,0:0:0:0:
184,264,47746,1,2,0:0:0:0:
280,256,47825,1,0,0:0:0:0:
96,192,47983,1,0,0:0:0:0:
408,192,48141,1,2,0:0:0:0:
424,96,48457,1,2,0:0:0:0:
224,40,48615,1,0,0:0:0:0:
208,112,48773,1,2,0:0:0:0:
160,136,48852,1,2,0:0:0:0:
96,80,48931,1,0,0:0:0:0:
376,232,49088,1,2,0:0:0:0:
416,96,49246,1,0,0:0:0:0:
256,192,49404,1,2,0:0:0:0:
160,176,49720,1,0,0:0:0:0:
384,176,49799,1,0,0:0:0:0:
296,240,49878,1,2,0:0:0:0:
64,80,50036,1,2,0:0:0:0:
272,88,50352,1,2,0:0:0:0:
304,136,50431,1,2,0:0:0:0:
328,176,50510,1,2,0:0:0:0:
240,280,50588,1,0,0:0:0:0:
96,248,50667,1,0,0:0:0:0:
192,104,50825,1,2,0:0:0:0:
160,184,50983,1,0,0:0:0:0:
96,128,51062,1,2,0:0:0:0:
272,88,51220,1,2,0:0:0:0:
384,192,51299,1,0,0:0:0:0:
288,224,51457,1,2,0:0:0:0:
64,240,51615,1,0,0:0:0:0:
208,240,51931,1,2,0:0:0:0:
240,88,52088,1,0,0:0:0:0:
232,224,52246,1,8,0:0:0:0:
120,240,52404,1,0,0:0:0:0:
400,216,52562,1,2,0:0:0:0:
120,72,52720,1,2,0:0:0:0:
80,96,52799,1,2,0:0:0:0:
344,112,52878,1,0,0:0:0:0:
176,264,53036,1,0,0:0:0:0:
144,176,53194,1,2,0:0:0:0:
232,80,53510,1,2,0:0:0:0:
56,104,53667,1,0,0:0:0:0:
304,112,53825,1,8,0:0:0:0:
336,112,53983,1,2,0:0:0:0:
56,248,54062,1,2,0:0:0:0:
392,208,54141,1,0,0:0:0:0:
192,96,54299,1,2,0:0:0:0:
72,128,54457,1,0,0:0:0:0:
280,288,54773,1,0,0:0:0:0:
336,128,54931,1,2,0:0:0:0:
176,160,55246,1,0,0:0:0:0:
152,96,55325,1,2,0:0:0:0:
144,96,55404,1,0,0:0:0:0:
240,144,55562,1,0,0:0:0:0:
72,192,55720,1,2,0:0:0:0:
88,64,56036,1,2,0:0:0:0:
152,128,56194,1,0,0:0:0:0:
168,304,56352,1,2,0:0:0:0:
64,176,56510,1,2,0:0:0:0:
480,136,56588,1,2,0:0:0:0:
224,64,56667,1,0,0:0:0:0:
360,88,56825,1,2,0:0:0:0:
224,216,56983,1,0,0:0:0:0:
352,184,57299,1,2,0:0:0:0:
136,208,57457,1,0,0:0:0:0:
192,112,57615,1,2,0:0:0:0:
88,56,57773,1,2,0:0:0:0:
432,280,57852,1,2,0:0:0:0:
328,104,57931,1,0,0:0:0:0:
352,224,58088,1,0,0:0:0:0:
128,208,58246,1,2,0:0:0:0:
64,152,58562,1,2,0:0:0:0:
392,120,58878,1,0,0:0:0:0:
408,192,58957,1,2,0:0:0:0:
128,216,59036,1,2,0:0:0:0:
200,224,59115,1,2,0:0:0:0:
344,224,59194,1,0,0:0:0:0:
120,280,59352,1,0,0:0:0:0:
256,112,59510,1,2,0:0:0:0:
240,304,59667,1,0,0:0:0:0:
352,64,59825,1,0,0:0:0:0:
272,240,59983,1,2,0:0:0:0:
192,144,60299,1,4,0:0:0:0:
320,144,60931,1,2,0:0:0:0:
184,248,61088,1,0,0:0:0:0:
144,168,61562,1,0,0:0:0:0:
144,168,61878,1,0,0:0:0:0:
264,152,62036,1,2,0:0:0:0:
160,232,62194,1,0,0:0:0:0:
264,128,62352,1,2,0:0:0:0:
192,128,62510,1,2,0:0:0:0:
120,104,62825,1,0,0:0:0:0:
120,112,63141,1,0,0:0:0:0:
296,192,63457,1,0,0:0:0:0:
296,144,63615,1,2,0:0:0:0:
240,160,63931,1,2,0:0:0:0:
160,160,64088,1,0,0:0:0:0:
120,96,64246,1,0,0:0:0:0:
344,96,64404,1,2,0:0:0:0:
280,208,64562,1,0,0:0:0:0:
312,120,64878,1,4,0:0:0:0:
224,136,65352,1,4,0:0:0:0:
344,288,65667,1,2,0:0:0:0:
152,136,65825,1,0,0:0:0:0:
184,128,65983,1,2,0:0:0:0:
216,176,66299,1,2,0:0:0:0:
336,136,66457,1,0,0:0:0:0:
112,168,66615,1,0,0:0:0:0:
280,240,66931,1,2,0:0:0:0:
192,96,67088,1,2,0:0:0:0:
480,152,67404,1,0,0:0:0:0:
128,200,67562,1,2,0:0:0:0:
416,80,67720,1,2,0:0:0:0:
296,272,67878,1,0,0:0:0:0:
104,136,68194,1,0,0:0:0:0:
224,136,68352,1,0,0:0:0:0:
336,80,68510,1,2,0:0:0:0:
416,224,68667,1,0,0:0:0:0:
248,248,68983,1,0,0:0:0:0:
96,112,69141,1,2,0:0:0:0:
136,224,69299,1,0,0:0:0:0:
256,128,69615,1,2,0:0:0:0:
256,128,69931,1,4,0:0:0:0:
352,264,70088,1,2,0:0:0:0:
216,248,70404,1,4,0:0:0:0:
112,176,70720,1,0,0:0:0:0:
416,144,70878,1,0,0:0:0:0:
296,128,71036,1,2,0:0:0:0:
176,144,71194,1,2,0:0:0:0:
144,216,71510,1,2,0:0:0:0:
296,272,71667,1,0,0:0:0:0:
168,128,71983,1,0,0:0:0:0:
256,136,72141,1,2,0:0:0:0:
416,200,72299,1,0,0:0:0:0:
376,96,72457,1,2,0:0:0:0:
96,104,72615,1,2,0:0:0:0:
168,248,72931,1,0,0:0:0:0:
232,120,73088,1,2,0:0:0:0:
240,216,73246,1,0,0:0:0:0:
408,152,73562,1,2,0:0:0:0:
184,168,73720,1,0,0:0:0:0:
112,160,74036,1,2,0:0:0:0:
128,240,74194,1,0,0:0:0:0:
192,232,74510,1,2,0:0:0:0:
280,136,74667,1,2,0:0:0:0:
88,104,74983,1,4,0:0:0:0:
192,160,75457,1,0,0:0:0:0:
328,112,75773,1,0,0:0:0:0:
224,248,76088,1,0,0:0:0:0:
88,128,76404,1,0,0:0:0:0:
392,160,76720,1,0,0:0:0:0:
152,88,76878,1,2,0:0:0:0:
304,184,77036,1,0,0:0:0:0:
128,192,77352,1,0,0:0:0:0:
320,96,77510,1,2,0:0:0:0:
208,232,77667,1,0,0:0:0:0:
80,80,77825,1,2,0:0:0:0:
440,200,77983,1,0,0:0:0:0:
216,112,78141,1,2,0:0:0:0:
264,112,78299,1,2,0:0:0:0:
312,112,78457,1,2,0:0:0:0:
352,112,78615,1,2,0:0:0:0:
392,112,78773,1,2,0:0:0:0:
416,112,78931,1,2,0:0:0:0:
144,192,79088,1,4,0:0:0:0:
264,232,79404,1,0,0:0:0:0:
336,256,79562,1,0,0:0:0:0:
112,120,79720,1,6,0:0:0:0:
128,240,80194,1,2,0:0:0:0:
160,144,80352,1,2,0:0:0:0:
192,152,80431,1,2,0:0:0:0:
280,120,80510,1,2,0:0:0:0:
216,88,80667,1,2,0:0:0:0:
96,80,80825,1,2,0:0:0:0:
288,240,80904,1,2,0:0:0:0:
392,176,80983,1,0,0:0:0:0:
160,192,81141,1,0,0:0:0:0:
344,48,81220,1,2,0:0:0:0:
72,160,81299,1,0,0:0:0:0:
224,120,81457,1,6,0:0:0:0:
216,112,81773,1,0,0:0:0:0:
320,176,81930,1,2,0:0:0:0:
216,112,82088,1,0,0:0:0:0:
16,104,82246,1,2,0:0:0:0:
408,232,82404,1,0,0:0:0:0:
104,152,82483,1,0,0:0:0:0:
128,72,82562,1,2,0:0:0:0:
192,208,82720,1,0,0:0:0:0:
296,64,82878,1,2,0:0:0:0:
88,256,83036,1,0,0:0:0:0:
336,112,83115,1,0,0:0:0:0:
296,304,83194,1,2,0:0:0:0:
376,168,83351,1,0,0:0:0:0:
296,200,83430,1,2,0:0:0:0:
96,96,83509,1,2,0:0:0:0:
232,152,83667,1,0,0:0:0:0:
248,208,83746,1,0,0:0:0:0:
456,280,83825,1,2,0:0:0:0:
224,96,83983,1,0,0:0:0:0:
496,224,84062,1,2,0:0:0:0:
496,224,84141,1,2,0:0:0:0:
120,232,84299,1,0,0:0:0:0:
304,176,84457,1,2,0:0:0:0:
352,224,84536,1,2,0:0:0:0:
360,96,84615,1,0,0:0:0:0:
256,280,84773,1,0,0:0:0:0:
232,96,84851,1,2,0:0:0:0:
112,96,84930,1,0,0:0:0:0:
240,168,85088,1,2,0:0:0:0:
104,184,85246,1,0,0:0:0:0:
104,256,85325,1,0,0:0:0:0:
352,224,85404,1,2,0:0:0:0:
240,96,85562,1,0,0:0:0:0:
376,88,85720,1,2,0:0:0:0:
464,112,85799,1,2,0:0:0:0:
280,184,85878,1,0,0:0:0:0:
192,264,86036,1,2,0:0:0:0:
224,256,86115,1,0,0:0:0:0:
392,296,86194,1,0,0:0:0:0:
128,240,86351,1,0,0:0:0:0:
128,240,86430,1,8,0:0:0:0:
128,240,86509,1,0,0:0:0:0:
72,160,86667,1,2,0:0:0:0:
272,72,86825,1,0,0:0:0:0:
368,168,86983,1,2,0:0:0:0:
168,176,87062,1,2,0:0:0:0:
352,88,87141,1,0,0:0:0:0:
392,144,87299,1,2,0:0:0:0:
328,224,87457,1,0,0:0:0:0:
224,128,87536,1,0,0:0:0:0:
160,72,87615,1,2,0:0:0:0:
232,128,87773,1,0,0:0:0:0:
288,216,87851,1,0,0:0:0:0:
88,240,87930,1,2,0:0:0:0:
376,192,88009,1,2,0:0:0:0:
200,280,88088,1,0,0:0:0:0:
312,144,88246,1,2,0:0:0:0:
288,72,88325,1,2,0:0:0:0:
232,128,88404,1,0,0:0:0:0:
224,64,88562,1,2,0:0:0:0:
136,136,88720,1,0,0:0:0:0:
272,224,88878,1,2,0:0:0:0:
312,144,88957,1,2,0:0:0:0:
112,56,89036,1,0,0:0:0:0:
88,232,89194,1,2,0:0:0:0:
368,120,89351,1,0,0:0:0:0:
144,224,89430,1,0,0:0:0:0:
240,48,89509,1,2,0:0:0:0:
264,208,89588,1,2,0:0:0:0:
328,192,89667,1,0,0:0:0:0:
200,224,89825,1,2,0:0:0:0:
96,136,89983,1,0,0:0:0:0:
248,96,90062,1,0,0:0:0:0:
416,328,90141,1,2,0:0:0:0:
328,160,90299,1,0,0:0:0:0:
248,144,90457,1,2,0:0:0:0:
184,72,90536,1,2,0:0:0:0:
160,160,90615,1,0,0:0:0:0:
112,192,90772,1,0,0:0:0:0:
96,296,90930,1,2,0:0:0:0:
400,80,91088,1,0,0:0:0:0:
112,96,91167,1,2,0:0:0:0:
384,88,91246,1,0,0:0:0:0:
256,216,91325,1,2,0:0:0:0:
352,144,91404,1,0,0:0:0:0:
288,144,91562,1,6,0:0:0:0:
128,160,91878,1,0,0:0:0:0:
352,64,92035,1,2,0:0:0:0:
448,216,92114,1,2,0:0:0:0:
224,104,92193,1,0,0:0:0:0:
208,48,92272,1,0,0:0:0:0:
400,80,92351,1,2,0:0:0:0:
128,88,92509,1,0,0:0:0:0:
304,176,92588,1,0,0:0:0:0:
176,264,92667,1,2,0:0:0:0:
64,248,92746,1,2,0:0:0:0:
24,192,92825,1,0,0:0:0:0:
160,152,92983,1,2,0:0:0:0:
216,160,93141,1,0,0:0:0:0:
280,208,93220,1,0,0:0:0:0:
368,56,93299,1,2,0:0:0:0:
88,112,93456,1,0,0:0:0:0:
248,192,93614,1,2,0:0:0:0:
360,112,93693,1,2,0:0:0:0:
288,144,93772,1,0,0:0:0:0:
400,184,93930,1,2,0:0:0:0:
176,248,94009,1,2,0:0:0:0:
120,208,94088,1,0,0:0:0:0:
448,48,94246,1,2,0:0:0:0:
216,160,94404,1,0,0:0:0:0:
432,80,94562,1,2,0:0:0:0:
280,96,94641,1,2,0:0:0:0:
168,96,94720,1,0,0:0:0:0:
64,168,94799,1,0,0:0:0:0:
280,96,94878,1,2,0:0:0:0:
232,160,95035,1,0,0:0:0:0:
432,160,95114,1,0,0:0:0:0:
384,72,95193,1,2,0:0:0:0:
240,264,95272,1,2,0:0:0:0:
352,176,95351,1,0,0:0:0:0:
352,176,95509,1,2,0:0:0:0:
104,168,95667,1,0,0:0:0:0:
240,200,95746,1,0,0:0:0:0:
240,136,95825,1,2,0:0:0:0:
288,208,95983,1,0,0:0:0:0:
456,72,96062,1,0,0:0:0:0:
176,184,96141,1,2,0:0:0:0:
136,272,96220,1,2,0:0:0:0:
216,72,96299,1,0,0:0:0:0:
344,304,96456,1,2,0:0:0:0:
128,256,96535,1,2,0:0:0:0:
80,64,96614,1,0,0:0:0:0:
240,96,96772,1,0,0:0:0:0:
104,160,96930,1,4,0:0:0:0:
368,80,97246,1,2,0:0:0:0:
312,240,97404,1,0,0:0:0:0:
296,208,97720,1,0,0:0:0:0:
72,128,97878,1,2,0:0:0:0:
208,144,98035,1,0,0:0:0:0:
384,104,98193,1,0,0:0:0:0:
136,216,98509,1,2,0:0:0:0:
296,208,98667,1,0,0:0:0:0:
232,208,98825,1,2,0:0:0:0:
424,192,98983,1,2,0:0:0:0:
312,48,99141,1,0,0:0:0:0:
440,120,99299,1,2,0:0:0:0:
240,288,99378,1,2,0:0:0:0:
440,120,99456,1,0,0:0:0:0:
240,144,99614,1,0,0:0:0:0:
48,240,99772,1,2,0:0:0:0:
400,240,99930,1,2,0:0:0:0:
280,192,100088,1,0,0:0:0:0:
256,112,100246,1,2,0:0:0:0:
144,208,100404,1,2,0:0:0:0:
248,72,100562,1,0,0:0:0:0:
80,128,100720,1,0,0:0:0:0:
256,272,100878,1,0,0:0:0:0:
336,184,101035,1,2,0:0:0:0:
144,272,101193,1,8,0:0:0:0:
432,128,101351,1,0,0:0:0:0:
112,168,101430,1,2,0:0:0:0:
432,128,101509,1,0,0:0:0:0:
240,264,101667,1,2,0:0:0:0:
208,144,101983,5,4,0:0:0:0:
376,312,107035,5,8,0:0:0:0:
272,96,109561,1,2,0:0:0:0:
104,248,110035,1,2,0:0:0:0:
304,168,110825,1,2,0:0:0:0:
104,248,111298,1,2,0:0:0:0:
336,216,111772,1,2,0:0:0:0:
144,160,112088,1,0,0:0:0:0:
160,184,112561,1,0,0:0:0:0:
280,184,113351,1,0,0:0:0:0:
128,120,113667,1,0,0:0:0:0:
120,272,114140,1,0,0:0:0:0:
352,216,114614,1,0,0:0:0:0:
88,104,114772,1,2,0:0:0:0:
368,88,115088,1,0,0:0:0:0:
208,112,115561,1,2,0:0:0:0:
136,192,115877,1,0,0:0:0:0:
128,248,116035,1,2,0:0:0:0:
208,192,116193,1,0,0:0:0:0:
320,152,116351,1,2,0:0:0:0:
400,104,116667,1,0,0:0:0:0:
104,136,116825,1,2,0:0:0:0:
264,312,117140,1,0,0:0:0:0:
328,184,117456,1,0,0:0:0:0:
392,112,117772,1,0,0:0:0:0:
304,288,117930,1,2,0:0:0:0:
136,224,118088,1,0,0:0:0:0:
136,80,118404,1,0,0:0:0:0:
272,128,118561,1,2,0:0:0:0:
408,72,118719,1,0,0:0:0:0:
72,184,118877,1,2,0:0:0:0:
96,248,118956,1,2,0:0:0:0:
432,232,119035,1,0,0:0:0:0:
256,192,119193,1,2,0:0:0:0:
152,240,119351,1,0,0:0:0:0:
128,112,119667,1,0,0:0:0:0:
336,112,119825,1,0,0:0:0:0:
240,128,119904,1,2,0:0:0:0:
360,272,119983,1,0,0:0:0:0:
88,240,120140,1,2,0:0:0:0:
184,272,120298,1,0,0:0:0:0:
304,240,120456,1,2,0:0:0:0:
440,48,120535,1,2,0:0:0:0:
136,88,120614,1,0,0:0:0:0:
464,240,120772,1,0,0:0:0:0:
104,152,120930,1,0,0:0:0:0:
200,176,121088,1,0,0:0:0:0:
240,184,121246,1,2,0:0:0:0:
376,112,121404,1,2,0:0:0:0:
344,280,121483,1,2,0:0:0:0:
144,240,121561,1,0,0:0:0:0:
416,224,121719,1,0,0:0:0:0:
256,152,121877,1,6,0:0:0:0:
96,144,122193,1,0,0:0:0:0:
112,224,122350,1,0,0:0:0:0:
176,192,122429,1,0,0:0:0:0:
288,168,122508,1,2,0:0:0:0:
224,264,122666,1,0,0:0:0:0:
112,224,122982,1,0,0:0:0:0:
328,136,123061,1,0,0:0:0:0:
208,64,123140,1,2,0:0:0:0:
304,208,123298,1,0,0:0:0:0:
272,88,123456,1,0,0:0:0:0:
48,112,123614,1,0,0:0:0:0:
288,272,123693,1,0,0:0:0:0:
168,176,123771,1,2,0:0:0:0:
464,176,123850,1,2,0:0:0:0:
208,208,123929,1,0,0:0:0:0:
184,264,124245,1,0,0:0:0:0:
280,248,124324,1,0,0:0:0:0:
400,104,124403,1,2,0:0:0:0:
288,208,124482,1,2,0:0:0:0:
224,80,124561,1,0,0:0:0:0:
264,176,124719,1,0,0:0:0:0:
216,160,124798,1,0,0:0:0:0:
336,64,124877,1,2,0:0:0:0:
464,80,125035,1,2,0:0:0:0:
256,80,125193,1,0,0:0:0:0:
200,240,125508,5,0,0:0:0:0:
400,200,125666,1,2,0:0:0:0:
80,176,125824,1,0,0:0:0:0:
304,128,125903,1,0,0:0:0:0:
312,208,125982,1,2,0:0:0:0:
152,72,126140,1,2,0:0:0:0:
352,240,126219,1,0,0:0:0:0:
152,72,126298,1,2,0:0:0:0:
424,88,126456,1,0,0:0:0:0:
232,240,126771,1,0,0:0:0:0:
288,96,126929,1,2,0:0:0:0:
128,104,127245,1,0,0:0:0:0:
136,176,127403,1,0,0:0:0:0:
160,56,127482,1,0,0:0:0:0:
104,272,127561,1,2,0:0:0:0:
128,232,127719,1,0,0:0:0:0:
256,248,128035,1,0,0:0:0:0:
296,128,128193,1,2,0:0:0:0:
472,88,128271,1,2,0:0:0:0:
80,128,128350,1,0,0:0:0:0:
88,72,128508,1,2,0:0:0:0:
264,208,128666,1,0,0:0:0:0:
344,176,128824,1,2,0:0:0:0:
128,248,128982,1,0,0:0:0:0:
312,288,129298,1,0,0:0:0:0:
288,152,129456,1,2,0:0:0:0:
168,48,129771,1,8,0:0:0:0:
208,192,129929,1,2,0:0:0:0:
208,192,130087,1,0,0:0:0:0:
432,176,130245,1,2,0:0:0:0:
392,256,130324,1,2,0:0:0:0:
184,64,130403,1,0,0:0:0:0:
296,104,130482,1,0,0:0:0:0:
272,224,130561,1,0,0:0:0:0:
176,240,130719,1,2,0:0:0:0:
88,32,130877,1,0,0:0:0:0:
80,128,130956,1,0,0:0:0:0:
184,104,131035,1,0,0:0:0:0:
320,72,131114,1,2,0:0:0:0:
272,232,131193,1,2,0:0:0:0:
248,56,131350,1,0,0:0:0:0:
120,216,131508,1,8,0:0:0:0:
296,128,131824,1,0,0:0:0:0:
112,104,131982,1,2,0:0:0:0:
24,176,132298,1,0,0:0:0:0:
160,192,132456,1,0,0:0:0:0:
288,232,132535,1,0,0:0:0:0:
432,112,132614,1,2,0:0:0:0:
208,80,132771,1,2,0:0:0:0:
288,168,132929,1,0,0:0:0:0:
104,64,133245,1,2,0:0:0:0:
328,240,133403,1,2,0:0:0:0:
88,208,133561,1,0,0:0:0:0:
88,208,133640,1,0,0:0:0:0:
384,192,133719,1,0,0:0:0:0:
208,104,133877,1,2,0:0:0:0:
104,72,134035,1,0,0:0:0:0:
408,96,134350,1,0,0:0:0:0:
128,256,134508,1,8,0:0:0:0:
272,96,134666,1,0,0:0:0:0:
256,96,134745,1,0,0:0:0:0:
136,144,134824,1,2,0:0:0:0:
360,192,134982,1,2,0:0:0:0:
128,208,135140,1,0,0:0:0:0:
368,224,135298,1,2,0:0:0:0:
104,256,135456,1,0,0:0:0:0:
288,168,135771,1,0,0:0:0:0:
184,312,135929,1,0,0:0:0:0:
296,184,136008,1,0,0:0:0:0:
136,136,136087,1,2,0:0:0:0:
296,184,136166,1,0,0:0:0:0:
80,224,136245,1,2,0:0:0:0:
296,264,136403,1,0,0:0:0:0:
184,240,136561,1,2,0:0:0:0:
80,208,136640,1,2,0:0:0:0:
464,72,136719,1,0,0:0:0:0:
344,72,136798,1,2,0:0:0:0:
192,184,136877,1,0,0:0:0:0:
192,96,137035,1,2,0:0:0:0:
104,248,137350,1,0,0:0:0:0:
360,192,137508,1,0,0:0:0:0:
360,192,137587,1,0,0:0:0:0:
360,256,137666,1,2,0:0:0:0:
328,272,137824,1,8,0:0:0:0:
424,80,138140,1,0,0:0:0:0:
144,120,138219,1,0,0:0:0:0:
312,80,138298,1,2,0:0:0:0:
416,256,138377,1,2,0:0:0:0:
184,192,138456,1,0,0:0:0:0:
256,144,138614,1,2,0:0:0:0:
496,176,138693,1,2,0:0:0:0:
272,256,138771,1,0,0:0:0:0:
432,104,138850,1,0,0:0:0:0:
88,112,138929,1,0,0:0:0:0:
136,240,139087,1,2,0:0:0:0:
176,160,139245,1,0,0:0:0:0:
280,160,139403,1,2,0:0:0:0:
152,96,139561,1,2,0:0:0:0:
392,224,139877,1,0,0:0:0:0:
152,176,140035,1,2,0:0:0:0:
240,152,140193,1,2,0:0:0:0:
408,176,140271,1,2,0:0:0:0:
400,112,140350,1,0,0:0:0:0:
64,216,140508,1,0,0:0:0:0:
232,184,140666,1,2,0:0:0:0:
304,176,140745,1,2,0:0:0:0:
168,216,140824,1,0,0:0:0:0:
192,136,140903,1,2,0:0:0:0:
112,120,140982,1,0,0:0:0:0:
40,192,141140,1,0,0:0:0:0:
352,240,141298,1,0,0:0:0:0:
376,112,141377,1,0,0:0:0:0:
304,192,141456,1,2,0:0:0:0:
400,184,141614,1,2,0:0:0:0:
264,272,141771,1,0,0:0:0:0:
424,64,141929,1,0,0:0:0:0:
208,192,142087,1,2,0:0:0:0:
184,80,142403,1,0,0:0:0:0:
336,176,142560,1,0,0:0:0:0:
120,176,142718,1,2,0:0:0:0:
248,224,142876,1,0,0:0:0:0:
384,280,143192,1,0,0:0:0:0:
64,80,143350,1,2,0:0:0:0:
104,248,143508,1,0,0:0:0:0:
392,112,143666,1,2,0:0:0:0:
296,224,143745,1,2,0:0:0:0:
208,280,143824,1,0,0:0:0:0:
216,112,143981,5,2,0:0:0:0:
384,248,144139,1,0,0:0:0:0:
336,144,144455,1,0,0:0:0:0:
392,72,144613,1,2,0:0:0:0:
312,320,144771,1,0,0:0:0:0:
192,112,144850,1,2,0:0:0:0:
72,240,144929,1,2,0:0:0:0:
440,136,145087,1,0,0:0:0:0:
384,184,145245,1,2,0:0:0:0:
336,208,145403,1,2,0:0:0:0:
208,256,145560,1,0,0:0:0:0:
64,96,145718,1,2,0:0:0:0:
192,80,145876,1,2,0:0:0:0:
96,200,146034,1,0,0:0:0:0:
312,192,146192,1,0,0:0:0:0:
480,152,146508,1,2,0:0:0:0:
80,128,146666,1,0,0:0:0:0:
352,80,146981,1,0,0:0:0:0:
448,224,147139,1,2,0:0:0:0:
96,224,147297,1,0,0:0:0:0:
208,216,147376,1,0,0:0:0:0:
352,312,147455,1,0,0:0:0:0:
304,136,147771,1,2,0:0:0:0:
120,96,147929,1,0,0:0:0:0:
424,184,148245,1,2,0:0:0:0:
496,184,148403,1,0,0:0:0:0:
112,160,148560,1,8,0:0:0:0:
272,120,148876,1,2,0:0:0:0:
80,232,149192,1,0,0:0:0:0:
448,112,149271,1,2,0:0:0:0:
80,232,149350,1,0,0:0:0:0:
144,144,149508,1,0,0:0:0:0:
328,104,149824,1,8,0:0:0:0:
72,112,149903,1,8,0:0:0:0:
352,192,149981,1,2,0:0:0:0:
216,96,150139,1,2,0:0:0:0:
312,240,150297,1,0,0:0:0:0:
448,120,150455,1,2,0:0:0:0:
288,136,150771,1,2,0:0:0:0:
288,136,150929,1,0,0:0:0:0:
424,208,151087,1,0,0:0:0:0:
496,168,151403,1,2,0:0:0:0:
176,120,151560,1,2,0:0:0:0:
168,256,151718,1,0,0:0:0:0:
288,264,151876,1,0,0:0:0:0:
304,128,152192,1,2,0:0:0:0:
376,224,152508,1,0,0:0:0:0:
96,104,152824,1,2,0:0:0:0:
216,216,152981,1,0,0:0:0:0:
328,192,153297,1,2,0:0:0:0:
160,88,153613,1,0,0:0:0:0:
320,80,153929,1,2,0:0:0:0:
352,312,154087,1,2,0:0:0:0:
88,168,154245,1,0,0:0:0:0:
216,248,154560,1,0,0:0:0:0:
112,256,154876,1,8,0:0:0:0:
392,144,154955,1,8,0:0:0:0:
120,96,155034,1,2,0:0:0:0:
272,208,155350,1,8,0:0:0:0:
128,232,155508,1,2,0:0:0:0:
352,256,155824,1,2,0:0:0:0:
432,184,155981,1,2,0:0:0:0:
184,240,156139,1,2,0:0:0:0:
184,240,156613,1,2,0:0:0:0:
288,120,156771,1,0,0:0:0:0:
48,176,157245,1,2,0:0:0:0:
232,272,157560,1,0,0:0:0:0:
128,128,158034,1,0,0:0:0:0:
240,256,158350,1,2,0:0:0:0:
152,120,158824,1,0,0:0:0:0:
144,184,158981,1,2,0:0:0:0:
448,176,159139,1,2,0:0:0:0:
200,128,159297,1,0,0:0:0:0:
144,112,159613,1,2,0:0:0:0:
200,256,159771,1,0,0:0:0:0:
368,168,160087,1,8,0:0:0:0:
176,136,160245,1,8,0:0:0:0:
96,152,160403,1,8,0:0:0:0:
248,96,160560,1,8,0:0:0:0:
288,216,160837,1,8,0:0:0:0:
288,216,160876,1,8,0:0:0:0:
64,64,161034,1,8,0:0:0:0:
112,208,161192,1,0,0:0:0:0:
104,184,162613,1,0,0:0:0:0:
96,288,162929,1,2,0:0:0:0:
208,112,163087,1,2,0:0:0:0:
328,120,163245,1,2,0:0:0:0:
224,200,163560,1,0,0:0:0:0:
64,96,163718,1,2,0:0:0:0:
200,88,164033,1,2,0:0:0:0:
40,224,164191,1,2,0:0:0:0:
336,128,164349,1,2,0:0:0:0:
168,280,164665,1,2,0:0:0:0:
224,216,164823,1,0,0:0:0:0:
240,120,164981,1,2,0:0:0:0:
120,136,165060,1,2,0:0:0:0:
224,168,165139,1,2,0:0:0:0:
232,168,165296,1,2,0:0:0:0:
80,224,165454,1,0,0:0:0:0:
232,168,165612,1,2,0:0:0:0:
192,104,166046,1,0,0:0:0:0:
80,144,166560,1,0,0:0:0:0:
160,200,166875,1,0,0:0:0:0:
320,144,167033,1,2,0:0:0:0:
0,48,167507,2,0,B|696:-80|688:352|448:392|-184:312,1,1528.33333333333
