osu file format v14

[General]
AudioFilename: audio.mp3
AudioLeadIn: 0
PreviewTime: -1
Countdown: 1
SampleSet: Normal
StackLeniency: 0.7
Mode: 1
LetterboxInBreaks: 0
WidescreenStoryboard: 0

[Editor]
DistanceSpacing: 0.5
BeatDivisor: 12
GridSize: 8
TimelineZoom: 2.6

[Metadata]
Title:Sizumu miyako
TitleUnicode:Sizumu miyako
Artist:Toorun12
ArtistUnicode:Toorun12
Creator:Toorun12
Version:Muzukashii
Source:
Tags:
BeatmapID:1355600
BeatmapSetID:639140

[Difficulty]
HPDrainRate:6
CircleSize:5
OverallDifficulty:4
ApproachRate:5
SliderMultiplier:1.4
SliderTickRate:4

[Events]
//Background and Video events
0,0,"沈む都.png",0,0
//Break Periods
2,102187,110892
//Storyboard Layer 0 (Background)
//Storyboard Layer 1 (Fail)
//Storyboard Layer 2 (Pass)
//Storyboard Layer 3 (Foreground)
//Storyboard Sound Samples

[TimingPoints]
0,315.789473684211,4,1,0,100,1,0
7574,315.789473684211,3,1,0,100,1,0
8510,315.789473684211,4,1,0,60,1,0
9772,-133.333333333333,4,1,0,60,0,0
14824,-100,4,1,0,70,0,0
17352,-100,4,1,0,75,0,0
19878,-100,4,1,0,80,0,0
40088,-100,4,1,0,75,0,0
60588,-142.857142857143,4,1,0,50,0,0
75456,-117.647058823529,4,1,0,65,0,0
77982,-100,4,1,0,70,0,0
81773,315.789473684211,4,1,0,85,1,1
90615,315.789473684211,4,1,0,75,1,0
91878,315.789473684211,4,1,0,90,1,1
96930,-100,4,1,0,75,0,1
99456,-100,4,1,0,85,0,1
101983,315.789473684211,4,1,0,60,1,0
103088,-133.333333333333,4,1,0,60,0,0
106983,-200,4,1,0,60,0,0
112061,-133.333333333333,4,1,0,65,0,0
117114,-100,4,1,0,70,0,0
122193,315.789473684211,4,1,0,90,1,1
142403,315.789473684211,4,1,0,85,1,0
147455,-100,4,1,0,75,0,0
149981,-100,4,1,0,65,0,0
152508,-100,4,1,0,55,0,0
155034,-100,4,1,0,45,0,0
157560,-100,4,1,0,40,0,0
160087,-100,4,1,0,35,0,0
163718,315.789473684211,3,1,0,30,1,0

[HitObjects]
168,204,9776,5,0,3:0:0:0:
160,84,10091,1,2,3:0:0:0:
168,120,10407,1,2,3:0:0:0:
364,248,10723,1,2,3:0:0:0:
284,160,10881,5,0,3:0:0:0:
300,292,11039,1,2,3:0:0:0:
192,264,11355,1,2,3:0:0:0:
124,176,11670,1,2,3:0:0:0:
284,172,11828,1,0,3:0:0:0:
432,72,11986,1,2,3:0:0:0:
248,192,12302,1,0,3:0:0:0:
168,92,12618,1,2,3:0:0:0:
300,268,12934,1,2,3:0:0:0:
308,76,13091,1,0,3:0:0:0:
212,236,13249,1,2,3:0:0:0:
224,120,13565,1,0,3:0:0:0:
268,40,13881,1,2,3:0:0:0:
140,100,14039,1,0,3:0:0:0:
176,220,14355,1,2,3:0:0:0:
416,88,14513,1,2,3:0:0:0:
376,292,14671,1,2,3:0:0:0:
84,80,14828,1,0,3:0:0:0:
128,40,15145,1,2,3:0:0:0:
128,252,15618,1,0,3:0:0:0:
176,80,15776,1,2,3:0:0:0:
244,68,16091,1,0,3:0:0:0:
60,184,16407,1,2,3:0:0:0:
152,248,16565,1,0,3:0:0:0:
364,208,16882,1,0,3:0:0:0:
348,64,17040,1,2,3:0:0:0:
56,188,17355,1,0,3:0:0:0:
328,100,17670,1,2,3:0:0:0:
328,268,17828,1,0,3:0:0:0:
124,116,18144,1,0,3:0:0:0:
448,84,18303,1,2,3:0:0:0:
336,52,18461,1,0,3:0:0:0:
144,76,18777,1,0,3:0:0:0:
240,100,18935,1,2,3:0:0:0:
228,256,19092,1,0,3:0:0:0:
328,132,19249,1,0,3:0:0:0:
432,100,19565,1,6,3:0:0:0:
4,168,19881,1,0,3:0:0:0:
176,88,20197,1,2,3:0:0:0:
208,276,20355,1,0,3:0:0:0:
108,144,20670,1,0,3:0:0:0:
332,80,20828,1,2,3:0:0:0:
352,168,21144,1,0,3:0:0:0:
108,264,21461,1,2,3:0:0:0:
100,128,21619,1,0,3:0:0:0:
236,48,22092,1,2,3:0:0:0:
412,64,22408,1,0,3:0:0:0:
132,272,22724,1,2,3:0:0:0:
260,292,22882,1,0,3:0:0:0:
88,136,23198,1,0,3:0:0:0:
184,80,23356,1,2,3:0:0:0:
416,296,23671,1,0,3:0:0:0:
312,156,23829,1,2,3:0:0:0:
232,40,24145,1,0,3:0:0:0:
208,208,24460,1,2,3:0:0:0:
400,256,24618,1,2,3:0:0:0:
104,256,24934,1,0,3:0:0:0:
40,60,25091,1,0,3:0:0:0:
312,88,25249,1,2,3:0:0:0:
448,176,25407,1,0,3:0:0:0:
352,256,25724,1,0,3:0:0:0:
288,288,25882,1,2,3:0:0:0:
80,152,26040,1,0,3:0:0:0:
360,60,26355,1,0,3:0:0:0:
472,156,26513,1,2,3:0:0:0:
456,208,26670,1,0,3:0:0:0:
288,88,26986,1,0,3:0:0:0:
288,332,27144,1,2,3:0:0:0:
100,160,27460,1,0,3:0:0:0:
464,200,27618,1,0,3:0:0:0:
168,200,27776,1,2,3:0:0:0:
400,208,27935,1,0,3:0:0:0:
368,44,28249,1,0,3:0:0:0:
304,52,28407,1,2,3:0:0:0:
256,240,28723,1,0,3:0:0:0:
136,104,28881,1,2,3:0:0:0:
304,272,29197,1,0,3:0:0:0:
368,232,29355,1,0,3:0:0:0:
360,96,29513,1,2,3:0:0:0:
96,192,29670,1,2,3:0:0:0:
192,192,29986,1,0,3:0:0:0:
280,96,30144,1,0,3:0:0:0:
208,72,30302,1,2,3:0:0:0:
360,184,30460,1,0,3:0:0:0:
472,120,30776,1,2,3:0:0:0:
328,56,30934,1,0,3:0:0:0:
280,288,31091,1,0,3:0:0:0:
392,168,31407,1,0,3:0:0:0:
424,96,31565,1,2,3:0:0:0:
416,264,31723,1,0,3:0:0:0:
448,160,32039,1,0,3:0:0:0:
280,248,32197,1,2,3:0:0:0:
224,88,32513,1,0,3:0:0:0:
376,264,32670,1,0,3:0:0:0:
384,160,32828,1,2,3:0:0:0:
128,96,32987,1,0,3:0:0:0:
456,72,33303,1,2,3:0:0:0:
384,144,33461,1,0,3:0:0:0:
352,272,33776,1,0,3:0:0:0:
224,160,33934,1,2,3:0:0:0:
160,120,34249,1,0,3:0:0:0:
264,80,34407,1,0,3:0:0:0:
432,88,34566,1,2,3:0:0:0:
168,264,34723,1,2,3:0:0:0:
224,128,35039,1,0,3:0:0:0:
400,208,35197,1,0,3:0:0:0:
144,168,35355,1,2,3:0:0:0:
472,120,35513,1,0,3:0:0:0:
304,272,35828,1,0,3:0:0:0:
256,96,35986,1,2,3:0:0:0:
344,80,36461,1,0,3:0:0:0:
232,96,36619,1,2,3:0:0:0:
376,240,36777,1,0,3:0:0:0:
328,120,37092,1,0,3:0:0:0:
400,152,37249,1,2,3:0:0:0:
440,88,37565,1,0,3:0:0:0:
96,72,37882,1,2,0:0:0:0:
240,96,38040,1,0,0:0:0:0:
384,280,38514,1,2,0:0:0:0:
160,112,38670,1,2,3:0:0:0:
104,176,38828,1,0,3:0:0:0:
184,240,38986,1,2,3:0:0:0:
328,88,39302,1,0,3:0:0:0:
120,96,39460,1,0,3:0:0:0:
432,144,39618,1,2,3:0:0:0:
384,272,39776,1,2,3:0:0:0:
208,80,40092,1,0,0:0:0:0:
112,64,40408,5,0,0:0:0:0:
272,160,40566,1,2,0:0:0:0:
304,176,40882,1,2,0:0:0:0:
144,176,41198,1,0,0:0:0:0:
264,120,41514,1,0,3:0:0:0:
424,144,41671,1,2,0:0:0:0:
192,224,41829,1,0,3:0:0:0:
176,56,42145,1,0,0:0:0:0:
168,112,42303,1,2,0:0:0:0:
104,168,42619,1,0,0:0:0:0:
144,224,42777,1,0,0:0:0:0:
328,112,42935,1,2,0:0:0:0:
104,80,43092,1,0,0:0:0:0:
192,64,43408,1,2,0:0:0:0:
376,304,43724,1,0,0:0:0:0:
392,184,44040,1,0,0:0:0:0:
88,96,44198,1,2,0:0:0:0:
160,240,44356,1,0,0:0:0:0:
320,272,44671,1,0,0:0:0:0:
152,136,44825,1,2,0:0:0:0:
352,144,45145,1,0,0:0:0:0:
464,64,45303,1,0,0:0:0:0:
48,256,45461,1,2,0:0:0:0:
152,280,45619,1,0,0:0:0:0:
400,160,46092,1,2,0:0:0:0:
192,176,46250,1,0,0:0:0:0:
96,96,46408,1,0,0:0:0:0:
312,88,46566,1,2,0:0:0:0:
104,208,46882,1,0,0:0:0:0:
224,128,47198,1,0,0:0:0:0:
184,264,47356,1,2,0:0:0:0:
96,192,47671,1,0,0:0:0:0:
280,256,47829,1,0,0:0:0:0:
408,192,47987,1,2,0:0:0:0:
224,40,48145,1,0,0:0:0:0:
160,136,48461,1,0,0:0:0:0:
424,96,48619,1,2,0:0:0:0:
256,192,48935,1,0,0:0:0:0:
160,176,49092,1,0,0:0:0:0:
304,40,49250,1,2,0:0:0:0:
80,144,49408,1,0,0:0:0:0:
352,80,49724,1,0,0:0:0:0:
296,240,49882,1,2,0:0:0:0:
240,280,50198,1,0,0:0:0:0:
272,88,50356,1,2,0:0:0:0:
96,248,50671,1,0,0:0:0:0:
192,104,50829,1,2,0:0:0:0:
96,128,50987,1,0,0:0:0:0:
384,192,51303,1,0,0:0:0:0:
64,240,51619,1,0,0:0:0:0:
96,88,51777,1,2,0:0:0:0:
240,88,51935,1,0,0:0:0:0:
232,224,52250,1,0,0:0:0:0:
120,240,52408,1,2,0:0:0:0:
176,264,52724,1,0,0:0:0:0:
344,112,52882,1,0,0:0:0:0:
144,176,53040,1,2,0:0:0:0:
56,104,53514,1,0,0:0:0:0:
232,80,53671,1,2,0:0:0:0:
304,112,53987,1,0,0:0:0:0:
392,208,54145,1,0,0:0:0:0:
192,96,54303,1,2,0:0:0:0:
72,128,54461,1,0,0:0:0:0:
280,288,54777,1,0,0:0:0:0:
312,184,54935,1,2,0:0:0:0:
336,128,55408,1,0,0:0:0:0:
72,192,55566,1,2,0:0:0:0:
224,240,55724,1,0,0:0:0:0:
88,64,56040,1,0,0:0:0:0:
336,144,56356,1,2,0:0:0:0:
64,176,56514,1,0,0:0:0:0:
224,64,56671,1,2,0:0:0:0:
440,80,56987,1,0,0:0:0:0:
160,328,57303,1,0,0:0:0:0:
136,208,57461,1,2,0:0:0:0:
328,104,57777,1,0,0:0:0:0:
352,224,58092,1,0,0:0:0:0:
128,208,58250,1,2,0:0:0:0:
64,152,58566,1,0,0:0:0:0:
128,216,59040,1,0,0:0:0:0:
120,280,59356,1,2,0:0:0:0:
256,112,59514,1,0,0:0:0:0:
352,64,59829,1,0,0:0:0:0:
272,240,59987,1,2,0:0:0:0:
192,144,60303,1,4,0:0:0:0:
144,128,60619,1,0,0:0:0:0:
320,144,60935,1,2,0:0:0:0:
144,168,61566,1,0,0:0:0:0:
256,144,61724,1,0,0:0:0:0:
144,168,61882,1,0,0:0:0:0:
264,152,62198,1,2,0:0:0:0:
264,128,62356,1,2,0:0:0:0:
120,104,62829,1,0,0:0:0:0:
120,112,63145,1,0,0:0:0:0:
296,192,63461,1,2,0:0:0:0:
296,144,63619,1,2,0:0:0:0:
160,160,64092,1,0,0:0:0:0:
344,96,64408,1,0,0:0:0:0:
312,120,64882,1,4,0:0:0:0:
224,136,65356,1,4,0:0:0:0:
344,288,65671,1,0,0:0:0:0:
184,128,65987,1,2,0:0:0:0:
216,176,66303,1,2,0:0:0:0:
192,96,66461,1,2,0:0:0:0:
112,168,66619,1,0,0:0:0:0:
280,240,66935,1,0,0:0:0:0:
128,200,67250,1,2,0:0:0:0:
480,152,67566,1,2,0:0:0:0:
416,80,67724,1,2,0:0:0:0:
296,272,67882,1,0,0:0:0:0:
104,136,68198,1,0,0:0:0:0:
336,80,68514,1,2,0:0:0:0:
416,224,68829,1,0,0:0:0:0:
248,248,68987,1,0,0:0:0:0:
136,224,69303,1,0,0:0:0:0:
256,128,69619,1,0,0:0:0:0:
256,128,69935,1,4,0:0:0:0:
128,80,70250,1,2,0:0:0:0:
216,248,70408,1,4,0:0:0:0:
112,176,70724,1,0,0:0:0:0:
296,128,71040,1,2,0:0:0:0:
176,144,71198,1,2,0:0:0:0:
296,272,71671,1,0,0:0:0:0:
168,128,71987,1,0,0:0:0:0:
256,136,72303,1,2,0:0:0:0:
168,248,72935,1,0,0:0:0:0:
240,216,73250,1,0,0:0:0:0:
408,152,73566,1,2,0:0:0:0:
112,160,74040,1,0,0:0:0:0:
128,240,74198,1,0,0:0:0:0:
192,232,74514,1,0,0:0:0:0:
88,104,74987,1,4,0:0:0:0:
192,160,75461,1,0,0:0:0:0:
328,112,75777,1,0,0:0:0:0:
224,248,76092,1,0,0:0:0:0:
88,128,76408,1,0,0:0:0:0:
392,160,76724,1,0,0:0:0:0:
152,88,76882,1,2,0:0:0:0:
304,184,77040,1,0,0:0:0:0:
128,192,77356,1,0,0:0:0:0:
320,96,77514,1,2,0:0:0:0:
208,232,77671,1,0,0:0:0:0:
440,200,77987,1,0,0:0:0:0:
216,112,78145,1,2,0:0:0:0:
264,112,78303,1,2,0:0:0:0:
352,112,78619,1,2,0:0:0:0:
144,192,79092,1,4,0:0:0:0:
112,120,79724,1,6,0:0:0:0:
128,240,80198,1,2,0:0:0:0:
160,144,80356,1,2,0:0:0:0:
280,120,80514,1,2,0:0:0:0:
160,192,81145,1,0,0:0:0:0:
224,120,81461,1,6,0:0:0:0:
216,112,81777,1,0,0:0:0:0:
216,112,82092,1,0,0:0:0:0:
120,256,82250,1,2,0:0:0:0:
168,120,82408,1,0,0:0:0:0:
104,152,82724,1,0,0:0:0:0:
192,208,83040,1,0,0:0:0:0:
296,64,83198,1,2,0:0:0:0:
336,112,83356,1,0,0:0:0:0:
456,280,83671,1,0,0:0:0:0:
96,96,83829,1,2,0:0:0:0:
224,96,83987,1,0,0:0:0:0:
176,160,84145,1,2,0:0:0:0:
120,232,84303,1,0,0:0:0:0:
360,96,84619,1,0,0:0:0:0:
352,224,84777,1,2,0:0:0:0:
256,280,84935,1,0,0:0:0:0:
112,96,85250,1,0,0:0:0:0:
240,96,85408,1,2,0:0:0:0:
104,256,85566,1,0,0:0:0:0:
376,88,85882,1,0,0:0:0:0:
288,136,86040,1,2,0:0:0:0:
392,296,86198,1,0,0:0:0:0:
96,96,86514,1,2,0:0:0:0:
128,240,86829,1,0,0:0:0:0:
352,88,87145,1,0,0:0:0:0:
168,176,87303,1,2,0:0:0:0:
272,232,87461,1,0,0:0:0:0:
224,128,87777,1,0,0:0:0:0:
288,216,87935,1,2,0:0:0:0:
232,128,88092,1,0,0:0:0:0:
88,240,88250,1,2,0:0:0:0:
232,128,88408,1,0,0:0:0:0:
224,64,88566,1,2,0:0:0:0:
136,136,88724,1,0,0:0:0:0:
208,216,89040,1,0,0:0:0:0:
88,232,89198,1,2,0:0:0:0:
368,120,89356,1,0,0:0:0:0:
328,192,89671,1,0,0:0:0:0:
200,224,89829,1,2,0:0:0:0:
96,136,89987,1,0,0:0:0:0:
416,328,90145,1,2,0:0:0:0:
64,64,90461,1,2,0:0:0:0:
160,160,90619,1,0,0:0:0:0:
176,72,90935,1,2,0:0:0:0:
400,80,91092,1,0,0:0:0:0:
384,88,91250,1,0,0:0:0:0:
288,144,91566,1,6,0:0:0:0:
128,160,91882,1,0,0:0:0:0:
224,104,92198,1,0,0:0:0:0:
400,80,92356,1,2,0:0:0:0:
128,88,92514,1,0,0:0:0:0:
176,264,92671,1,2,0:0:0:0:
64,248,92987,1,2,0:0:0:0:
216,160,93145,1,0,0:0:0:0:
160,152,93303,1,2,0:0:0:0:
448,112,93619,1,2,0:0:0:0:
288,144,93777,1,0,0:0:0:0:
176,248,93935,1,2,0:0:0:0:
120,208,94092,1,0,0:0:0:0:
216,160,94408,1,0,0:0:0:0:
64,136,94566,1,2,0:0:0:0:
168,96,94724,1,0,0:0:0:0:
280,96,94882,1,2,0:0:0:0:
280,96,95198,1,2,0:0:0:0:
352,240,95356,1,0,0:0:0:0:
384,72,95514,1,2,0:0:0:0:
272,176,95829,1,2,0:0:0:0:
80,240,95987,1,0,0:0:0:0:
176,184,96145,1,2,0:0:0:0:
216,72,96303,1,0,0:0:0:0:
80,64,96619,1,0,0:0:0:0:
168,104,96935,1,0,0:0:0:0:
368,80,97250,1,2,0:0:0:0:
312,240,97408,1,0,0:0:0:0:
296,208,97724,1,0,0:0:0:0:
72,128,97882,1,2,0:0:0:0:
384,104,98198,1,0,0:0:0:0:
136,216,98514,1,2,0:0:0:0:
296,208,98671,1,0,0:0:0:0:
144,112,98987,1,0,0:0:0:0:
368,144,99145,1,2,0:0:0:0:
440,120,99461,1,0,0:0:0:0:
312,56,99619,1,0,0:0:0:0:
280,192,99777,1,2,0:0:0:0:
48,240,99935,1,0,0:0:0:0:
248,72,100250,1,0,0:0:0:0:
144,208,100408,1,2,0:0:0:0:
80,128,100724,1,0,0:0:0:0:
256,272,100882,1,2,0:0:0:0:
336,184,101040,1,2,0:0:0:0:
352,64,101356,1,0,0:0:0:0:
432,128,101514,1,2,0:0:0:0:
240,264,101671,1,0,0:0:0:0:
208,144,101987,5,6,0:0:0:0:
144,160,112092,5,0,0:0:0:0:
160,184,112566,1,0,0:0:0:0:
280,184,113356,1,0,0:0:0:0:
128,120,113671,1,0,0:0:0:0:
120,272,114145,1,0,0:0:0:0:
352,216,114619,1,0,0:0:0:0:
368,88,115092,1,0,0:0:0:0:
136,192,115882,1,0,0:0:0:0:
208,192,116198,1,0,0:0:0:0:
400,104,116671,1,0,0:0:0:0:
264,312,117145,1,0,0:0:0:0:
328,184,117461,1,0,0:0:0:0:
392,112,117777,1,0,0:0:0:0:
136,224,118092,1,0,0:0:0:0:
136,80,118408,1,0,0:0:0:0:
272,128,118566,1,2,0:0:0:0:
408,72,118724,1,0,0:0:0:0:
432,232,119040,1,0,0:0:0:0:
256,192,119198,1,2,0:0:0:0:
152,240,119356,1,0,0:0:0:0:
128,112,119671,1,0,0:0:0:0:
336,112,119829,1,0,0:0:0:0:
360,272,119987,1,0,0:0:0:0:
184,272,120303,1,0,0:0:0:0:
136,88,120461,1,0,0:0:0:0:
440,48,120619,1,0,0:0:0:0:
104,152,120935,1,0,0:0:0:0:
200,176,121092,1,0,0:0:0:0:
240,184,121250,1,2,0:0:0:0:
200,64,121408,1,2,0:0:0:0:
416,224,121566,1,0,0:0:0:0:
256,152,121882,1,6,0:0:0:0:
288,168,122514,1,2,0:0:0:0:
224,264,122671,1,0,0:0:0:0:
208,64,123145,1,2,0:0:0:0:
304,208,123461,1,0,0:0:0:0:
168,176,123777,1,2,0:0:0:0:
208,208,123935,1,0,0:0:0:0:
400,104,124408,1,2,0:0:0:0:
264,176,124724,1,0,0:0:0:0:
216,160,124882,1,0,0:0:0:0:
384,104,125040,1,2,0:0:0:0:
112,104,125198,1,0,0:0:0:0:
200,240,125514,5,0,0:0:0:0:
400,200,125671,1,2,0:0:0:0:
352,240,125987,1,0,0:0:0:0:
232,144,126145,1,0,0:0:0:0:
152,72,126303,1,2,0:0:0:0:
424,88,126461,1,0,0:0:0:0:
288,96,126935,1,2,0:0:0:0:
128,104,127250,1,0,0:0:0:0:
328,192,127566,1,2,0:0:0:0:
136,176,127724,1,0,0:0:0:0:
256,248,128040,1,0,0:0:0:0:
296,128,128198,1,2,0:0:0:0:
80,128,128356,1,0,0:0:0:0:
264,208,128671,1,0,0:0:0:0:
344,176,128829,1,2,0:0:0:0:
128,248,128987,1,0,0:0:0:0:
368,112,129461,1,2,0:0:0:0:
232,96,129777,1,0,0:0:0:0:
208,192,129935,1,2,0:0:0:0:
88,120,130250,1,0,0:0:0:0:
176,240,130566,1,0,0:0:0:0:
352,256,130724,1,2,0:0:0:0:
184,104,131040,1,0,0:0:0:0:
232,224,131197,1,2,0:0:0:0:
296,128,131514,1,0,0:0:0:0:
120,216,131829,1,2,0:0:0:0:
312,200,131986,1,0,0:0:0:0:
24,176,132303,1,0,0:0:0:0:
432,112,132619,1,2,0:0:0:0:
296,240,132777,1,0,0:0:0:0:
104,64,133250,1,2,0:0:0:0:
192,208,133408,1,0,0:0:0:0:
88,208,133566,1,0,0:0:0:0:
208,104,133882,1,2,0:0:0:0:
88,88,134040,1,0,0:0:0:0:
408,96,134356,1,0,0:0:0:0:
328,184,134514,1,2,0:0:0:0:
272,96,134829,1,0,0:0:0:0:
256,96,134987,1,0,0:0:0:0:
152,120,135145,1,2,0:0:0:0:
128,208,135303,1,0,0:0:0:0:
208,240,135619,1,0,0:0:0:0:
432,136,135777,1,2,0:0:0:0:
472,256,136092,1,0,0:0:0:0:
136,136,136250,1,0,0:0:0:0:
208,264,136408,1,2,0:0:0:0:
296,264,136566,1,0,0:0:0:0:
104,248,136881,1,0,0:0:0:0:
176,184,137039,1,2,0:0:0:0:
40,152,137354,1,0,0:0:0:0:
280,224,137670,1,0,0:0:0:0:
440,160,137828,1,2,0:0:0:0:
424,80,138145,1,0,0:0:0:0:
312,80,138303,1,2,0:0:0:0:
256,144,138619,1,0,0:0:0:0:
88,112,138935,1,2,0:0:0:0:
328,144,139092,1,0,0:0:0:0:
328,96,139408,1,0,0:0:0:0:
152,96,139566,1,2,0:0:0:0:
104,88,139881,1,0,0:0:0:0:
152,176,140040,1,2,0:0:0:0:
400,112,140198,1,2,0:0:0:0:
64,216,140514,1,0,0:0:0:0:
224,80,140671,1,2,0:0:0:0:
304,176,140829,1,2,0:0:0:0:
176,240,141144,1,0,0:0:0:0:
40,192,141303,1,0,0:0:0:0:
304,192,141461,1,0,0:0:0:0:
144,168,141777,1,2,0:0:0:0:
272,96,141933,1,2,0:0:0:0:
40,248,142092,1,0,0:0:0:0:
184,80,142408,1,0,0:0:0:0:
120,176,142724,1,2,0:0:0:0:
248,224,142882,1,0,0:0:0:0:
384,280,143198,1,0,0:0:0:0:
64,80,143356,1,2,0:0:0:0:
144,168,143671,1,0,0:0:0:0:
392,112,143829,1,2,0:0:0:0:
384,248,144145,1,0,0:0:0:0:
336,144,144461,1,0,0:0:0:0:
392,72,144619,1,2,0:0:0:0:
192,112,144935,1,0,0:0:0:0:
128,144,145092,1,0,0:0:0:0:
384,184,145250,1,2,0:0:0:0:
184,208,145408,1,0,0:0:0:0:
272,104,145724,1,0,0:0:0:0:
360,112,145882,1,2,0:0:0:0:
312,192,146198,1,0,0:0:0:0:
480,152,146514,1,2,0:0:0:0:
80,128,146671,1,0,0:0:0:0:
96,224,146987,1,0,0:0:0:0:
448,224,147145,1,2,0:0:0:0:
256,264,147461,1,0,0:0:0:0:
304,136,147777,1,2,0:0:0:0:
120,96,147935,1,0,0:0:0:0:
176,160,148249,1,0,0:0:0:0:
424,184,148408,1,2,0:0:0:0:
168,232,148724,1,0,0:0:0:0:
80,232,148882,1,0,0:0:0:0:
272,120,149040,1,2,0:0:0:0:
336,176,149198,1,0,0:0:0:0:
144,144,149514,1,0,0:0:0:0:
184,248,149671,1,2,0:0:0:0:
352,192,149987,1,2,0:0:0:0:
120,208,150301,1,0,0:0:0:0:
288,136,150459,1,2,0:0:0:0:
288,136,150935,1,2,0:0:0:0:
64,248,151250,1,0,0:0:0:0:
168,176,151407,1,2,0:0:0:0:
176,120,151566,1,2,0:0:0:0:
168,256,151724,1,0,0:0:0:0:
288,264,151882,1,0,0:0:0:0:
304,128,152198,1,2,0:0:0:0:
376,224,152514,1,0,0:0:0:0:
96,104,152829,1,2,0:0:0:0:
216,216,153301,1,0,0:0:0:0:
328,192,153459,1,2,0:0:0:0:
456,136,153777,1,0,0:0:0:0:
224,120,154091,1,2,0:0:0:0:
88,168,154250,1,0,0:0:0:0:
120,96,154722,1,2,0:0:0:0:
112,256,155040,1,0,0:0:0:0:
272,208,155198,1,0,0:0:0:0:
512,64,155356,1,2,0:0:0:0:
80,160,155829,1,0,0:0:0:0:
432,184,155987,1,2,0:0:0:0:
248,88,156303,1,0,0:0:0:0:
288,120,156617,1,2,0:0:0:0:
280,120,157092,1,0,0:0:0:0:
48,176,157250,1,2,0:0:0:0:
232,272,157566,1,0,0:0:0:0:
128,128,158040,1,0,0:0:0:0:
240,256,158514,1,2,0:0:0:0:
152,120,158829,1,0,0:0:0:0:
144,184,158987,1,2,0:0:0:0:
200,128,159303,1,0,0:0:0:0:
200,256,159777,1,0,0:0:0:0:
368,168,160092,1,2,0:0:0:0:
248,96,160566,1,2,0:0:0:0:
64,64,161040,1,2,0:0:0:0:
376,96,161198,1,2,0:0:0:0:
104,184,162619,1,2,0:0:0:0:
64,96,163724,1,2,0:0:0:0:
40,224,164198,1,2,0:0:0:0:
168,280,164671,1,2,0:0:0:0:
224,168,165145,1,2,0:0:0:0:
80,224,165619,1,0,0:0:0:0:
432,112,166092,1,2,0:0:0:0:
80,144,166566,1,0,0:0:0:0:
320,144,167040,1,2,0:0:0:0:
0,48,167514,2,0,B|696:-80|688:352|448:392|-184:312,1,1528.33333333333
