osu file format v14

[General]
AudioFilename: audio.mp3
AudioLeadIn: 0
PreviewTime: -1
Countdown: 1
SampleSet: Normal
StackLeniency: 0.7
Mode: 1
LetterboxInBreaks: 0
WidescreenStoryboard: 0

[Editor]
DistanceSpacing: 0.5
BeatDivisor: 2
GridSize: 8
TimelineZoom: 2.6

[Metadata]
Title:Sizumu miyako
TitleUnicode:Sizumu miyako
Artist:Toorun12
ArtistUnicode:Toorun12
Creator:Toorun12
Version:Futsuu
Source:
Tags:
BeatmapID:1355598
BeatmapSetID:639140

[Difficulty]
HPDrainRate:6
CircleSize:5
OverallDifficulty:3
ApproachRate:5
SliderMultiplier:1.4
SliderTickRate:4

[Events]
//Background and Video events
0,0,"沈む都.png",0,0
//Break Periods
2,102187,110892
//Storyboard Layer 0 (Background)
//Storyboard Layer 1 (Fail)
//Storyboard Layer 2 (Pass)
//Storyboard Layer 3 (Foreground)
//Storyboard Sound Samples

[TimingPoints]
0,315.789473684211,4,1,0,100,1,0
7574,315.789473684211,3,1,0,100,1,0
8510,315.789473684211,4,1,0,60,1,0
9772,-133.333333333333,4,1,0,60,0,0
14824,-100,4,1,0,70,0,0
17352,-100,4,1,0,75,0,0
19878,-100,4,1,0,80,0,0
40088,-100,4,1,0,75,0,0
60588,-142.857142857143,4,1,0,50,0,0
75456,-117.647058823529,4,1,0,65,0,0
77982,-100,4,1,0,70,0,0
81773,315.789473684211,4,1,0,85,1,1
90615,315.789473684211,4,1,0,75,1,0
91878,315.789473684211,4,1,0,90,1,1
96930,-100,4,1,0,75,0,1
99456,-100,4,1,0,85,0,1
101983,315.789473684211,4,1,0,60,1,0
103088,-133.333333333333,4,1,0,60,0,0
106983,-200,4,1,0,55,0,0
112061,-133.333333333333,4,1,0,65,0,0
117114,-100,4,1,0,70,0,0
122193,315.789473684211,4,1,0,90,1,1
142403,315.789473684211,4,1,0,85,1,0
147455,-100,4,1,0,75,0,0
149981,-100,4,1,0,65,0,0
152508,-100,4,1,0,55,0,0
155034,-100,4,1,0,45,0,0
157560,-100,4,1,0,40,0,0
160087,-100,4,1,0,35,0,0
163718,315.789473684211,3,1,0,30,1,0

[HitObjects]
168,204,9776,5,0,3:0:0:0:
284,160,10881,5,0,3:0:0:0:
284,172,11828,1,0,3:0:0:0:
248,192,12302,1,0,3:0:0:0:
308,76,13091,1,0,3:0:0:0:
224,120,13565,1,0,3:0:0:0:
24,212,13882,1,0,3:0:0:0:
84,80,14828,1,0,3:0:0:0:
376,292,15144,1,2,3:0:0:0:
176,80,15776,1,2,3:0:0:0:
60,184,16407,1,2,3:0:0:0:
276,76,17040,1,2,3:0:0:0:
56,188,17355,1,0,3:0:0:0:
328,100,17670,1,2,3:0:0:0:
448,84,18303,1,2,3:0:0:0:
336,52,18618,1,0,3:0:0:0:
240,100,18935,1,0,3:0:0:0:
312,256,19250,1,0,0:0:0:0:
432,100,19566,1,6,3:0:0:0:
4,168,19881,1,0,3:0:0:0:
176,88,20197,1,2,3:0:0:0:
332,264,21145,1,0,3:0:0:0:
472,32,21461,1,2,3:0:0:0:
140,148,22407,1,0,3:0:0:0:
384,136,22723,1,2,3:0:0:0:
400,144,23670,1,0,3:0:0:0:
312,156,23987,1,2,3:0:0:0:
104,256,24934,1,0,3:0:0:0:
312,88,25249,1,2,3:0:0:0:
80,152,26197,1,0,3:0:0:0:
472,156,26513,1,2,3:0:0:0:
100,160,27460,1,0,3:0:0:0:
168,200,27776,1,2,3:0:0:0:
256,240,28723,1,0,3:0:0:0:
80,248,29040,1,2,3:0:0:0:
96,192,29670,1,2,3:0:0:0:
192,192,29986,1,0,3:0:0:0:
208,72,30302,1,2,3:0:0:0:
472,120,30935,1,2,3:0:0:0:
80,96,31249,1,0,3:0:0:0:
424,96,31565,1,2,3:0:0:0:
448,160,32198,1,2,3:0:0:0:
224,88,32513,1,0,3:0:0:0:
384,160,32828,1,2,3:0:0:0:
456,72,33461,1,2,3:0:0:0:
352,272,33776,1,0,3:0:0:0:
448,224,34092,1,2,3:0:0:0:
168,264,34723,1,2,3:0:0:0:
224,128,35039,1,0,3:0:0:0:
144,168,35355,1,2,3:0:0:0:
304,272,35987,1,2,3:0:0:0:
344,80,36303,1,0,3:0:0:0:
376,240,36618,1,2,3:0:0:0:
400,152,37250,1,2,3:0:0:0:
440,88,37565,1,0,3:0:0:0:
96,72,37882,1,2,0:0:0:0:
384,280,38514,1,2,0:0:0:0:
104,176,38828,1,0,3:0:0:0:
184,240,39145,1,2,3:0:0:0:
384,272,39776,1,2,3:0:0:0:
208,80,40092,1,0,0:0:0:0:
272,160,40566,1,2,0:0:0:0:
232,96,41356,1,0,3:0:0:0:
192,224,41829,1,0,3:0:0:0:
144,224,42619,1,0,0:0:0:0:
328,112,43092,1,2,0:0:0:0:
104,168,43882,1,0,0:0:0:0:
160,240,44356,1,0,0:0:0:0:
416,240,45145,1,0,0:0:0:0:
152,280,45619,1,2,0:0:0:0:
208,264,46408,1,0,0:0:0:0:
104,208,46882,1,0,0:0:0:0:
280,256,47671,1,0,0:0:0:0:
408,192,48145,1,2,0:0:0:0:
256,192,48935,1,0,0:0:0:0:
80,144,49408,1,0,0:0:0:0:
96,248,50198,1,0,0:0:0:0:
240,280,50671,1,2,0:0:0:0:
288,224,51461,1,0,0:0:0:0:
240,88,51935,1,0,0:0:0:0:
120,72,52724,1,0,0:0:0:0:
144,176,53198,1,2,0:0:0:0:
392,208,53987,1,0,0:0:0:0:
72,128,54461,1,0,0:0:0:0:
144,96,55250,1,0,0:0:0:0:
72,192,55724,1,2,0:0:0:0:
64,176,56514,1,0,0:0:0:0:
440,80,56987,1,0,0:0:0:0:
88,56,57777,1,0,0:0:0:0:
128,208,58250,1,2,0:0:0:0:
128,216,59040,1,0,0:0:0:0:
256,112,59514,1,0,0:0:0:0:
272,240,59987,1,2,0:0:0:0:
192,144,60303,1,4,0:0:0:0:
320,144,60935,1,2,0:0:0:0:
144,168,61566,1,0,0:0:0:0:
144,168,61882,1,0,0:0:0:0:
264,152,62198,1,2,0:0:0:0:
120,104,62829,1,0,0:0:0:0:
296,144,63461,1,2,0:0:0:0:
160,160,64092,1,0,0:0:0:0:
312,120,64882,1,4,0:0:0:0:
224,136,65356,1,4,0:0:0:0:
184,128,65987,1,2,0:0:0:0:
112,168,66619,1,0,0:0:0:0:
280,240,66935,1,0,0:0:0:0:
192,96,67250,1,2,0:0:0:0:
296,272,67882,1,0,0:0:0:0:
336,80,68514,1,2,0:0:0:0:
256,128,69987,1,4,0:0:0:0:
216,248,70408,1,4,0:0:0:0:
296,128,71040,1,2,0:0:0:0:
296,272,71671,1,0,0:0:0:0:
168,128,71987,1,0,0:0:0:0:
256,136,72303,1,2,0:0:0:0:
168,248,72935,1,0,0:0:0:0:
408,152,73566,1,2,0:0:0:0:
128,240,74198,1,0,0:0:0:0:
88,104,74987,1,4,0:0:0:0:
192,160,75461,1,0,0:0:0:0:
224,248,76092,1,0,0:0:0:0:
392,160,76724,1,0,0:0:0:0:
304,184,77040,1,0,0:0:0:0:
128,192,77356,1,0,0:0:0:0:
208,232,77671,1,0,0:0:0:0:
440,200,77987,1,0,0:0:0:0:
144,192,79092,1,4,0:0:0:0:
112,120,79724,1,6,0:0:0:0:
224,120,81461,1,6,0:0:0:0:
216,112,81777,1,0,0:0:0:0:
216,112,82092,1,0,0:0:0:0:
168,120,82408,1,0,0:0:0:0:
192,208,83040,1,0,0:0:0:0:
336,112,83356,1,0,0:0:0:0:
456,280,83671,1,0,0:0:0:0:
120,232,84303,1,0,0:0:0:0:
360,96,84619,1,0,0:0:0:0:
256,280,84935,1,0,0:0:0:0:
104,256,85566,1,0,0:0:0:0:
376,88,85882,1,0,0:0:0:0:
392,296,86198,1,0,0:0:0:0:
128,240,86829,1,0,0:0:0:0:
352,88,87145,1,0,0:0:0:0:
272,232,87461,1,0,0:0:0:0:
232,128,88092,1,0,0:0:0:0:
232,128,88408,1,0,0:0:0:0:
136,136,88724,1,0,0:0:0:0:
368,120,89356,1,0,0:0:0:0:
328,192,89671,1,0,0:0:0:0:
96,136,89987,1,0,0:0:0:0:
160,160,90619,1,0,0:0:0:0:
400,80,90934,1,0,0:0:0:0:
288,144,91566,1,6,0:0:0:0:
128,160,91882,1,0,0:0:0:0:
224,104,92198,1,0,0:0:0:0:
128,88,92514,1,0,0:0:0:0:
24,192,92829,1,0,0:0:0:0:
216,160,93145,1,0,0:0:0:0:
88,112,93461,1,0,0:0:0:0:
288,144,93777,1,0,0:0:0:0:
216,160,94408,1,0,0:0:0:0:
168,96,94724,1,0,0:0:0:0:
208,256,95040,1,0,0:0:0:0:
352,240,95356,1,0,0:0:0:0:
432,160,95671,1,0,0:0:0:0:
80,240,95987,1,0,0:0:0:0:
216,72,96303,1,0,0:0:0:0:
168,104,96935,1,0,0:0:0:0:
368,80,97566,1,2,0:0:0:0:
384,104,98198,1,0,0:0:0:0:
136,216,98829,1,2,0:0:0:0:
440,120,99461,1,0,0:0:0:0:
280,192,100092,1,2,0:0:0:0:
80,128,100724,1,0,0:0:0:0:
336,184,101040,1,0,0:0:0:0:
352,64,101356,1,0,0:0:0:0:
208,144,101987,5,6,0:0:0:0:
144,160,112092,5,0,0:0:0:0:
160,184,112566,1,0,0:0:0:0:
280,184,113356,1,0,0:0:0:0:
128,120,113671,1,0,0:0:0:0:
352,216,114619,1,0,0:0:0:0:
368,88,115092,1,0,0:0:0:0:
136,192,115882,1,0,0:0:0:0:
208,192,116198,1,0,0:0:0:0:
264,312,117145,1,0,0:0:0:0:
328,184,117461,1,0,0:0:0:0:
392,112,117777,1,0,0:0:0:0:
136,80,118408,1,0,0:0:0:0:
408,72,118724,1,0,0:0:0:0:
432,232,119040,1,0,0:0:0:0:
128,112,119671,1,0,0:0:0:0:
360,272,119987,1,0,0:0:0:0:
184,272,120303,1,0,0:0:0:0:
440,48,120619,1,0,0:0:0:0:
104,152,120935,1,2,0:0:0:0:
240,184,121250,1,2,0:0:0:0:
88,104,121565,1,2,0:0:0:0:
256,152,121882,1,6,0:0:0:0:
208,120,122198,1,0,0:0:0:0:
288,168,122514,1,2,0:0:0:0:
208,64,123145,1,2,0:0:0:0:
304,208,123461,1,0,0:0:0:0:
168,176,123777,1,2,0:0:0:0:
400,104,124408,1,2,0:0:0:0:
264,176,124724,1,0,0:0:0:0:
384,104,125040,1,2,0:0:0:0:
400,200,125671,1,2,0:0:0:0:
352,240,125987,1,0,0:0:0:0:
152,72,126303,1,2,0:0:0:0:
288,96,126935,1,2,0:0:0:0:
128,104,127250,1,0,0:0:0:0:
328,192,127566,1,2,0:0:0:0:
296,128,128198,1,2,0:0:0:0:
200,192,128514,1,0,0:0:0:0:
344,176,128829,1,2,0:0:0:0:
368,112,129461,1,2,0:0:0:0:
232,96,129777,1,0,0:0:0:0:
208,192,130092,1,2,0:0:0:0:
352,256,130724,1,2,0:0:0:0:
184,104,131040,1,0,0:0:0:0:
232,224,131356,1,2,0:0:0:0:
208,88,131987,1,2,0:0:0:0:
24,176,132303,1,0,0:0:0:0:
432,112,132619,1,2,0:0:0:0:
104,64,133250,1,2,0:0:0:0:
88,208,133566,1,0,0:0:0:0:
208,104,133882,1,2,0:0:0:0:
328,184,134514,1,2,0:0:0:0:
272,96,134829,1,0,0:0:0:0:
152,120,135145,1,2,0:0:0:0:
432,136,135777,1,2,0:0:0:0:
472,256,136092,1,0,0:0:0:0:
208,264,136408,1,2,0:0:0:0:
344,72,137040,1,2,0:0:0:0:
40,152,137356,1,0,0:0:0:0:
176,184,137671,1,2,0:0:0:0:
312,80,138303,1,2,0:0:0:0:
256,144,138619,1,0,0:0:0:0:
88,112,138935,1,2,0:0:0:0:
152,96,139566,1,2,0:0:0:0:
392,224,139882,1,0,0:0:0:0:
400,112,140198,1,2,0:0:0:0:
304,176,140829,1,2,0:0:0:0:
304,192,141144,1,0,0:0:0:0:
40,192,141460,1,0,0:0:0:0:
144,168,141777,1,2,0:0:0:0:
184,80,142408,1,0,0:0:0:0:
120,176,142724,1,2,0:0:0:0:
64,80,143356,1,2,0:0:0:0:
144,168,143671,1,0,0:0:0:0:
216,112,143987,5,2,0:0:0:0:
392,72,144619,1,2,0:0:0:0:
192,112,144935,1,0,0:0:0:0:
384,184,145250,1,2,0:0:0:0:
360,112,145882,1,2,0:0:0:0:
312,192,146198,1,0,0:0:0:0:
480,152,146514,1,2,0:0:0:0:
448,224,147145,1,2,0:0:0:0:
256,264,147461,1,0,0:0:0:0:
304,136,147777,1,2,0:0:0:0:
424,184,148408,1,2,0:0:0:0:
168,232,148724,1,0,0:0:0:0:
272,120,149040,1,2,0:0:0:0:
184,248,149671,1,2,0:0:0:0:
352,192,149987,1,0,0:0:0:0:
464,112,150303,1,2,0:0:0:0:
288,136,150935,1,2,0:0:0:0:
64,248,151250,1,0,0:0:0:0:
176,120,151566,1,2,0:0:0:0:
288,264,151882,1,0,0:0:0:0:
376,224,152514,1,0,0:0:0:0:
96,104,152829,1,2,0:0:0:0:
456,136,153777,1,0,0:0:0:0:
320,80,154091,1,2,0:0:0:0:
112,256,155040,1,0,0:0:0:0:
512,64,155356,1,2,0:0:0:0:
248,88,156303,1,0,0:0:0:0:
288,120,156617,1,2,0:0:0:0:
232,272,157566,1,0,0:0:0:0:
128,128,158040,1,0,0:0:0:0:
152,120,158829,1,0,0:0:0:0:
200,128,159303,1,0,0:0:0:0:
248,96,160091,1,2,0:0:0:0:
96,152,160564,1,2,0:0:0:0:
64,64,161040,1,2,0:0:0:0:
104,184,162619,1,2,0:0:0:0:
64,96,163724,1,2,0:0:0:0:
168,280,164671,1,2,0:0:0:0:
80,224,165619,1,2,0:0:0:0:
80,144,166566,1,2,0:0:0:0:
0,48,167514,2,0,B|696:-80|688:352|448:392|-184:312,1,1528.33333333333
