osu file format v14

[General]
AudioFilename: audio.mp3
AudioLeadIn: 0
PreviewTime: 88040
Countdown: 0
SampleSet: Normal
StackLeniency: 0.7
Mode: 1
LetterboxInBreaks: 0
WidescreenStoryboard: 0

[Editor]
DistanceSpacing: 0.5
BeatDivisor: 4
GridSize: 8
TimelineZoom: 1.4

[Metadata]
Title:My Heart
TitleUnicode:My Heart
Artist:Toorun12
ArtistUnicode:Toorun12
Creator:Toorun12
Version:Muzukashii
Source:
Tags:
BeatmapID:1409099
BeatmapSetID:665828

[Difficulty]
HPDrainRate:6
CircleSize:2
OverallDifficulty:5
ApproachRate:5
SliderMultiplier:1.4
SliderTickRate:1

[Events]
//Background and Video events
0,0,"skyzone44.png",0,0
//Break Periods
//Storyboard Layer 0 (Background)
//Storyboard Layer 1 (Fail)
//Storyboard Layer 2 (Pass)
//Storyboard Layer 3 (Foreground)
//Storyboard Sound Samples

[TimingPoints]
7364,461.538461538462,4,1,0,50,1,0
14287,-83.3333333333333,4,1,0,55,0,0
16479,-66.6666666666667,4,1,0,60,0,0
18440,342.857142857143,4,1,0,65,1,0
40554,-100,4,1,0,55,0,0
61640,-117.647058823529,4,1,0,55,0,0
62154,-181.818181818181,4,1,0,55,0,0
62325,428.571428571429,4,1,0,50,1,0
62539,-117.647058823529,4,1,0,50,0,0
62967,-142.857142857143,4,1,0,50,0,0
76039,-100,4,1,0,50,0,0
88039,387.096774193548,4,1,0,70,1,0
89587,342.857142857143,4,1,0,80,1,1
110158,342.857142857143,4,1,0,65,1,0
130558,-100,4,1,0,50,0,0

[HitObjects]
256,192,7364,5,0,0:0:0:0:
256,192,8056,1,0,0:0:0:0:
256,192,8287,1,2,0:0:0:0:
256,192,9210,1,0,0:0:0:0:
256,192,9556,1,0,0:0:0:0:
256,192,9902,1,0,0:0:0:0:
256,192,10133,1,2,0:0:0:0:
256,192,11056,1,0,0:0:0:0:
256,192,11287,1,0,0:0:0:0:
256,192,11633,1,0,0:0:0:0:
256,192,11979,1,2,0:0:0:0:
256,192,12902,1,0,0:0:0:0:
256,192,13248,1,0,0:0:0:0:
256,192,13594,1,0,0:0:0:0:
256,192,13825,1,2,0:0:0:0:
256,192,14748,1,0,0:0:0:0:
256,192,15210,1,2,0:0:0:0:
256,192,15440,1,0,0:0:0:0:
256,192,15671,1,0,0:0:0:0:
256,192,16017,1,0,0:0:0:0:
256,192,16133,1,2,0:0:0:0:
256,192,16364,1,0,0:0:0:0:
256,192,16594,1,0,0:0:0:0:
256,192,16825,1,2,0:0:0:0:
256,192,17056,1,0,0:0:0:0:
256,192,17287,1,2,0:0:0:0:
256,192,17517,1,0,0:0:0:0:
256,192,17633,1,0,0:0:0:0:
256,192,17748,1,0,0:0:0:0:
256,192,17979,1,6,0:0:0:0:
256,192,18440,1,0,0:0:0:0:
256,192,18782,1,2,0:0:0:0:
256,192,19297,1,0,0:0:0:0:
256,192,19468,1,2,0:0:0:0:
256,192,19811,1,0,0:0:0:0:
256,192,20154,1,2,0:0:0:0:
256,192,20325,1,0,0:0:0:0:
256,192,20668,1,0,0:0:0:0:
256,192,20840,1,2,0:0:0:0:
256,192,21182,1,0,0:0:0:0:
256,192,21525,1,2,0:0:0:0:
256,192,22040,1,0,0:0:0:0:
256,192,22211,1,2,0:0:0:0:
256,192,22554,1,0,0:0:0:0:
256,192,22725,1,0,0:0:0:0:
256,192,22897,1,2,0:0:0:0:
256,192,23411,1,0,0:0:0:0:
256,192,23582,1,2,0:0:0:0:
256,192,23925,1,0,0:0:0:0:
256,192,24268,1,2,0:0:0:0:
256,192,24440,1,0,0:0:0:0:
256,192,24782,1,0,0:0:0:0:
256,192,24954,1,2,0:0:0:0:
256,192,25125,1,2,0:0:0:0:
256,192,25297,1,0,0:0:0:0:
256,192,25640,1,2,0:0:0:0:
256,192,25811,1,0,0:0:0:0:
256,192,25897,1,0,0:0:0:0:
256,192,25982,1,0,0:0:0:0:
256,192,26154,1,2,0:0:0:0:
256,192,26325,1,2,0:0:0:0:
256,192,26497,1,2,0:0:0:0:
256,192,26668,1,0,0:0:0:0:
256,192,27011,1,2,0:0:0:0:
256,192,27182,1,0,0:0:0:0:
256,192,27525,1,0,0:0:0:0:
256,192,27697,1,2,0:0:0:0:
256,192,27868,1,2,0:0:0:0:
256,192,28040,1,0,0:0:0:0:
256,192,28382,1,2,0:0:0:0:
256,192,28554,1,0,0:0:0:0:
256,192,28897,1,0,0:0:0:0:
256,192,29068,1,2,0:0:0:0:
256,192,29411,1,0,0:0:0:0:
256,192,29754,1,2,0:0:0:0:
256,192,30097,1,0,0:0:0:0:
256,192,30268,1,0,0:0:0:0:
256,192,30440,1,2,0:0:0:0:
256,192,30782,1,0,0:0:0:0:
256,192,31125,1,2,0:0:0:0:
256,192,31468,1,0,0:0:0:0:
256,192,31640,1,2,0:0:0:0:
256,192,31811,1,2,0:0:0:0:
256,192,32154,1,0,0:0:0:0:
256,192,32497,1,2,0:0:0:0:
256,192,32840,1,0,0:0:0:0:
256,192,33011,1,2,0:0:0:0:
256,192,33182,1,2,0:0:0:0:
256,192,33354,1,2,0:0:0:0:
256,192,33525,1,0,0:0:0:0:
256,192,33868,1,2,0:0:0:0:
256,192,34040,1,0,0:0:0:0:
256,192,34382,1,0,0:0:0:0:
256,192,34554,1,2,0:0:0:0:
256,192,34897,1,0,0:0:0:0:
256,192,35240,1,2,0:0:0:0:
256,192,35582,1,0,0:0:0:0:
256,192,35754,1,0,0:0:0:0:
256,192,35925,1,2,0:0:0:0:
256,192,36097,1,2,0:0:0:0:
256,192,36268,1,0,0:0:0:0:
256,192,36611,1,2,0:0:0:0:
256,192,36782,1,0,0:0:0:0:
256,192,37297,1,2,0:0:0:0:
256,192,37640,1,0,0:0:0:0:
256,192,37982,1,2,0:0:0:0:
256,192,38497,1,2,0:0:0:0:
256,192,39011,1,2,0:0:0:0:
256,192,39525,1,2,0:0:0:0:
256,192,39868,1,0,0:0:0:0:
256,192,40040,1,2,0:0:0:0:
256,192,40382,1,0,0:0:0:0:
256,192,40725,1,2,0:0:0:0:
256,192,41240,1,0,0:0:0:0:
256,192,41411,1,2,0:0:0:0:
256,192,41754,1,0,0:0:0:0:
256,192,42097,1,2,0:0:0:0:
256,192,42440,1,0,0:0:0:0:
256,192,42611,1,0,0:0:0:0:
256,192,42782,1,2,0:0:0:0:
256,192,43125,1,0,0:0:0:0:
256,192,43468,1,2,0:0:0:0:
256,192,43982,1,0,0:0:0:0:
256,192,44154,1,2,0:0:0:0:
256,192,44497,1,0,0:0:0:0:
256,192,44840,1,2,0:0:0:0:
256,192,45011,1,2,0:0:0:0:
256,192,45182,1,0,0:0:0:0:
256,192,45268,1,0,0:0:0:0:
256,192,45354,1,0,0:0:0:0:
256,192,45525,1,2,0:0:0:0:
256,192,45868,1,0,0:0:0:0:
256,192,46040,1,2,0:0:0:0:
256,192,46211,1,2,0:0:0:0:
256,192,46554,1,0,0:0:0:0:
256,192,46725,1,0,0:0:0:0:
256,192,46897,1,2,0:0:0:0:
256,192,47240,1,0,0:0:0:0:
256,192,47582,1,2,0:0:0:0:
256,192,47754,1,0,0:0:0:0:
256,192,47925,1,0,0:0:0:0:
256,192,48268,1,2,0:0:0:0:
256,192,48611,1,0,0:0:0:0:
256,192,48954,1,2,0:0:0:0:
256,192,49125,1,0,0:0:0:0:
256,192,49297,1,0,0:0:0:0:
256,192,49468,1,0,0:0:0:0:
256,192,49640,1,2,0:0:0:0:
256,192,49982,1,0,0:0:0:0:
256,192,50325,1,2,0:0:0:0:
256,192,50497,1,2,0:0:0:0:
256,192,50668,1,0,0:0:0:0:
256,192,50840,1,2,0:0:0:0:
256,192,51011,1,2,0:0:0:0:
256,192,51182,1,0,0:0:0:0:
256,192,51354,1,0,0:0:0:0:
256,192,51697,1,2,0:0:0:0:
256,192,52211,1,0,0:0:0:0:
256,192,52382,1,2,0:0:0:0:
256,192,52725,1,0,0:0:0:0:
256,192,52897,1,0,0:0:0:0:
256,192,53068,1,2,0:0:0:0:
256,192,53582,1,0,0:0:0:0:
256,192,53754,1,2,0:0:0:0:
256,192,54097,1,0,0:0:0:0:
256,192,54440,1,2,0:0:0:0:
256,192,54611,1,0,0:0:0:0:
256,192,54954,1,0,0:0:0:0:
256,192,55125,1,2,0:0:0:0:
256,192,55468,1,0,0:0:0:0:
256,192,55811,1,2,0:0:0:0:
256,192,55982,1,0,0:0:0:0:
256,192,56154,1,2,0:0:0:0:
256,192,56325,1,0,0:0:0:0:
256,192,56497,1,0,0:0:0:0:
256,192,56668,1,2,0:0:0:0:
256,192,56840,1,0,0:0:0:0:
256,192,57182,1,2,0:0:0:0:
256,192,57354,1,0,0:0:0:0:
256,192,57697,1,0,0:0:0:0:
256,192,57868,1,2,0:0:0:0:
256,192,58211,1,0,0:0:0:0:
256,192,58554,1,2,0:0:0:0:
256,192,58725,1,0,0:0:0:0:
256,192,59240,1,2,0:0:0:0:
256,192,59411,1,2,0:0:0:0:
256,192,59582,1,0,0:0:0:0:
256,192,59925,1,2,0:0:0:0:
256,192,60097,1,2,0:0:0:0:
256,192,60440,1,0,0:0:0:0:
256,192,60611,1,2,0:0:0:0:
256,192,60782,1,0,0:0:0:0:
256,192,60954,1,0,0:0:0:0:
256,192,61040,1,0,0:0:0:0:
256,192,61125,1,0,0:0:0:0:
256,192,61297,1,2,0:0:0:0:
256,192,61468,1,2,0:0:0:0:
256,192,61811,1,0,0:0:0:0:
256,192,61982,1,2,0:0:0:0:
256,192,62325,1,0,0:0:0:0:
256,192,62753,1,2,0:0:0:0:
256,192,63182,1,0,0:0:0:0:
256,192,63396,1,2,0:0:0:0:
256,192,63610,1,2,0:0:0:0:
256,192,63825,1,2,0:0:0:0:
256,192,64253,1,0,0:0:0:0:
256,192,64467,1,2,0:0:0:0:
256,192,64896,1,2,0:0:0:0:
256,192,65110,1,2,0:0:0:0:
256,192,65325,1,0,0:0:0:0:
256,192,65753,1,0,0:0:0:0:
256,192,66182,1,2,0:0:0:0:
256,192,66610,1,0,0:0:0:0:
256,192,66825,1,2,0:0:0:0:
256,192,67039,1,2,0:0:0:0:
256,192,67253,1,2,0:0:0:0:
256,192,67682,1,0,0:0:0:0:
256,192,67896,1,2,0:0:0:0:
256,192,68325,1,2,0:0:0:0:
256,192,68539,1,2,0:0:0:0:
256,192,68753,1,0,0:0:0:0:
256,192,69182,1,0,0:0:0:0:
256,192,69610,1,2,0:0:0:0:
256,192,70039,1,0,0:0:0:0:
256,192,70253,1,2,0:0:0:0:
256,192,70467,1,2,0:0:0:0:
256,192,70682,1,2,0:0:0:0:
256,192,71110,1,0,0:0:0:0:
256,192,71325,1,2,0:0:0:0:
256,192,71753,1,0,0:0:0:0:
256,192,71967,1,2,0:0:0:0:
256,192,72182,1,0,0:0:0:0:
256,192,72396,1,2,0:0:0:0:
256,192,72610,1,0,0:0:0:0:
256,192,73039,1,2,0:0:0:0:
256,192,73467,1,0,0:0:0:0:
256,192,73682,1,0,0:0:0:0:
256,192,73896,1,2,0:0:0:0:
256,192,74110,1,2,0:0:0:0:
256,192,74539,1,0,0:0:0:0:
256,192,74753,1,2,0:0:0:0:
256,192,75182,1,2,0:0:0:0:
256,192,75396,1,2,0:0:0:0:
256,192,75610,1,0,0:0:0:0:
256,192,76039,1,2,0:0:0:0:
256,192,76467,1,2,0:0:0:0:
256,192,76682,1,0,0:0:0:0:
256,192,76896,1,2,0:0:0:0:
256,192,77325,1,2,0:0:0:0:
256,192,77539,1,0,0:0:0:0:
256,192,77753,1,2,0:0:0:0:
256,192,77967,1,0,0:0:0:0:
256,192,78182,1,2,0:0:0:0:
256,192,78396,1,0,0:0:0:0:
256,192,78610,1,2,0:0:0:0:
256,192,78825,1,2,0:0:0:0:
256,192,79039,1,2,0:0:0:0:
256,192,79467,1,2,0:0:0:0:
256,192,79896,1,2,0:0:0:0:
256,192,80110,1,0,0:0:0:0:
256,192,80325,1,2,0:0:0:0:
256,192,80753,1,2,0:0:0:0:
256,192,80967,1,0,0:0:0:0:
256,192,81182,1,2,0:0:0:0:
256,192,81396,1,0,0:0:0:0:
256,192,81610,1,2,0:0:0:0:
256,192,81825,1,0,0:0:0:0:
256,192,81932,1,0,0:0:0:0:
256,192,82039,1,0,0:0:0:0:
256,192,82253,1,2,0:0:0:0:
256,192,82467,1,2,0:0:0:0:
256,192,82896,1,0,0:0:0:0:
256,192,83110,1,0,0:0:0:0:
256,192,83325,1,2,0:0:0:0:
256,192,83753,1,0,0:0:0:0:
256,192,83967,1,2,0:0:0:0:
256,192,84182,1,2,0:0:0:0:
256,192,84610,1,0,0:0:0:0:
256,192,84825,1,2,0:0:0:0:
256,192,85039,1,0,0:0:0:0:
256,192,85253,1,2,0:0:0:0:
256,192,85467,1,0,0:0:0:0:
256,192,85682,1,2,0:0:0:0:
256,192,85896,1,2,0:0:0:0:
256,192,86110,1,0,0:0:0:0:
216,40,86325,2,0,B|456:48|480:224|352:368|176:272,1,560
256,192,88232,1,2,0:0:0:0:
256,192,88426,1,2,0:0:0:0:
256,192,88813,1,0,0:0:0:0:
256,192,89200,1,6,0:0:0:0:
256,192,89587,1,0,0:0:0:0:
256,192,89929,1,2,0:0:0:0:
256,192,90101,1,0,0:0:0:0:
256,192,90444,1,0,0:0:0:0:
256,192,90615,1,2,0:0:0:0:
256,192,90958,1,0,0:0:0:0:
256,192,91301,1,2,0:0:0:0:
256,192,91472,1,2,0:0:0:0:
256,192,91644,1,0,0:0:0:0:
256,192,91729,1,0,0:0:0:0:
256,192,91815,1,0,0:0:0:0:
256,192,91987,1,2,0:0:0:0:
256,192,92329,1,0,0:0:0:0:
256,192,92672,1,2,0:0:0:0:
256,192,92844,1,0,0:0:0:0:
256,192,93187,1,0,0:0:0:0:
256,192,93358,1,2,0:0:0:0:
256,192,93529,1,0,0:0:0:0:
256,192,93701,1,0,0:0:0:0:
256,192,94044,1,2,0:0:0:0:
256,192,94215,1,0,0:0:0:0:
256,192,94301,1,0,0:0:0:0:
256,192,94387,1,0,0:0:0:0:
256,192,94558,1,0,0:0:0:0:
256,192,94729,1,2,0:0:0:0:
256,192,95072,1,0,0:0:0:0:
256,192,95415,1,2,0:0:0:0:
256,192,95758,1,0,0:0:0:0:
256,192,95929,1,0,0:0:0:0:
256,192,96101,1,2,0:0:0:0:
256,192,96444,1,0,0:0:0:0:
256,192,96529,1,0,0:0:0:0:
256,192,96615,1,0,0:0:0:0:
256,192,96787,1,2,0:0:0:0:
256,192,96958,1,2,0:0:0:0:
256,192,97301,1,0,0:0:0:0:
256,192,97472,1,2,0:0:0:0:
256,192,97815,1,0,0:0:0:0:
256,192,97987,1,0,0:0:0:0:
256,192,98158,1,2,0:0:0:0:
256,192,98329,1,2,0:0:0:0:
256,192,98672,1,0,0:0:0:0:
256,192,98844,1,2,0:0:0:0:
256,192,99015,1,2,0:0:0:0:
256,192,99187,1,0,0:0:0:0:
256,192,99272,1,0,0:0:0:0:
256,192,99358,1,0,0:0:0:0:
256,192,99529,1,2,0:0:0:0:
256,192,99701,1,2,0:0:0:0:
256,192,100044,1,0,0:0:0:0:
256,192,100215,1,6,0:0:0:0:
256,192,100558,1,0,0:0:0:0:
256,192,100901,1,2,0:0:0:0:
256,192,101244,1,0,0:0:0:0:
256,192,101415,1,0,0:0:0:0:
256,192,101587,1,2,0:0:0:0:
256,192,101929,1,0,0:0:0:0:
256,192,102272,1,2,0:0:0:0:
256,192,102444,1,0,0:0:0:0:
256,192,102787,1,0,0:0:0:0:
256,192,102958,1,2,0:0:0:0:
256,192,103301,1,4,0:0:0:0:
256,192,103644,1,2,0:0:0:0:
256,192,103815,1,4,0:0:0:0:
256,192,104158,1,2,0:0:0:0:
256,192,104329,1,4,0:0:0:0:
256,192,104844,1,0,0:0:0:0:
256,192,105015,1,2,0:0:0:0:
256,192,105358,1,0,0:0:0:0:
256,192,105701,1,2,0:0:0:0:
256,192,106044,1,0,0:0:0:0:
256,192,106387,1,2,0:0:0:0:
256,192,106558,1,0,0:0:0:0:
256,192,106901,1,0,0:0:0:0:
256,192,107072,1,2,0:0:0:0:
256,192,107158,1,2,0:0:0:0:
256,192,107244,1,2,0:0:0:0:
256,192,107415,1,0,0:0:0:0:
256,192,107758,1,2,0:0:0:0:
256,192,107929,1,2,0:0:0:0:
256,192,108101,1,0,0:0:0:0:
256,192,108444,1,2,0:0:0:0:
256,192,108787,1,0,0:0:0:0:
256,192,108958,1,2,0:0:0:0:
256,192,109129,1,2,0:0:0:0:
256,192,109301,1,0,0:0:0:0:
256,192,109644,1,0,0:0:0:0:
256,192,109815,1,2,0:0:0:0:
256,192,110158,1,6,0:0:0:0:
256,192,111529,1,0,0:0:0:0:
256,192,111700,1,0,0:0:0:0:
256,192,111872,1,2,0:0:0:0:
256,192,112043,1,0,0:0:0:0:
256,192,112386,1,0,0:0:0:0:
256,192,112558,1,2,0:0:0:0:
256,192,112900,1,0,0:0:0:0:
256,192,113072,1,0,0:0:0:0:
256,192,113243,1,2,0:0:0:0:
256,192,113415,1,0,0:0:0:0:
256,192,113758,1,2,0:0:0:0:
256,192,113929,1,2,0:0:0:0:
256,192,114272,1,0,0:0:0:0:
256,192,114615,1,2,0:0:0:0:
256,192,114786,1,0,0:0:0:0:
256,192,115129,1,0,0:0:0:0:
256,192,115300,1,2,0:0:0:0:
256,192,115472,1,2,0:0:0:0:
256,192,115643,1,0,0:0:0:0:
256,192,115986,1,2,0:0:0:0:
256,192,116158,1,2,0:0:0:0:
256,192,116329,1,0,0:0:0:0:
256,192,116672,1,2,0:0:0:0:
256,192,117015,1,0,0:0:0:0:
256,192,117358,1,2,0:0:0:0:
256,192,117700,1,0,0:0:0:0:
256,192,117872,1,2,0:0:0:0:
256,192,118043,1,2,0:0:0:0:
256,192,118215,1,2,0:0:0:0:
256,192,118386,1,0,0:0:0:0:
256,192,118729,1,2,0:0:0:0:
256,192,118900,1,0,0:0:0:0:
256,192,119243,1,2,0:0:0:0:
256,192,119415,1,2,0:0:0:0:
256,192,119586,1,2,0:0:0:0:
256,192,119758,1,0,0:0:0:0:
256,192,119929,1,0,0:0:0:0:
256,192,120100,1,2,0:0:0:0:
256,192,120272,1,2,0:0:0:0:
256,192,120615,1,0,0:0:0:0:
256,192,120786,1,2,0:0:0:0:
256,192,120958,1,2,0:0:0:0:
256,192,121129,1,0,0:0:0:0:
256,192,121472,1,2,0:0:0:0:
256,192,121643,1,0,0:0:0:0:
256,192,121815,1,0,0:0:0:0:
256,192,121986,1,2,0:0:0:0:
256,192,122158,1,0,0:0:0:0:
256,192,122500,1,2,0:0:0:0:
256,192,122843,1,2,0:0:0:0:
256,192,123015,1,0,0:0:0:0:
256,192,123100,1,0,0:0:0:0:
256,192,123186,1,0,0:0:0:0:
256,192,123358,1,2,0:0:0:0:
256,192,123529,1,2,0:0:0:0:
256,192,123700,1,0,0:0:0:0:
256,192,123872,1,2,0:0:0:0:
256,192,124215,1,2,0:0:0:0:
256,192,124386,1,0,0:0:0:0:
256,192,124558,1,0,0:0:0:0:
256,192,124729,1,0,0:0:0:0:
256,192,124900,1,2,0:0:0:0:
256,192,125072,1,2,0:0:0:0:
256,192,125243,1,0,0:0:0:0:
256,192,125329,1,0,0:0:0:0:
256,192,125415,1,0,0:0:0:0:
256,192,125586,1,2,0:0:0:0:
256,192,125758,1,2,0:0:0:0:
256,192,126100,1,0,0:0:0:0:
256,192,126272,1,2,0:0:0:0:
256,192,126443,1,2,0:0:0:0:
256,192,126615,1,0,0:0:0:0:
256,192,126958,1,2,0:0:0:0:
256,192,127129,1,2,0:0:0:0:
256,192,127300,1,0,0:0:0:0:
256,192,127386,1,0,0:0:0:0:
256,192,127472,1,0,0:0:0:0:
256,192,127643,1,2,0:0:0:0:
256,192,127986,1,0,0:0:0:0:
256,192,128329,1,2,0:0:0:0:
256,192,128500,1,0,0:0:0:0:
256,192,128672,1,0,0:0:0:0:
256,192,128843,1,2,0:0:0:0:
256,192,129015,1,2,0:0:0:0:
256,192,129186,1,2,0:0:0:0:
256,192,129358,1,0,0:0:0:0:
256,192,129700,1,2,0:0:0:0:
256,192,129872,1,0,0:0:0:0:
256,192,130386,1,2,0:0:0:0:
256,192,130729,1,0,0:0:0:0:
256,192,130900,12,0,133472,0:0:0:0:
