osu file format v14

[General]
AudioFilename: audio.mp3
AudioLeadIn: 0
PreviewTime: 19978
Countdown: 1
SampleSet: Normal
StackLeniency: 0.7
Mode: 1
LetterboxInBreaks: 0
WidescreenStoryboard: 1

[Editor]
DistanceSpacing: 1.1
BeatDivisor: 2
GridSize: 28
TimelineZoom: 1.4

[Metadata]
Title:Inevitable failure
TitleUnicode:Inevitable failure
Artist:Toorun12
ArtistUnicode:Toorun12
Creator:Toorun12
Version:Oni
Source:
Tags:
BeatmapID:1735111
BeatmapSetID:828108

[Difficulty]
HPDrainRate:5
CircleSize:5
OverallDifficulty:5
ApproachRate:5
SliderMultiplier:1.4
SliderTickRate:1

[Events]
//Background and Video events
0,0,"Inev.png",0,-100
//Break Periods
//Storyboard Layer 0 (Background)
//Storyboard Layer 1 (Fail)
//Storyboard Layer 2 (Pass)
//Storyboard Layer 3 (Foreground)
//Storyboard Sound Samples

[TimingPoints]
10645,666.666666666667,4,1,0,100,1,0
21311,-99.9999999999999,4,1,0,70,0,0
42645,-83.3333333333333,4,1,0,70,0,0
42978,-50,4,1,0,85,0,1
64311,-50,4,1,0,85,0,1
85311,-50,4,1,0,80,0,0
85645,-50,4,1,0,40,0,0

[HitObjects]
186,148,21311,5,4,0:0:0:0:
275,143,21811,1,0,0:0:0:0:
228,83,21978,1,8,0:0:0:0:
228,83,22311,1,0,0:0:0:0:
275,143,22478,1,0,0:0:0:0:
228,83,22811,1,8,0:0:0:0:
275,143,22977,1,0,0:0:0:0:
275,143,23144,1,0,0:0:0:0:
228,83,23311,1,8,0:0:0:0:
228,83,23478,1,8,0:0:0:0:
275,143,23645,1,0,0:0:0:0:
275,143,23978,1,0,0:0:0:0:
228,83,24145,1,8,0:0:0:0:
275,143,24311,1,8,0:0:0:0:
275,143,24478,1,0,0:0:0:0:
275,143,24645,1,0,0:0:0:0:
275,143,24811,1,0,0:0:0:0:
228,83,24978,1,8,0:0:0:0:
275,143,25311,1,0,0:0:0:0:
228,83,25478,1,8,0:0:0:0:
275,143,25645,1,0,0:0:0:0:
275,143,25811,1,0,0:0:0:0:
228,83,25978,1,8,0:0:0:0:
228,83,26311,1,8,0:0:0:0:
228,83,26478,1,8,0:0:0:0:
275,143,26645,1,0,0:0:0:0:
228,83,26978,1,8,0:0:0:0:
275,143,27145,1,0,0:0:0:0:
228,83,27311,1,8,0:0:0:0:
275,143,27478,1,0,0:0:0:0:
275,143,27645,1,0,0:0:0:0:
228,83,27811,1,0,0:0:0:0:
275,143,28145,1,8,0:0:0:0:
228,83,28311,1,8,0:0:0:0:
228,83,28478,1,8,0:0:0:0:
275,143,28645,1,0,0:0:0:0:
275,143,28811,1,0,0:0:0:0:
275,143,28978,1,0,0:0:0:0:
228,83,29145,1,8,0:0:0:0:
275,143,29311,1,0,0:0:0:0:
275,143,29645,1,0,0:0:0:0:
228,83,29811,1,8,0:0:0:0:
228,83,29978,1,0,0:0:0:0:
224,224,30311,1,8,0:0:0:0:
224,224,30478,1,0,0:0:0:0:
224,224,30645,1,0,0:0:0:0:
275,143,30978,1,0,0:0:0:0:
228,83,31145,1,8,0:0:0:0:
228,83,31311,1,0,0:0:0:0:
275,143,31478,1,0,0:0:0:0:
275,143,31645,1,0,0:0:0:0:
275,143,31978,1,4,0:0:0:0:
228,83,32311,1,8,0:0:0:0:
275,143,32478,1,0,0:0:0:0:
275,143,32645,1,0,0:0:0:0:
275,143,32978,1,8,0:0:0:0:
275,143,33089,1,8,0:0:0:0:
275,143,33200,1,8,0:0:0:0:
275,143,33311,1,0,0:0:0:0:
228,83,33645,1,8,0:0:0:0:
275,143,33811,1,0,0:0:0:0:
228,83,33978,1,8,0:0:0:0:
224,252,34145,1,0,0:0:0:0:
275,143,34311,1,8,0:0:0:0:
275,143,34644,1,0,0:0:0:0:
168,196,34811,1,8,0:0:0:0:
275,143,34978,1,0,0:0:0:0:
275,143,35311,1,0,0:0:0:0:
275,143,35422,1,0,0:0:0:0:
275,143,35533,1,0,0:0:0:0:
275,143,35645,1,8,0:0:0:0:
275,143,35978,1,0,0:0:0:0:
275,143,36145,1,8,0:0:0:0:
275,143,36311,1,0,0:0:0:0:
275,143,36478,1,0,0:0:0:0:
275,143,36645,1,8,0:0:0:0:
275,143,36978,1,8,0:0:0:0:
275,143,37311,1,4,0:0:0:0:
275,143,37645,1,8,0:0:0:0:
275,143,37756,1,0,0:0:0:0:
275,143,37867,1,0,0:0:0:0:
275,143,37978,1,0,0:0:0:0:
275,143,38311,1,0,0:0:0:0:
275,143,38478,1,8,0:0:0:0:
275,143,38645,1,0,0:0:0:0:
275,143,38978,1,0,0:0:0:0:
275,143,39311,1,8,0:0:0:0:
275,143,39422,1,8,0:0:0:0:
275,143,39533,1,8,0:0:0:0:
275,143,39645,1,0,0:0:0:0:
275,143,39978,1,0,0:0:0:0:
275,143,40311,1,8,0:0:0:0:
275,143,40478,1,8,0:0:0:0:
275,143,40645,1,0,0:0:0:0:
275,143,40756,1,0,0:0:0:0:
275,143,40867,1,0,0:0:0:0:
275,143,40978,1,8,0:0:0:0:
275,143,41311,1,0,0:0:0:0:
275,143,41645,1,0,0:0:0:0:
275,143,41811,1,8,0:0:0:0:
275,143,41978,1,0,0:0:0:0:
275,143,42145,1,0,0:0:0:0:
275,143,42311,1,8,0:0:0:0:
275,143,42478,1,8,0:0:0:0:
275,143,42645,1,0,0:0:0:0:
275,143,42978,1,4,0:0:0:0:
275,143,43145,1,8,0:0:0:0:
275,143,43228,1,8,0:0:0:0:
275,143,43311,1,8,0:0:0:0:
275,143,43478,1,8,0:0:0:0:
275,143,43645,1,8,0:0:0:0:
275,143,43895,1,0,0:0:0:0:
275,143,44061,1,8,0:0:0:0:
275,143,44145,1,8,0:0:0:0:
275,143,44228,1,8,0:0:0:0:
275,143,44395,1,8,0:0:0:0:
275,143,44645,1,0,0:0:0:0:
275,143,44811,1,8,0:0:0:0:
275,143,44978,1,8,0:0:0:0:
275,143,45145,1,0,0:0:0:0:
275,143,45311,1,4,0:0:0:0:
275,143,45645,1,4,0:0:0:0:
275,143,45812,1,8,0:0:0:0:
275,143,45895,1,8,0:0:0:0:
275,143,45978,1,8,0:0:0:0:
275,143,46145,1,8,0:0:0:0:
275,143,46312,1,8,0:0:0:0:
275,143,46562,1,0,0:0:0:0:
275,143,46728,1,8,0:0:0:0:
275,143,46811,1,8,0:0:0:0:
275,143,46894,1,8,0:0:0:0:
275,143,47061,1,8,0:0:0:0:
275,143,47312,1,0,0:0:0:0:
275,143,47478,1,8,0:0:0:0:
275,143,47645,1,8,0:0:0:0:
275,143,47812,1,0,0:0:0:0:
275,143,47978,1,4,0:0:0:0:
275,143,48311,1,4,0:0:0:0:
275,143,48478,1,8,0:0:0:0:
275,143,48561,1,8,0:0:0:0:
275,143,48644,1,8,0:0:0:0:
275,143,48811,1,8,0:0:0:0:
275,143,48895,1,8,0:0:0:0:
275,143,48978,1,8,0:0:0:0:
275,143,49144,1,8,0:0:0:0:
275,143,49395,1,0,0:0:0:0:
275,143,49560,1,8,0:0:0:0:
275,143,49645,1,8,0:0:0:0:
275,143,49727,1,8,0:0:0:0:
275,143,49978,1,0,0:0:0:0:
275,143,50144,1,8,0:0:0:0:
275,143,50311,1,8,0:0:0:0:
275,143,50478,1,0,0:0:0:0:
275,143,50644,1,4,0:0:0:0:
275,143,50978,1,4,0:0:0:0:
275,143,51145,1,8,0:0:0:0:
275,143,51228,1,8,0:0:0:0:
275,143,51311,1,8,0:0:0:0:
275,143,51478,1,8,0:0:0:0:
275,143,51645,1,8,0:0:0:0:
275,143,51895,1,0,0:0:0:0:
275,143,51978,1,8,0:0:0:0:
275,143,52061,1,0,0:0:0:0:
275,143,52227,1,8,0:0:0:0:
275,143,52311,1,8,0:0:0:0:
275,143,52394,1,8,0:0:0:0:
275,143,52645,1,0,0:0:0:0:
275,143,52811,1,8,0:0:0:0:
275,143,52978,1,8,0:0:0:0:
275,143,53311,1,4,0:0:0:0:
275,143,53644,1,4,0:0:0:0:
275,143,53811,1,8,0:0:0:0:
275,143,53894,1,8,0:0:0:0:
275,143,53978,1,8,0:0:0:0:
275,143,54144,1,8,0:0:0:0:
275,143,54311,1,8,0:0:0:0:
275,143,54561,1,0,0:0:0:0:
275,143,54727,1,8,0:0:0:0:
275,143,54810,1,8,0:0:0:0:
275,143,54893,1,8,0:0:0:0:
275,143,55060,1,8,0:0:0:0:
275,143,55228,1,8,0:0:0:0:
275,143,55311,1,0,0:0:0:0:
275,143,55477,1,8,0:0:0:0:
275,143,55561,1,8,0:0:0:0:
275,143,55644,1,8,0:0:0:0:
275,143,55811,1,0,0:0:0:0:
275,143,55977,1,4,0:0:0:0:
275,143,56311,1,4,0:0:0:0:
275,143,56478,1,8,0:0:0:0:
275,143,56561,1,8,0:0:0:0:
275,143,56645,1,8,0:0:0:0:
275,143,56811,1,8,0:0:0:0:
275,143,56978,1,8,0:0:0:0:
275,143,57228,1,0,0:0:0:0:
275,143,57394,1,8,0:0:0:0:
275,143,57477,1,8,0:0:0:0:
275,143,57560,1,8,0:0:0:0:
275,143,57727,1,8,0:0:0:0:
275,143,57895,1,8,0:0:0:0:
275,143,57978,1,0,0:0:0:0:
275,143,58144,1,8,0:0:0:0:
275,143,58311,1,8,0:0:0:0:
275,143,58644,1,4,0:0:0:0:
275,143,58978,1,4,0:0:0:0:
275,143,59144,1,8,0:0:0:0:
275,143,59227,1,8,0:0:0:0:
275,143,59311,1,8,0:0:0:0:
275,143,59477,1,8,0:0:0:0:
275,143,59644,1,8,0:0:0:0:
275,143,59895,1,0,0:0:0:0:
275,143,60061,1,8,0:0:0:0:
275,143,60226,1,8,0:0:0:0:
275,143,60393,1,8,0:0:0:0:
275,143,60476,1,8,0:0:0:0:
275,143,60561,1,0,0:0:0:0:
275,143,60728,1,8,0:0:0:0:
275,143,60810,1,8,0:0:0:0:
275,143,60894,1,8,0:0:0:0:
275,143,61144,1,0,0:0:0:0:
275,143,61310,1,4,0:0:0:0:
275,143,61644,1,4,0:0:0:0:
275,143,61811,1,8,0:0:0:0:
275,143,61894,1,8,0:0:0:0:
275,143,61977,1,8,0:0:0:0:
275,143,62144,1,8,0:0:0:0:
275,143,62311,1,8,0:0:0:0:
275,143,62561,1,0,0:0:0:0:
275,143,62727,1,8,0:0:0:0:
275,143,62810,1,8,0:0:0:0:
275,143,62893,1,8,0:0:0:0:
275,143,63060,1,8,0:0:0:0:
275,143,63227,1,8,0:0:0:0:
275,143,63311,1,0,0:0:0:0:
275,143,63477,1,8,0:0:0:0:
275,143,63644,1,8,0:0:0:0:
275,143,63978,1,4,0:0:0:0:
275,143,64311,1,4,0:0:0:0:
275,143,64478,1,8,0:0:0:0:
275,143,64561,1,8,0:0:0:0:
275,143,64644,1,8,0:0:0:0:
275,143,64811,1,8,0:0:0:0:
275,143,64894,1,8,0:0:0:0:
275,143,64978,1,8,0:0:0:0:
275,143,65144,1,8,0:0:0:0:
275,143,65228,1,0,0:0:0:0:
275,143,65394,1,8,0:0:0:0:
275,143,65477,1,8,0:0:0:0:
275,143,65560,1,8,0:0:0:0:
275,143,65644,1,8,0:0:0:0:
275,143,65810,1,8,0:0:0:0:
275,143,65867,1,8,0:0:0:0:
275,143,65922,1,8,0:0:0:0:
275,143,65978,1,0,0:0:0:0:
275,143,66144,1,8,0:0:0:0:
275,143,66228,1,8,0:0:0:0:
275,143,66311,1,8,0:0:0:0:
275,143,66478,1,0,0:0:0:0:
275,143,66644,1,4,0:0:0:0:
275,143,66978,1,4,0:0:0:0:
275,143,67145,1,8,0:0:0:0:
275,143,67228,1,8,0:0:0:0:
275,143,67311,1,8,0:0:0:0:
275,143,67478,1,8,0:0:0:0:
275,143,67561,1,8,0:0:0:0:
275,143,67645,1,8,0:0:0:0:
275,143,67811,1,8,0:0:0:0:
275,143,67895,1,0,0:0:0:0:
275,143,68061,1,8,0:0:0:0:
275,143,68144,1,8,0:0:0:0:
275,143,68227,1,8,0:0:0:0:
275,143,68311,1,8,0:0:0:0:
275,143,68477,1,8,0:0:0:0:
275,143,68561,1,8,0:0:0:0:
275,143,68645,1,0,0:0:0:0:
275,143,69311,1,4,0:0:0:0:
275,143,69644,1,4,0:0:0:0:
275,143,69811,1,8,0:0:0:0:
275,143,69894,1,8,0:0:0:0:
275,143,69977,1,8,0:0:0:0:
275,143,70144,1,8,0:0:0:0:
275,143,70227,1,8,0:0:0:0:
275,143,70311,1,8,0:0:0:0:
275,143,70394,1,0,0:0:0:0:
275,143,70561,1,8,0:0:0:0:
275,143,70644,1,8,0:0:0:0:
275,143,70811,1,8,0:0:0:0:
275,143,70893,1,8,0:0:0:0:
275,143,70977,1,8,0:0:0:0:
275,143,71143,1,8,0:0:0:0:
275,143,71227,1,8,0:0:0:0:
275,143,71311,1,0,0:0:0:0:
275,143,71477,1,8,0:0:0:0:
275,143,71561,1,8,0:0:0:0:
275,143,71644,1,8,0:0:0:0:
275,143,71811,1,0,0:0:0:0:
275,143,71977,1,4,0:0:0:0:
275,143,72311,1,4,0:0:0:0:
275,143,72478,1,8,0:0:0:0:
275,143,72561,1,8,0:0:0:0:
275,143,72644,1,8,0:0:0:0:
275,143,72811,1,8,0:0:0:0:
275,143,72978,1,8,0:0:0:0:
275,143,73033,1,8,0:0:0:0:
275,143,73089,1,8,0:0:0:0:
275,143,73144,1,8,0:0:0:0:
275,143,73311,1,8,0:0:0:0:
275,143,73394,1,0,0:0:0:0:
275,143,73560,1,8,0:0:0:0:
275,143,73644,1,8,0:0:0:0:
275,143,73811,1,8,0:0:0:0:
275,143,73894,1,8,0:0:0:0:
275,143,73978,1,0,0:0:0:0:
275,143,74644,1,4,0:0:0:0:
275,143,74977,1,4,0:0:0:0:
275,143,75144,1,8,0:0:0:0:
275,143,75227,1,8,0:0:0:0:
275,143,75310,1,8,0:0:0:0:
275,143,75477,1,8,0:0:0:0:
275,143,75560,1,8,0:0:0:0:
275,143,75644,1,8,0:0:0:0:
275,143,75810,1,8,0:0:0:0:
275,143,75894,1,0,0:0:0:0:
275,143,76060,1,8,0:0:0:0:
275,143,76143,1,8,0:0:0:0:
275,143,76228,1,8,0:0:0:0:
275,143,76311,1,8,0:0:0:0:
275,143,76476,1,8,0:0:0:0:
275,143,76533,1,8,0:0:0:0:
275,143,76589,1,8,0:0:0:0:
275,143,76644,1,0,0:0:0:0:
275,143,76810,1,8,0:0:0:0:
275,143,76894,1,8,0:0:0:0:
275,143,76977,1,8,0:0:0:0:
275,143,77144,1,0,0:0:0:0:
275,143,77310,1,4,0:0:0:0:
275,143,77644,1,4,0:0:0:0:
275,143,77811,1,8,0:0:0:0:
275,143,77894,1,8,0:0:0:0:
275,143,77977,1,8,0:0:0:0:
275,143,78144,1,8,0:0:0:0:
275,143,78227,1,8,0:0:0:0:
275,143,78311,1,8,0:0:0:0:
275,143,78394,1,0,0:0:0:0:
275,143,78561,1,0,0:0:0:0:
275,143,78727,1,8,0:0:0:0:
275,143,78810,1,8,0:0:0:0:
275,143,78893,1,8,0:0:0:0:
275,143,78978,1,8,0:0:0:0:
275,143,79143,1,8,0:0:0:0:
275,143,79200,1,8,0:0:0:0:
275,143,79256,1,8,0:0:0:0:
275,143,79311,1,0,0:0:0:0:
275,143,79977,1,4,0:0:0:0:
275,143,80310,1,4,0:0:0:0:
275,143,80477,1,8,0:0:0:0:
275,143,80560,1,8,0:0:0:0:
275,143,80643,1,8,0:0:0:0:
275,143,80810,1,8,0:0:0:0:
275,143,80867,1,8,0:0:0:0:
275,143,80922,1,8,0:0:0:0:
275,143,80977,1,8,0:0:0:0:
275,143,81143,1,8,0:0:0:0:
275,143,81228,1,8,0:0:0:0:
275,143,81311,1,8,0:0:0:0:
275,143,81394,1,0,0:0:0:0:
275,143,81559,1,8,0:0:0:0:
275,143,81643,1,8,0:0:0:0:
275,143,81811,1,8,0:0:0:0:
275,143,81894,1,8,0:0:0:0:
275,143,81978,1,0,0:0:0:0:
275,143,82143,1,8,0:0:0:0:
275,143,82227,1,8,0:0:0:0:
275,143,82310,1,8,0:0:0:0:
275,143,82477,1,0,0:0:0:0:
275,143,82643,1,4,0:0:0:0:
275,143,82977,1,4,0:0:0:0:
275,143,83144,1,8,0:0:0:0:
275,143,83310,1,8,0:0:0:0:
275,143,83367,1,8,0:0:0:0:
275,143,83422,1,8,0:0:0:0:
275,143,83477,1,0,0:0:0:0:
275,143,83644,1,8,0:0:0:0:
275,143,83727,1,8,0:0:0:0:
275,143,83810,1,8,0:0:0:0:
275,143,83978,1,8,0:0:0:0:
275,143,84061,1,0,0:0:0:0:
275,143,84226,1,8,0:0:0:0:
275,143,84310,1,8,0:0:0:0:
275,143,84478,1,8,0:0:0:0:
275,143,84560,1,8,0:0:0:0:
275,143,84644,1,0,0:0:0:0:
310,157,85311,1,4,0:0:0:0:
256,192,85644,12,0,90644,0:0:0:0:
