osu file format v14

[General]
AudioFilename: audio.mp3
AudioLeadIn: 0
PreviewTime: 19978
Countdown: 1
SampleSet: Normal
StackLeniency: 0.7
Mode: 1
LetterboxInBreaks: 0
WidescreenStoryboard: 1

[Editor]
DistanceSpacing: 1.1
BeatDivisor: 8
GridSize: 28
TimelineZoom: 0.8999999

[Metadata]
Title:Inevitable failure
TitleUnicode:Inevitable failure
Artist:Toorun12
ArtistUnicode:Toorun12
Creator:Toorun12
Version:Futsuu
Source:
Tags:
BeatmapID:1735107
BeatmapSetID:828108

[Difficulty]
HPDrainRate:6
CircleSize:5
OverallDifficulty:4
ApproachRate:5
SliderMultiplier:1.4
SliderTickRate:1

[Events]
//Background and Video events
0,0,"Inev.png",0,-100
//Break Periods
//Storyboard Layer 0 (Background)
//Storyboard Layer 1 (Fail)
//Storyboard Layer 2 (Pass)
//Storyboard Layer 3 (Foreground)
//Storyboard Sound Samples

[TimingPoints]
10645,666.666666666667,4,1,0,70,1,0
21311,-99.9999999999999,4,1,0,70,0,0
42978,-76.9230769230769,4,1,0,85,0,1
64311,-66.6666666666667,4,1,0,85,0,1
85311,-66.6666666666667,4,1,0,80,0,0
85645,-66.6666666666667,4,1,0,40,0,0

[HitObjects]
186,148,21311,5,4,0:0:0:0:
228,83,21978,1,8,0:0:0:0:
228,83,22311,1,0,0:0:0:0:
275,143,22645,1,0,0:0:0:0:
228,83,23311,1,8,0:0:0:0:
275,143,23645,1,0,0:0:0:0:
275,143,23978,1,0,0:0:0:0:
275,143,24645,1,0,0:0:0:0:
228,83,24978,1,8,0:0:0:0:
275,143,25311,1,0,0:0:0:0:
275,143,25645,1,0,0:0:0:0:
228,83,25978,1,8,0:0:0:0:
275,143,26645,1,0,0:0:0:0:
228,83,27311,1,8,0:0:0:0:
275,143,27645,1,0,0:0:0:0:
228,83,27978,1,0,0:0:0:0:
275,143,28645,1,0,0:0:0:0:
228,83,28978,1,8,0:0:0:0:
275,143,29311,1,0,0:0:0:0:
228,83,29978,1,0,0:0:0:0:
224,224,30311,1,8,0:0:0:0:
224,224,30645,1,0,0:0:0:0:
275,143,30978,1,8,0:0:0:0:
228,83,31311,1,0,0:0:0:0:
275,143,31978,1,4,0:0:0:0:
228,83,32645,1,8,0:0:0:0:
275,143,32978,1,8,0:0:0:0:
275,143,33311,1,0,0:0:0:0:
228,83,33645,1,8,0:0:0:0:
228,83,33978,1,8,0:0:0:0:
275,143,34644,1,0,0:0:0:0:
275,143,34978,1,0,0:0:0:0:
275,143,35311,1,8,0:0:0:0:
275,143,35645,1,8,0:0:0:0:
275,143,35978,1,0,0:0:0:0:
275,143,36311,1,0,0:0:0:0:
275,143,36645,1,8,0:0:0:0:
275,143,37311,1,4,0:0:0:0:
275,143,37645,1,8,0:0:0:0:
275,143,37978,1,0,0:0:0:0:
275,143,38645,1,0,0:0:0:0:
275,143,38978,1,0,0:0:0:0:
275,143,39311,1,8,0:0:0:0:
275,143,39645,1,0,0:0:0:0:
275,143,39978,1,0,0:0:0:0:
275,143,40645,1,0,0:0:0:0:
275,143,40978,1,8,0:0:0:0:
275,143,41311,1,0,0:0:0:0:
275,143,41978,1,8,0:0:0:0:
275,143,42645,1,0,0:0:0:0:
275,143,42978,1,4,0:0:0:0:
275,143,43311,1,8,0:0:0:0:
275,143,43895,1,0,0:0:0:0:
275,143,44645,1,0,0:0:0:0:
275,143,45311,1,4,0:0:0:0:
275,143,45645,1,4,0:0:0:0:
275,143,45978,1,8,0:0:0:0:
275,143,46562,1,0,0:0:0:0:
275,143,47312,1,0,0:0:0:0:
275,143,47978,1,4,0:0:0:0:
275,143,48311,1,4,0:0:0:0:
275,143,48644,1,8,0:0:0:0:
275,143,49395,1,0,0:0:0:0:
275,143,49978,1,0,0:0:0:0:
275,143,50644,1,4,0:0:0:0:
275,143,50978,1,4,0:0:0:0:
275,143,51311,1,8,0:0:0:0:
275,143,51895,1,8,0:0:0:0:
275,143,52061,1,0,0:0:0:0:
275,143,52645,1,0,0:0:0:0:
275,143,53311,1,4,0:0:0:0:
275,143,53644,1,4,0:0:0:0:
275,143,53978,1,8,0:0:0:0:
275,143,54561,1,0,0:0:0:0:
275,143,54895,1,8,0:0:0:0:
275,143,55311,1,0,0:0:0:0:
275,143,55977,1,4,0:0:0:0:
275,143,56311,1,4,0:0:0:0:
275,143,56645,1,8,0:0:0:0:
275,143,57228,1,0,0:0:0:0:
275,143,57728,1,8,0:0:0:0:
275,143,57978,1,0,0:0:0:0:
275,143,58644,1,4,0:0:0:0:
275,143,58978,1,4,0:0:0:0:
275,143,59311,1,8,0:0:0:0:
275,143,59895,1,0,0:0:0:0:
275,143,60228,1,8,0:0:0:0:
275,143,60561,1,0,0:0:0:0:
275,143,61310,1,4,0:0:0:0:
275,143,61644,1,4,0:0:0:0:
275,143,61977,1,8,0:0:0:0:
275,143,62561,1,0,0:0:0:0:
275,143,62811,1,8,0:0:0:0:
275,143,63311,1,0,0:0:0:0:
275,143,63978,1,4,0:0:0:0:
275,143,64311,1,0,0:0:0:0:
275,143,64644,1,8,0:0:0:0:
275,143,64978,1,8,0:0:0:0:
275,143,65228,1,0,0:0:0:0:
275,143,65978,1,0,0:0:0:0:
275,143,66228,1,8,0:0:0:0:
275,143,66478,1,8,0:0:0:0:
275,143,66644,1,0,0:0:0:0:
275,143,66978,1,0,0:0:0:0:
275,143,67311,1,8,0:0:0:0:
275,143,67728,1,8,0:0:0:0:
275,143,67895,1,0,0:0:0:0:
275,143,68477,1,8,0:0:0:0:
275,143,68645,1,0,0:0:0:0:
275,143,69311,1,0,0:0:0:0:
275,143,69644,1,0,0:0:0:0:
275,143,69977,1,8,0:0:0:0:
275,143,70394,1,0,0:0:0:0:
275,143,70728,1,8,0:0:0:0:
275,143,71311,1,0,0:0:0:0:
275,143,71977,1,0,0:0:0:0:
275,143,72311,1,0,0:0:0:0:
275,143,72644,1,8,0:0:0:0:
275,143,72978,1,8,0:0:0:0:
275,143,73394,1,0,0:0:0:0:
275,143,73811,1,8,0:0:0:0:
275,143,73978,1,0,0:0:0:0:
275,143,74644,1,4,0:0:0:0:
275,143,74977,1,0,0:0:0:0:
275,143,75310,1,8,0:0:0:0:
275,143,75644,1,8,0:0:0:0:
275,143,75894,1,0,0:0:0:0:
275,143,76644,1,0,0:0:0:0:
275,143,76895,1,8,0:0:0:0:
275,143,77144,1,8,0:0:0:0:
275,143,77311,1,0,0:0:0:0:
275,143,77645,1,0,0:0:0:0:
275,143,77978,1,8,0:0:0:0:
275,143,78395,1,8,0:0:0:0:
275,143,78561,1,0,0:0:0:0:
275,143,79143,1,8,0:0:0:0:
275,143,79311,1,0,0:0:0:0:
275,143,79977,1,4,0:0:0:0:
275,143,80310,1,0,0:0:0:0:
275,143,80643,1,8,0:0:0:0:
275,143,81061,1,8,0:0:0:0:
275,143,81394,1,0,0:0:0:0:
275,143,81978,1,0,0:0:0:0:
275,143,82643,1,0,0:0:0:0:
275,143,82977,1,0,0:0:0:0:
275,143,83310,1,8,0:0:0:0:
275,143,83478,1,0,0:0:0:0:
275,143,83645,1,8,0:0:0:0:
275,143,84061,1,0,0:0:0:0:
275,143,84644,1,0,0:0:0:0:
310,157,85311,1,4,0:0:0:0:
256,192,85644,12,0,90644,0:0:0:0:
