osu file format v14

[General]
AudioFilename: audio.mp3
AudioLeadIn: 0
PreviewTime: 44076
Countdown: 0
SampleSet: Soft
StackLeniency: 0.7
Mode: 0
LetterboxInBreaks: 0
WidescreenStoryboard: 0

[Editor]
Bookmarks: 19276,32076,38476,41676
DistanceSpacing: 1.1
BeatDivisor: 4
GridSize: 4
TimelineZoom: 0.5999999

[Metadata]
Title:Astronomia (Laeko Cover)
TitleUnicode:Astronomia (Laeko Cover)
Artist:Tony Igy
ArtistUnicode:Tony Igy
Creator:Lexis
Version:Normal
Source:
Tags:chill slow remix
BeatmapID:1118142
BeatmapSetID:526952

[Difficulty]
HPDrainRate:4
CircleSize:3
OverallDifficulty:4
ApproachRate:5
SliderMultiplier:1.4
SliderTickRate:1

[Events]
//Background and Video events
0,0,"BG.jpg",0,0
//Break Periods
//Storyboard Layer 0 (Background)
//Storyboard Layer 1 (Fail)
//Storyboard Layer 2 (Pass)
//Storyboard Layer 3 (Foreground)
//Storyboard Sound Samples

[TimingPoints]
76,800,4,2,1,35,1,0
44876,-100,4,2,1,50,0,1
70476,-100,4,2,1,50,0,0

[Colours]
Combo1 : 128,64,64
Combo2 : 0,64,128
Combo3 : 3,158,209
Combo4 : 0,159,0
Combo5 : 170,171,112

[HitObjects]
256,192,76,12,4,3276,0:0:0:0:
44,179,6476,6,0,B|44:144|44:144|66:118,1,70,4|0,0:0|0:0,0:0:0:0:
120,60,7276,1,8,0:0:0:0:
271,86,8077,2,0,P|305:93|333:112,1,70,2|0,0:0|0:0,0:0:0:0:
375,179,8877,2,0,P|388:212|385:247,1,70,8|0,0:0|0:0,0:0:0:0:
352,316,9676,6,0,B|280:332|280:332|216:316,1,140,4|8,0:0|0:0,0:0:0:0:
92,224,11276,2,0,P|72:252|64:292,2,70,2|0|8,0:0|0:0|0:0,0:0:0:0:
146,169,12476,1,0,0:0:0:0:
174,143,12676,1,0,0:0:0:0:
199,112,12876,6,0,B|191:72|191:72|155:48,2,70,4|0|8,0:0|0:0|0:0,0:0:0:0:
210,265,14476,2,0,P|254:281|298:265,1,70,2|0,0:0|0:0,0:0:0:0:
344,241,15276,1,8,0:0:0:0:
386,176,15676,1,0,0:0:0:0:
388,98,16076,6,0,P|352:66|260:74,1,140,4|8,0:0|0:0,0:0:0:0:
161,185,17676,2,0,P|128:213|98:220,2,70,2|0|8,0:0|0:0|0:0,0:0:0:0:
213,128,18876,1,0,0:0:0:0:
238,98,19076,1,0,0:0:0:0:
268,72,19276,6,0,B|339:62|339:62|397:105,1,140,4|0,0:0|0:0,0:0:0:0:
261,181,20876,2,0,B|190:191|190:191|132:148,1,140,4|0,0:0|0:0,0:0:0:0:
268,72,22476,6,0,P|345:80|402:123,1,140,4|0,0:0|0:0,0:0:0:0:
289,226,24076,2,0,P|212:218|155:175,1,140,4|0,0:0|0:0,0:0:0:0:
111,124,25276,1,0,0:0:0:0:
145,53,25676,6,4,P|69:58|33:132,1,140,4|0,0:0|0:0,0:0:0:0:
34,260,27276,2,4,P|76:312|144:313,1,140,4|0,0:0|0:0,0:0:0:0:
287,257,28876,6,0,L|418:208,1,140,4|0,0:0|0:0,0:0:0:0:
472,63,30476,2,0,L|341:112,1,140,4|0,0:0|0:0,0:0:0:0:
272,147,31676,1,0,0:0:0:0:
200,179,32076,6,0,P|164:179|130:161,1,70,4|0,0:0|0:0,0:0:0:0:
183,103,32876,2,0,P|181:66|198:30,1,70
258,80,33676,2,0,P|299:73|335:86,1,70,4|0,0:0|0:0,0:0:0:0:
292,151,34476,2,0,P|302:189|292:226,1,70
260,286,35276,6,0,B|228:302|228:302|198:287,1,70,4|0,0:0|0:0,0:0:0:0:
135,242,36076,2,0,B|119:210|119:210|134:180,1,70
187,122,36876,2,0,B|219:106|219:106|249:121,1,70,4|0,0:0|0:0,0:0:0:0:
312,166,37676,1,0,0:0:0:0:
256,192,38476,12,4,41676,0:0:0:0:
225,94,44876,6,0,P|163:85|82:127,1,140,4|8,0:0|0:0,0:0:0:0:
50,179,46076,1,0,0:0:0:0:
104,236,46476,2,0,P|166:245|247:203,1,140,2|8,0:0|0:0,0:0:0:0:
284,154,47676,1,0,0:0:0:0:
335,94,48076,6,0,P|363:158|332:217,1,140,4|8,0:0|0:0,0:0:0:0:
269,260,49276,1,0,0:0:0:0:
192,275,49676,1,2,0:0:0:0:
88,160,50476,1,8,0:0:0:0:
143,103,50876,1,0,0:0:0:0:
180,92,51076,1,0,0:0:0:0:
218,78,51276,6,0,B|288:60|288:103|355:76,1,140,4|8,0:0|0:0,0:0:0:0:
428,50,52476,1,0,0:0:0:0:
415,128,52876,2,0,P|443:195|404:256,1,140,2|8,0:0|0:0,0:0:0:0:
365,188,54076,1,0,0:0:0:0:
314,128,54476,6,0,P|286:189|316:249,1,140,4|8,0:0|0:0,0:0:0:0:
380,296,55676,1,0,0:0:0:0:
310,329,56076,2,0,P|277:318|251:296,1,70,2|0,0:0|0:0,0:0:0:0:
215,228,56876,2,0,P|210:190|217:147,1,70,8|0,0:0|0:0,0:0:0:0:
247,91,57676,5,4,0:0:0:0:
322,75,58076,1,0,0:0:0:0:
397,91,58476,2,0,B|415:127|398:170|398:170|415:205|394:242|394:242,1,140,8|2,0:0|0:0,0:0:0:0:
327,201,59676,1,0,0:0:0:0:
251,188,60076,2,0,P|219:178|185:158,1,70,8|0,0:0|0:0,0:0:0:0:
185,83,60876,6,0,P|130:109|115:183,1,140,4|0,0:0|0:0,0:0:0:0:
144,253,62076,1,0,0:0:0:0:
199,307,62476,2,0,P|243:314|271:310,1,70,2|0,0:0|0:0,0:0:0:0:
341,279,63276,1,8,0:0:0:0:
395,221,63676,1,0,0:0:0:0:
424,196,63876,1,0,0:0:0:0:
453,166,64076,6,0,P|455:125|382:61,1,140,4|8,0:0|0:0,0:0:0:0:
311,49,65276,1,0,0:0:0:0:
234,41,65676,2,0,B|198:33|198:33|161:40,1,70,2|0,0:0|0:0,0:0:0:0:
97,76,66476,2,0,P|87:114|97:146,1,70,8|0,0:0|0:0,0:0:0:0:
151,196,67276,6,0,B|190:181|190:181|231:196,1,70,4|0,0:0|0:0,0:0:0:0:
286,226,68076,2,0,B|325:241|325:241|366:226,1,70,8|0,0:0|0:0,0:0:0:0:
422,195,68876,1,2,0:0:0:0:
462,126,69276,2,0,P|426:115|392:121,1,70,0|8,0:0|0:0,0:0:0:0:
320,142,70076,1,0,0:0:0:0:
248,172,70476,5,4,0:0:0:0:
