osu file format v14

[General]
AudioFilename: audio.mp3
AudioLeadIn: 0
PreviewTime: 44076
Countdown: 0
SampleSet: Soft
StackLeniency: 0.7
Mode: 0
LetterboxInBreaks: 0
WidescreenStoryboard: 1

[Editor]
Bookmarks: 19276,25676,32076,38476,41676
DistanceSpacing: 1.8
BeatDivisor: 16
GridSize: 4
TimelineZoom: 1.2

[Metadata]
Title:Astronomia (Laeko Cover)
TitleUnicode:Astronomia (Laeko Cover)
Artist:Tony Igy
ArtistUnicode:Tony Igy
Creator:Lexis
Version:Extra
Source:
Tags:chill slow remix
BeatmapID:1874895
BeatmapSetID:526952

[Difficulty]
HPDrainRate:7
CircleSize:4
OverallDifficulty:8
ApproachRate:9.5
SliderMultiplier:2.2
SliderTickRate:1

[Events]
//Background and Video events
0,0,"BG.jpg",0,0
//Break Periods
//Storyboard Layer 0 (Background)
//Storyboard Layer 1 (Fail)
//Storyboard Layer 2 (Pass)
//Storyboard Layer 3 (Foreground)
//Storyboard Layer 4 (Overlay)
//Storyboard Sound Samples

[TimingPoints]
76,800,4,2,1,40,1,0
19276,-76.9230769230769,4,2,1,50,0,0
32076,-66.6666666666667,4,2,1,50,0,0
38476,-66.6666666666667,4,2,1,65,0,0
44876,-58.8235294117647,4,2,1,65,0,1
48676,-40,4,2,1,65,0,1
48776,-40,4,2,1,5,0,1
48876,-40,4,2,1,65,0,1
48976,-40,4,2,1,5,0,1
49076,-40,4,2,1,65,0,1
49176,-40,4,2,1,5,0,1
49276,-40,4,2,1,65,0,1
49376,-40,4,2,1,5,0,1
49476,-40,4,2,1,65,0,1
49576,-40,4,2,1,5,0,1
49676,-50,4,2,1,65,0,1
51276,-58.8235294117647,4,2,1,65,0,1
55076,-40,4,2,1,65,0,1
55176,-40,4,2,1,5,0,1
55276,-40,4,2,1,65,0,1
55376,-40,4,2,1,5,0,1
55476,-40,4,2,1,65,0,1
55576,-40,4,2,1,5,0,1
55676,-40,4,2,1,65,0,1
55776,-40,4,2,1,5,0,1
55876,-40,4,2,1,65,0,1
55976,-40,4,2,1,5,0,1
56076,-50,4,2,1,65,0,1
57676,-58.8235294117647,4,2,1,65,0,1
60876,-76.9230769230769,4,2,1,65,0,1
61676,-58.8235294117647,4,2,1,65,0,1
62476,-76.9230769230769,4,2,1,65,0,1
63276,-58.8235294117647,4,2,1,65,0,1
67876,-40,4,2,1,65,0,1
67976,-40,4,2,1,5,0,1
68076,-40,4,2,1,65,0,1
68176,-40,4,2,1,5,0,1
68276,-40,4,2,1,65,0,1
68376,-40,4,2,1,5,0,1
68476,-40,4,2,1,65,0,1
68576,-40,4,2,1,5,0,1
68676,-58.8235294117647,4,2,1,65,0,1
69676,-58.8235294117647,4,2,1,55,0,1
69876,-58.8235294117647,4,2,1,45,0,1
70076,-58.8235294117647,4,2,1,35,0,1
70276,-58.8235294117647,4,2,1,25,0,1
70476,-100,4,2,1,15,0,0

[Colours]
Combo1 : 128,64,64
Combo2 : 0,64,128
Combo3 : 3,158,209
Combo4 : 0,159,0
Combo5 : 170,171,112

[HitObjects]
92,164,76,6,0,B|140:128|140:128|202:128,1,110,4|0,0:0|0:0,0:0:0:0:
417,218,876,2,0,B|369:254|369:254|307:254,1,110
282,28,1676,2,0,B|318:76|318:76|318:138,1,110,4|0,0:0|0:0,0:0:0:0:
228,353,2476,2,0,B|192:305|192:305|192:243,1,110
255,190,3276,1,4,0:0:0:0:
256,192,3376,12,0,4876,0:0:0:0:
81,69,6276,5,0,0:0:0:0:
105,111,6376,1,0,0:0:0:0:
130,153,6476,2,0,L|156:208,2,55,4|0|0,0:0|0:0|0:0,0:0:0:0:
186,70,7076,1,0,0:0:0:0:
298,116,7276,2,0,L|324:171,1,55,8|0,0:0|0:0,0:0:0:0:
357,258,7676,1,0,0:0:0:0:
267,299,7876,2,0,L|249:305,3,13.75
231,314,8076,6,0,P|201:328|168:325,1,55,2|0,0:0|0:0,0:0:0:0:
85,298,8476,1,0,0:0:0:0:
165,240,8676,1,0,0:0:0:0:
260,165,8876,2,0,P|277:136|278:103,1,55,8|0,0:0|0:0,0:0:0:0:
261,17,9276,2,0,L|241:26,7,13.75
215,37,9676,5,4,0:0:0:0:
121,0,9876,1,0,0:0:0:0:
62,77,10076,1,0,0:0:0:0:
113,161,10276,1,0,0:0:0:0:
181,261,10476,2,0,B|196:288|196:288|233:306,1,55,8|0,0:0|0:0,0:0:0:0:
312,328,10876,1,0,0:0:0:0:
404,362,11076,2,0,L|420:356,3,13.75
444,332,11276,6,0,P|471:318|488:295,1,55,2|0,0:0|0:0,0:0:0:0:
488,180,11676,2,0,P|461:194|444:217,1,55
319,273,12076,2,0,P|346:259|363:236,1,55,8|0,0:0|0:0,0:0:0:0:
363,121,12476,2,0,L|347:113,7,13.75
317,99,12876,5,4,0:0:0:0:
223,65,13076,1,0,0:0:0:0:
236,163,13276,1,0,0:0:0:0:
330,197,13476,1,0,0:0:0:0:
443,240,13676,2,0,P|473:252|494:267,1,55,8|0,0:0|0:0,0:0:0:0:
424,338,14076,1,0,0:0:0:0:
325,350,14276,2,0,L|299:347,3,13.75
275,348,14476,6,0,B|249:365|249:365|224:361,1,55,2|0,0:0|0:0,0:0:0:0:
141,307,14876,2,0,B|124:281|124:281|128:256,1,55
164,142,15276,2,0,B|161:117|171:116|164:85,1,55,8|0,0:0|0:0,0:0:0:0:
82,31,15676,2,0,L|63:28,7,13.75
32,23,16076,5,4,0:0:0:0:
256,192,16176,12,8,18476,0:0:0:0:
141,70,18876,6,0,L|127:84,7,13.75
115,108,19276,5,4,0:0:0:0:
41,213,19476,1,0,0:0:0:0:
147,287,19676,1,0,0:0:0:0:
220,182,19876,1,0,0:0:0:0:
292,75,20076,2,0,L|328:11,1,71.4999967269899,4|0,0:0|0:0,0:0:0:0:
426,94,20476,2,0,L|390:158,1,71.4999967269899
320,264,20876,6,0,P|308:298|282:333,1,71.4999967269899,4|0,0:0|0:0,0:0:0:0:
248,349,21276,1,0,0:0:0:0:
204,364,21476,1,0,0:0:0:0:
189,236,21676,2,0,P|165:208|148:168,1,71.4999967269899,4|0,0:0|0:0,0:0:0:0:
151,131,22076,1,0,0:0:0:0:
160,86,22276,1,0,0:0:0:0:
272,148,22476,2,0,P|307:141|350:146,1,71.4999967269899,4|0,0:0|0:0,0:0:0:0:
467,176,22876,5,2,0:0:0:0:
404,288,23076,1,2,0:0:0:0:
289,57,23276,1,2,0:0:0:0:
414,29,23476,5,2,0:0:0:0:
185,146,23676,1,2,0:0:0:0:
289,220,23876,1,2,0:0:0:0:
404,288,24076,6,0,P|379:320|346:342,1,71.4999967269899,6|0,0:0|0:0,0:0:0:0:
229,371,24476,1,2,0:0:0:0:
113,314,24676,1,2,0:0:0:0:
54,256,24776,1,2,0:0:0:0:
30,177,24876,1,2,0:0:0:0:
254,50,25276,5,2,0:0:0:0:
378,83,25476,1,2,0:0:0:0:
282,169,25676,5,4,0:0:0:0:
406,202,25876,1,0,0:0:0:0:
318,296,26076,2,0,P|283:303|245:298,1,71.4999967269899
122,268,26476,2,0,L|52:250,1,71.4999967269899,4|0,0:0|0:0,0:0:0:0:
80,124,26876,1,0,0:0:0:0:
116,0,27076,1,0,0:0:0:0:
211,86,27276,6,0,B|251:74|251:74|281:91,1,71.4999967269899,4|0,0:0|0:0,0:0:0:0:
313,118,27676,1,0,0:0:0:0:
349,147,27876,1,0,0:0:0:0:
232,202,28076,2,0,B|222:242|222:242|192:260,1,71.4999967269899,4|0,0:0|0:0,0:0:0:0:
153,274,28476,1,0,0:0:0:0:
110,291,28676,1,0,0:0:0:0:
143,166,28876,2,0,B|112:137|112:137|112:102,1,71.4999967269899,4|0,0:0|0:0,0:0:0:0:
120,62,29276,5,2,0:0:0:0:
373,106,29476,1,2,0:0:0:0:
208,303,29676,1,2,0:0:0:0:
290,206,29876,5,2,0:0:0:0:
246,86,30076,1,2,0:0:0:0:
163,184,30276,1,2,0:0:0:0:
119,64,30476,2,0,P|83:83|57:114,1,71.4999967269899,6|0,0:0|0:0,0:0:0:0:
40,232,30876,1,0,0:0:0:0:
128,325,31076,1,2,0:0:0:0:
207,349,31176,1,2,0:0:0:0:
287,328,31276,1,2,0:0:0:0:
406,99,31676,5,2,0:0:0:0:
184,57,31876,1,2,0:0:0:0:
262,268,32076,6,0,P|221:282|177:277,1,82.5000031471254,8|0,0:0|0:0,0:0:0:0:
57,207,32376,1,0,0:0:0:0:
85,191,32476,2,0,P|126:177|170:182,1,82.5000031471254,8|0,0:0|0:0,0:0:0:0:
251,65,32776,1,0,0:0:0:0:
223,81,32876,2,0,P|182:95|138:90,1,82.5000031471254,8|0,0:0|0:0,0:0:0:0:
12,29,33176,1,0,0:0:0:0:
40,13,33276,2,0,P|81:-1|125:4,1,82.5000031471254,8|0,0:0|0:0,0:0:0:0:
223,81,33576,5,0,0:0:0:0:
250,99,33676,2,0,B|284:123|284:123|284:163,1,82.5000031471254,8|0,0:0|0:0,0:0:0:0:
279,310,33976,1,0,0:0:0:0:
247,316,34076,2,0,B|205:323|205:323|177:294,1,82.5000031471254,8|0,0:0|0:0,0:0:0:0:
98,171,34376,1,0,0:0:0:0:
116,144,34476,2,0,B|140:110|140:110|180:110,1,82.5000031471254,8|0,0:0|0:0,0:0:0:0:
327,108,34776,1,0,0:0:0:0:
333,139,34876,2,0,B|340:180|340:180|311:208,1,82.5000031471254,8|0,0:0|0:0,0:0:0:0:
186,281,35176,1,0,0:0:0:0:
160,299,35276,6,0,B|113:299|113:299|106:253,1,82.5000031471254,8|0,0:0|0:0,0:0:0:0:
82,333,35576,1,0,0:0:0:0:
109,370,35676,6,0,L|155:369,1,41.2500015735627,2|0,0:0|0:0,0:0:0:0:
42,309,35876,2,0,L|36:267,1,41.2500015735627,2|0,0:0|0:0,0:0:0:0:
225,343,36076,6,0,L|274:341,1,41.2500015735627,2|0,0:0|0:0,0:0:0:0:
65,201,36276,2,0,L|58:155,1,41.2500015735627,2|0,0:0|0:0,0:0:0:0:
322,291,36476,6,0,L|371:289,1,41.2500015735627,2|0,0:0|0:0,0:0:0:0:
106,100,36676,2,0,L|99:54,1,41.2500015735627,2|0,0:0|0:0,0:0:0:0:
225,60,36876,6,0,B|306:34|306:92|396:55,1,165.000006294251,8|0,0:0|0:0,0:0:0:0:
462,187,37476,1,2,0:0:0:0:
462,187,37576,1,2,0:0:0:0:
462,187,37676,2,0,P|482:269|449:352,1,165.000006294251,10|0,0:0|0:0,0:0:0:0:
308,319,38276,2,0,L|284:312,2,20.6250007867813
252,301,38476,6,0,P|226:301|209:294,1,41.2500015735627,4|0,0:0|0:0,0:0:0:0:
85,210,38676,2,0,P|111:210|128:217,1,41.2500015735627
120,341,38876,2,0,P|120:315|127:298,1,41.2500015735627
212,172,39076,2,0,P|212:198|205:215,1,41.2500015735627
204,96,39276,6,0,P|230:96|248:103,1,41.2500015735627,4|0,0:0|0:0,0:0:0:0:
370,168,39476,2,0,P|343:168|325:160,1,41.2500015735627
166,206,39676,2,0,P|192:206|210:213,1,41.2500015735627
331,277,39876,2,0,P|304:277|286:269,1,41.2500015735627
166,206,40076,6,0,L|113:234,1,41.2500015735627,4|0,0:0|0:0,0:0:0:0:
296,20,40276,2,0,L|333:0,1,41.2500015735627
126,93,40476,2,0,L|87:113,1,41.2500015735627
335,132,40676,2,0,L|385:105,1,41.2500015735627
126,93,40876,6,0,L|146:53,1,41.2500015735627,4|0,0:0|0:0,0:0:0:0:
259,283,41076,2,0,L|237:321,1,41.2500015735627
85,207,41276,2,0,L|65:246,1,41.2500015735627
299,168,41476,2,0,L|317:130,1,41.2500015735627
412,77,41676,5,4,0:0:0:0:
389,33,41776,1,0,0:0:0:0:
344,12,41876,1,0,0:0:0:0:
295,18,41976,1,0,0:0:0:0:
251,49,42076,5,4,0:0:0:0:
202,71,42176,1,0,0:0:0:0:
149,64,42276,1,0,0:0:0:0:
102,38,42376,1,0,0:0:0:0:
56,3,42476,5,4,0:0:0:0:
20,48,42576,1,0,0:0:0:0:
3,103,42676,1,0,0:0:0:0:
11,160,42776,1,0,0:0:0:0:
43,213,42876,5,4,0:0:0:0:
83,260,42976,1,0,0:0:0:0:
136,292,43076,1,0,0:0:0:0:
196,307,43176,1,0,0:0:0:0:
263,309,43276,6,0,P|272:327|275:351,2,41.2500015735627,6|0|0,0:0|0:0|0:0,0:0:0:0:
199,174,43676,1,2,0:0:0:0:
207,25,43876,1,2,0:0:0:0:
57,23,44076,5,4,0:0:0:0:
57,89,44176,1,0,0:0:0:0:
77,152,44276,1,0,0:0:0:0:
112,208,44376,1,0,0:0:0:0:
162,251,44476,1,4,0:0:0:0:
225,271,44576,1,0,0:0:0:0:
291,276,44676,1,0,0:0:0:0:
355,260,44776,1,0,0:0:0:0:
403,216,44876,6,0,P|448:132|431:37,1,187.000003566742,4|0,0:0|0:0,0:0:0:0:
272,92,45476,1,0,0:0:0:0:
109,133,45676,2,0,P|90:177|91:229,1,93.500001783371,4|0,0:0|0:0,0:0:0:0:
240,297,46076,2,0,P|259:253|258:201,1,93.500001783371
109,133,46476,6,0,P|205:143|260:209,1,187.000003566742,4|0,0:0|0:0,0:0:0:0:
315,367,47076,1,0,0:0:0:0:
407,226,47276,2,0,P|398:273|368:312,1,93.500001783371,4|0,0:0|0:0,0:0:0:0:
203,300,47676,1,0,0:0:0:0:
80,207,47876,1,0,0:0:0:0:
76,81,48076,6,0,P|164:112|200:196,1,187.000003566742,4|0,0:0|0:0,0:0:0:0:
331,316,48676,2,0,P|349:338|386:359,1,68.75,2|0,0:0|0:0,0:0:0:0:
240,271,48876,2,0,P|211:276|175:298,1,68.75,2|0,0:0|0:0,0:0:0:0:
325,216,49076,2,0,P|334:188|332:146,1,68.75,2|0,0:0|0:0,0:0:0:0:
413,263,49276,2,0,P|449:282|469:313,1,68.75,2|0,0:0|0:0,0:0:0:0:
248,366,49476,2,0,P|215:382|181:384,1,68.75,2|0,0:0|0:0,0:0:0:0:
205,162,49676,6,0,P|238:74|368:75,1,220,2|0,0:0|0:0,0:0:0:0:
509,185,50276,1,0,0:0:0:0:
312,209,50476,2,0,B|208:252|208:252|99:226,1,220,2|0,0:0|0:0,0:0:0:0:
17,48,51076,2,0,L|55:34,3,27.5
95,19,51276,6,0,P|182:3|287:28,1,187.000003566742,4|0,0:0|0:0,0:0:0:0:
427,98,51876,1,0,0:0:0:0:
490,253,52076,2,0,B|446:275|446:275|395:260,1,93.500001783371,4|0,0:0|0:0,0:0:0:0:
248,197,52476,2,0,B|204:175|204:175|161:187,1,93.500001783371
29,293,52876,6,0,P|64:215|85:113,1,187.000003566742,4|0,0:0|0:0,0:0:0:0:
210,2,53476,1,0,0:0:0:0:
368,58,53676,2,0,P|386:104|376:162,1,93.500001783371,4|0,0:0|0:0,0:0:0:0:
373,315,54076,1,0,0:0:0:0:
232,222,54276,1,0,0:0:0:0:
85,138,54476,6,0,P|65:236|105:324,1,187.000003566742,4|0,0:0|0:0,0:0:0:0:
341,341,55076,2,0,L|393:284,1,68.75,2|0,0:0|0:0,0:0:0:0:
398,166,55276,2,0,L|450:109,1,68.75,2|0,0:0|0:0,0:0:0:0:
317,38,55476,2,0,L|254:106,1,68.75,2|0,0:0|0:0,0:0:0:0:
252,237,55676,2,0,L|189:305,1,68.75,2|0,0:0|0:0,0:0:0:0:
25,289,55876,2,0,L|87:220,1,68.75,2|0,0:0|0:0,0:0:0:0:
101,128,56076,6,0,B|58:35|58:35|189:20,1,220,4|0,0:0|0:0,0:0:0:0:
373,12,56676,1,0,0:0:0:0:
434,189,56876,1,2,0:0:0:0:
310,261,57076,1,0,0:0:0:0:
203,205,57276,1,0,0:0:0:0:
114,249,57476,2,0,L|78:235,3,27.5
65,206,57676,6,0,P|56:162|25:123,2,93.500001783371,4|4|4,0:0|0:0|0:0,0:0:0:0:
133,359,58276,1,0,0:0:0:0:
221,217,58476,2,0,P|266:201|315:207,1,93.500001783371,4|0,0:0|0:0,0:0:0:0:
464,275,58876,1,0,0:0:0:0:
409,115,59076,1,0,0:0:0:0:
262,31,59276,6,0,P|213:17|167:24,1,93.500001783371,4|0,0:0|0:0,0:0:0:0:
16,89,59676,1,0,0:0:0:0:
164,167,59876,1,0,0:0:0:0:
310,249,60076,2,0,P|357:265|411:264,1,93.500001783371,4|0,0:0|0:0,0:0:0:0:
385,98,60476,2,0,P|358:53|323:32,1,93.500001783371
243,7,60876,6,0,P|146:73|248:77,1,285.99998690796,8|4,0:0|0:0,0:0:0:0:
285,60,61876,1,0,0:0:0:0:
355,98,62076,1,0,0:0:0:0:
347,182,62276,1,0,0:0:0:0:
274,212,62476,6,0,B|226:241|234:343|234:343|166:265|116:278,1,285.99998690796,8|4,0:0|0:0,0:0:0:0:
65,273,63476,1,0,0:0:0:0:
0,233,63676,1,0,0:0:0:0:
0,157,63876,2,0,L|27:152,3,23.3750004458428
74,156,64076,6,0,P|123:86|220:64,1,187.000003566742,4|0,0:0|0:0,0:0:0:0:
380,109,64676,1,0,0:0:0:0:
362,276,64876,2,0,L|281:333,1,93.500001783371,4|0,0:0|0:0,0:0:0:0:
117,318,65276,2,0,L|193:264,1,93.500001783371
327,161,65676,6,0,B|262:90|262:90|173:153,1,187.000003566742,4|0,0:0|0:0,0:0:0:0:
46,235,66276,1,0,0:0:0:0:
40,67,66476,2,0,P|78:40|123:32,1,93.500001783371,4|0,0:0|0:0,0:0:0:0:
292,16,66876,1,0,0:0:0:0:
443,88,67076,1,0,0:0:0:0:
297,173,67276,6,0,P|341:265|282:330,1,187.000003566742,4|0,0:0|0:0,0:0:0:0:
226,335,67876,6,0,L|197:263,1,68.75,2|0,0:0|0:0,0:0:0:0:
385,348,68076,2,0,L|410:283,1,68.75,2|0,0:0|0:0,0:0:0:0:
168,196,68276,6,0,L|139:124,1,68.75,2|0,0:0|0:0,0:0:0:0:
438,214,68476,2,0,L|463:149,1,68.75,2|0,0:0|0:0,0:0:0:0:
110,61,68676,6,0,B|86:0|86:0|29:214,1,280.500005350113,2|0,0:0|0:0,0:0:0:0:
92,362,69476,1,0,0:0:0:0:
259,344,69676,5,8,0:0:0:0:
363,250,69876,1,8,0:0:0:0:
298,158,70076,1,8,0:0:0:0:
363,105,70276,1,8,0:0:0:0:
347,76,70476,5,12,0:0:0:0:
